#TITLE:Fantasia;
#SUBTITLE:;
#ARTIST:?;
#TITLETRANSLIT:;
#SUBTITLETRANSLIT:;
#ARTISTTRANSLIT:;
#GENRE:Dream Tech;
#CREDIT:;
#BANNER:Fantasia-bn.png;
#BACKGROUND:Fantasia-bg.png;
#LYRICSPATH:;
#CDTITLE:;
#MUSIC:Fantasia.ogg;
#OFFSET:-0.023;
#SAMPLESTART:14.520;
#SAMPLELENGTH:12.920;
#SELECTABLE:YES;
#BPMS:0.000=82.500,16.000=41.250,18.000=165.000,163.000=82.500,179.000=165.000;
#STOPS:113.500=2.545;
#BGCHANGES:0.153=Fantasia.mpg=1.000=1=0=0=StretchNoLoop==CrossFade==,
99999=-nosongbg-=1.000=0=0=0 // don't automatically add -songbackground-;
#KEYSOUNDS:;

//---------------dance-single - BEGINNER----------------
#NOTES:
     dance-single:
     BEGINNER:
     Beginner:
     1:
     0.186,0.199,0.141,0.000,0.000,132.000,16.000,0.000,0.000,0.000,0.000,0.186,0.199,0.141,0.000,0.000,132.000,16.000,0.000,0.000,0.000,0.000:
0000
0000
0000
0000
,
0000
0000
0000
0000
,
1000
0000
0001
0000
,
0100
0000
0010
0000
,
0110
0000
1000
0000
,
0001
0000
0100
0000
,
0010
0000
1000
0000
,
0001
0000
0100
0000
,
0001
0000
0100
0000
,
0010
0000
1000
0000
,
0100
0000
0010
0000
,
0001
0000
1000
0000
,
0010
0000
0100
0000
,
0100
0000
0010
0000
,
0010
0000
1000
0000
,
1000
0000
0001
0000
,
0001
0000
0100
0000
,
0010
0000
1000
0000
,
0100
0000
0010
0000
,
0001
0000
1001
0000
,
0000
0000
0100
0000
,
0010
0000
0110
0000
,
0000
0000
1000
0000
,
0001
0000
1001
0000
,
0000
0000
0100
0000
,
0010
0000
0110
0000
,
0000
0000
1000
0000
,
0001
0000
1001
0000
,
0000
0000
0000
1001
0000
0000
1000
0000
,
0000
1000
0000
0001
,
0001
0001
0000
0100
,
0000
0010
0000
0100
,
0100
0100
0000
0001
,
0000
1000
0000
0010
,
0010
0010
0000
0100
,
0000
0001
0000
1000
,
1000
1000
0000
0010
,
0000
0100
0000
0010
,
0000
0100
0000
0001
,
0000
1000
0000
0010
,
0000
0100
0000
1001
,
0000
0110
0000
1001
,
0000
0110
0000
1000
,
1000
0001
0001
0100
,
0100
0010
0010
1000
,
0000
1000
0000
0001
,
0001
0001
0000
0100
,
0000
0010
0000
0100
,
0100
0100
0000
1000
,
0000
0001
0000
0010
,
0000
0100
0100
0100
,
0000
1000
0000
0010
,
0000
0100
0000
0001
,
0000
0001
0000
1000
,
1000
1000
0000
0010
,
0000
0100
0000
0010
,
0010
0010
0000
0100
,
0000
0001
0000
1000
,
1000
1000
0000
0001
,
0000
0100
0000
0010
,
0000
0100
0000
0110
,
0000
0000
0000
1001
,
0000
0000
0000
0110
,
0000
0000
0000
1001
,
0000
0000
0000
1001
;

//---------------dance-single - BEGINNER----------------
#NOTES:
     dance-single:
     BEGINNER:
     Easy:
     4:
     0.373,0.431,0.387,0.202,0.000,230.000,44.000,23.000,0.000,3.000,0.000,0.373,0.431,0.387,0.202,0.000,230.000,44.000,23.000,0.000,3.000,0.000:
0000
0000
0000
0000
,
0000
0000
0000
0000
,
1000
0001
0100
0110
,
1000
1001
0100
0110
,
2000
0000
3000
1000
,
0001
0100
0010
0000
,
1001
1001
0100
0010
,
1000
0100
0010
0000
,
0001
0001
0100
0010
,
1000
0100
0110
0000
,
1000
0001
0100
0100
,
0010
1000
1010
0000
,
0100
0001
0010
0010
,
0001
0100
0010
0010
,
1000
0010
0001
0001
,
0010
0100
0001
1000
,
1001
0000
0100
0010
,
1000
1000
0100
0000
,
0010
0001
0100
0010
,
1000
0010
0001
0010
,
0110
0110
1000
0001
,
0010
0100
2000
0000
,
3000
0100
0010
1000
,
0001
0010
0200
0000
,
0300
1000
0010
0100
,
0100
0010
2000
0000
,
3001
0100
1000
0000
,
0010
0000
0100
0010
,
1000
0001
0000
1000
,
0010
0100
0010
1001
,
0110
1001
0101
1000
,
0010
0100
0001
0011
,
0101
1010
0110
1000
,
0100
0010
0001
1010
,
0110
0101
0011
0010
,
0100
1000
0010
0110
,
0110
1001
1001
0200
,
0310
0002
0013
2000
,
3100
0020
0130
2000
,
3100
0002
0013
2000
,
3010
0200
0301
2002
,
3103
0010
1000
0220
,
1330
0010
0100
2002
,
3103
0010
1000
0200
,
0301
1000
0010
1000
,
0010
0100
0001
0011
,
0101
0011
0101
1000
,
0010
0100
0010
1010
,
1100
0220
0330
1000
,
0010
0100
0001
1010
,
0110
0101
0011
0010
,
0100
1000
0010
0100
,
0100
0010
0010
1000
,
0010
0001
0010
1000
,
0010
0001
0011
1000
,
0100
0001
0100
1000
,
0100
0110
0110
1000
,
0010
0100
0001
0010
,
0010
0100
0100
1000
,
0010
0001
0010
0100
,
0010
1000
0100
0010
,
0000
0001
0000
1000
,
0010
0100
0010
1000
,
0000
0001
0000
0010
,
0100
1000
0000
2002
,
0000
3003
0000
0000
;

//---------------dance-single - LIGHT----------------
#NOTES:
     dance-single:
     LIGHT:
     Medium:
     7:
     0.465,0.465,0.352,0.141,0.018,314.000,40.000,16.000,0.000,0.000,0.000,0.465,0.465,0.352,0.141,0.018,314.000,40.000,16.000,0.000,0.000,0.000:
0000
0000
0000
0000
,
0000
0000
0000
0000
,
1000
0001
1001
0000
0100
0010
0110
0000
,
1000
0001
1001
0000
0010
0001
0011
0000
,
2002
0000
0000
3003
1000
0010
1000
0000
,
0010
0100
0002
0003
,
0010
0000
0100
0000
1000
0010
1000
0000
,
0010
0100
0002
0003
,
0010
0100
0010
0000
0100
1000
0100
0000
,
1000
0010
0200
0300
,
0010
0000
1000
0000
0010
0100
0010
0000
,
0100
0001
0020
0030
,
0001
1000
0001
0000
0100
0010
0100
0000
,
0010
1000
0010
0000
0100
0001
0100
0000
,
0011
0000
1100
0000
0010
0001
0010
0000
,
0100
1000
0100
0000
0110
0000
1001
0000
,
1000
0001
1000
0000
0010
0100
0010
0000
,
1000
0000
0010
0000
0100
0000
0000
0001
,
0010
0000
0001
0000
0100
0010
0100
0000
,
0010
1000
0010
0000
0100
0000
0001
0000
,
0010
0100
2002
3003
,
0220
0330
1010
0101
,
0011
1100
0022
0033
,
2200
3300
0011
0101
,
1010
0000
0110
0000
1000
0000
0001
0100
,
0001
1000
0000
0010
0000
0000
0000
0100
,
0000
0010
0000
0000
1000
0000
0100
0000
,
0010
0000
0001
0000
0100
0010
0100
0010
,
0100
0000
0010
0110
0000
0000
1000
0000
,
0001
0100
0010
1000
0010
0100
0010
0000
,
1000
0001
0100
0010
,
0010
0001
0010
1000
0010
0100
1001
0000
,
0000
0100
0010
0000
0110
0000
1000
0000
,
0010
0100
0010
1000
0010
0100
0001
0000
,
0010
0100
1000
0010
,
0010
0100
0010
1000
0001
0010
0100
0000
,
0100
1000
0010
0100
0010
1000
0000
0000
,
0010
0100
0001
0010
,
0010
0001
0001
1000
,
0010
0001
0010
1000
,
0100
0001
0010
1000
,
0001
0000
0000
0010
0100
0000
1000
0000
0010
0000
0000
0000
1000
0000
0000
0000
,
0001
0000
0000
0100
0010
0000
1000
0000
0001
0000
0000
0000
0010
0000
0000
0000
,
0100
0000
0000
1000
0010
0000
0100
0000
0001
0000
0000
0000
0010
0000
0000
0000
,
0100
0000
0000
1000
0001
0000
0100
0000
0010
0000
0000
0000
1000
0000
0010
0000
,
0100
0010
1000
0001
0100
0001
1001
0000
,
0110
0000
1010
0000
0101
0000
0010
0001
,
0010
0100
0010
1000
0010
0100
0010
0000
,
0001
0100
0001
0000
1001
0000
0100
0010
,
1000
0010
0100
0010
1000
0001
1001
0000
,
0110
0000
1010
0000
0110
0000
1000
0010
,
0001
0010
1000
0010
0100
0010
1010
0000
,
0101
0011
0110
1000
,
0010
0100
0010
0000
1000
0000
0001
0000
,
0010
0001
0010
0000
0100
0000
1000
0000
,
0010
0001
0010
0000
0100
0000
0010
0000
,
1000
0010
1000
0010
1000
0000
0010
0000
,
0100
0001
0100
0000
0001
0000
0010
0000
,
0100
1000
0100
0000
0010
0000
0001
0000
,
0100
0010
0100
0000
0010
0000
1000
0000
,
0100
0010
0001
0100
0010
1000
0001
0000
,
0010
0100
1000
0010
,
0001
0010
1000
1001
,
0100
0010
1000
1100
,
0010
0001
0100
2002
,
0000
0000
0000
0000
,
3003
0000
0000
0000
;

//---------------dance-single - M. Calfin----------------
#NOTES:
     dance-single:
     M. Calfin:
     Hard:
     9:
     0.529,0.631,0.062,0.053,0.128,408.000,7.000,6.000,0.000,0.000,6.000,0.529,0.631,0.062,0.053,0.128,408.000,7.000,6.000,0.000,0.000,6.000:
0000
0000
0000
0000
,
0000
0000
0000
0000
,
1000
0000
0100
0000
1100
0000
0000
0001
1000
0000
0001
0000
0101
0000
0000
1000
,
0001
1000
1100
0000
0100
1000
1100
0000
,
0022
0000
0000
0000
0000
0033
0000
0000
1000
0000
0001
0000
0001
0000
0100
0000
,
0000
0000
0001
0000
0100
0000
0001
0000
0000
0000
0000
0000
0000
0000
1000
0100
,
1000
0000
1000
0000
0001
0010
0001
0001
,
0000
0010
0001
4000
0000
0000
0000
3000
,
0000
0000
0001
0000
0100
0001
0001
0100
,
0000
0000
0001
0000
1000
0000
0100
0000
0000
0000
1000
0000
0000
0000
1000
0100
,
1000
0000
0001
0000
0010
0001
0001
0010
,
0000
0001
0010
0004
0000
0000
0000
0000
,
0000
0003
0000
0000
0010
0001
0010
0010
,
0001
0100
0100
0001
0001
0100
0001
0100
,
0001
0000
1000
0000
0001
1000
0100
4000
,
0000
0000
0000
0000
0000
3000
0000
0000
,
0000
0000
0000
0000
0100
1000
0100
0100
,
1000
0000
0001
0000
0001
0000
0100
0000
0000
0000
0100
0000
0000
0000
0010
0100
,
0010
0000
0100
0000
0001
0100
0001
0100
,
0000
0001
1000
0400
0000
0000
0000
0000
,
0000
0300
0000
0000
1000
0000
0001
0100
,
0001
0100
0000
0001
0000
1000
0000
0100
,
0000
1000
0100
0000
1000
0000
0001
0100
,
0001
0100
0000
0004
0000
0000
0000
0000
,
0003
0000
0000
0000
0100
0000
0100
0010
,
1000
0100
0000
0010
0000
0001
0000
0010
,
0000
0001
0100
0000
0010
0000
1000
0010
,
1000
0010
0100
0001
0100
0001
0100
0001
,
1000
0100
1000
2200
3300
0000
1000
0001
,
0001
0100
0001
0001
0100
0001
0001
1000
,
0100
0100
1000
0100
1000
0100
1000
0100
,
0000
1000
0000
0100
0000
1000
0001
0100
,
0001
0100
0001
0100
0001
0100
0001
0001
,
0100
0001
0000
0010
0001
0001
0010
0010
,
0001
0001
1000
1000
0001
0001
0100
0001
,
0100
0010
0000
0100
0010
1000
0010
1000
,
0010
0000
1000
0010
1000
0000
0010
0000
0100
0000
0001
0000
0100
0000
0001
0000
,
0001
0100
0001
0100
0001
0001
1000
0100
,
0100
1000
0100
0100
1000
0001
0010
0001
,
0010
0001
0010
0001
0001
0010
0001
0001
,
0100
0001
0100
0001
0100
0010
0010
0000
,
1000
0000
0000
1000
0100
0000
1000
0000
0001
0100
0001
0100
0001
0000
0010
0000
,
0001
0000
0000
0010
0100
0000
0100
1000
0000
1000
0010
0000
1000
0000
0010
1000
,
0010
0000
0100
0001
0000
0001
0010
0000
0010
0100
0010
0100
0010
0000
0010
0100
,
0100
0000
0100
1000
0000
1000
0100
0000
1000
0001
1000
0000
1001
0000
0100
0000
,
0001
0400
0000
0300
0000
0001
1000
1000
,
0100
0100
1000
0000
0100
0000
0010
0001
,
0000
0000
0010
0000
0000
0000
0001
0000
0000
0000
0100
0010
0100
0000
0000
0000
,
0010
1000
1000
0010
0010
0000
0100
0001
,
0000
0100
0000
0001
0000
1000
0100
0100
,
1000
1000
0100
0010
0001
0010
0001
0001
,
0010
0000
0001
0000
0000
0000
0001
0000
0000
0000
0100
0001
0100
0000
0000
0000
,
0001
1000
0100
1000
0100
1000
0100
0100
,
1000
0100
0000
1000
0001
0100
0001
0100
,
0001
0100
0001
0000
0010
0000
0001
0010
,
0001
0000
0001
0000
0000
0000
1000
0000
0000
0000
0100
1000
0100
0000
0000
0000
,
1000
0000
0001
0100
0001
0000
0000
0000
0100
0000
0000
0000
0001
0000
0100
0000
,
0010
0000
0010
0000
0000
0000
1000
0000
0010
0000
1000
0000
0010
1000
0010
0000
,
1000
0000
0010
0000
0100
0001
0100
0000
0001
0000
0100
0000
0001
0000
0001
0000
,
0100
0000
0001
0000
0000
0000
1000
0000
0100
0000
1000
0000
0100
1000
0100
0000
,
1000
0000
0001
0000
0010
0001
0010
0000
0001
0000
0100
0000
0001
0000
0001
0000
,
0100
0001
0001
1000
0100
0100
1000
0100
,
1000
0100
1000
1000
0010
0010
1000
0010
,
1000
0010
0010
1000
0001
0001
1000
0001
,
0100
0001
0100
0001
0001
0200
0002
0000
,
0000
0303
0000
0000
;

//---------------dance-single - BlueChaos----------------
#NOTES:
     dance-single:
     D. Runberg:
     Challenge:
     10:
     0.747,0.000,0.361,0.422,0.405:
0000
0000
0000
0000
,
0000
0000
0000
0000
,
0001
0001
0100
0010
1000
1000
0100
0010
0001
0000
0100
0001
0000
0001
1000
0000
,
1000
1000
0100
0010
0001
0001
0100
1000
0100
0000
1000
0100
0000
0100
0010
0000
,
2000
0000
0000
0000
3001
0100
0010
0010
,
1000
0000
0100
0000
0100
0000
0020
0000
0000
0000
0030
0000
MM0M
0000
0001
0100
,
0010
1000
1010
0000
1000
0010
0100
0100
,
0001
0010
0010
0200
0010
0000
0001
0000
,
1000
1000
2300
0000
3010
0100
0100
0001
,
0000
0000
1000
0000
0100
0000
0010
0000
0000
0000
0011
0000
0000
0000
0001
1000
,
0010
0100
0110
0000
0100
0001
0001
0010
,
0000
0100
0010
0001
0001
1000
0010
0100
,
0102
0000
1003
0100
0100
0010
0001
0100
,
0000
0010
2000
0001
0000
3001
0010
0100
,
0020
0000
1000
0000
0031
0100
0010
1000
,
0000
0010
0100
0010
0100
0010
1000
0001
,
0020
0000
0130
1000
1001
0001
0100
0200
,
0000
0000
0301
0000
0010
0000
0200
0000
0000
0000
2300
0000
0000
0000
3001
0100
,
0010
0100
0101
0000
0001
0100
1000
0100
,
0000
0100
0001
0020
0000
0130
1000
0010
,
0100
0001
0011
0000
2002
3000
1000
0010
,
1000
0200
0000
0010
0000
0303
0000
M001
,
0000
000M
1000
0000
0000
M000
0010
0000
2002
0000
0003
0000
0001
0000
0010
0000
,
0001
0200
0000
0001
0000
3300
1000
0100
,
1000
0010
0100
0001
0202
0300
0010
1000
,
0100
2000
0000
0010
0000
3003
0001
0100
,
0000
0000
0100
0000
0010
0000
1000
0000
0200
0000
0000
0310
0001
0000
2000
0000
,
0000
0000
3010
0100
0010
0000
1000
0000
2100
0000
0000
0000
3001
0000
0101
0000
,
0000
0000
0001
0000
0100
0002
2000
0000
3003
0000
0000
0000
1000
0000
0100
0000
,
0001
0100
1000
0100
0001
0100
1000
1000
,
0010
0010
0100
0100
0101
0000
0110
0010
,
1000
0200
0000
0301
0100
1000
0010
0100
,
0010
0000
0100
0001
0010
0000
0100
0000
0100
0000
0000
0000
1000
0000
0100
0000
,
0001
0100
1000
0100
0001
0100
0100
1000
,
1000
0010
1010
0000
0101
0000
0001
0100
,
1000
0200
0000
0310
1000
0100
0020
0000
,
0030
0000
0001
0100
0010
0000
1000
0000
1000
0000
0000
0000
0001
0000
0100
0000
,
0001
1000
0001
0010
0001
0200
0000
0310
,
1000
0200
0300
1100
0000
1000
0010
0000
,
0110
0000
0100
0001
0010
0200
0000
0001
,
0000
0000
0000
0000
0010
0000
0000
0000
0000
0000
0000
0000
1300
0000
0000
0000
0000
0000
0000
0000
0000
0000
0000
0000
1001
0000
1000
0000
0100
1000
0001
0000
,
0101
0000
0000
0000
0110
0000
0100
0000
0001
1000
0100
0000
0011
0000
0000
0000
0100
0010
1000
0000
0101
0000
0001
0000
1000
0000
0000
0000
1001
0000
0100
0000
,
0001
0000
0000
0000
0011
0000
0010
0000
0100
1000
0001
0000
0100
0000
0010
0000
0100
0001
1000
0000
0100
0000
0010
0000
0011
0000
0000
0000
0110
0000
0100
0000
,
1000
0000
0000
0000
0100
0000
1000
0000
0010
0100
0001
0000
0100
0000
0001
0000
0010
0000
0010
0000
0100
0000
1000
0000
1001
0000
0000
0000
0011
0000
0001
0000
,
0100
0000
0000
0000
0010
0000
1000
0000
0000
0000
1000
0000
0100
0000
0010
0000
0001
0010
0001
0000
1000
0001
0100
0010
1000
0000
0000
0000
0010
0000
0000
0000
,
0100
0000
0010
0000
0001
0000
0010
0000
1000
0000
0001
0000
1000
0100
0010
0001
,
1000
0100
0010
0001
1000
0100
0010
0001
0020
0000
0000
0000
0031
0000
0100
0000
,
1000
0100
0001
0010
0010
0100
1100
0010
,
0100
0000
0001
0100
0001
0000
0001
0000
0010
0000
M01M
0000
0100
0000
0010
0000
,
0001
0000
0100
0000
1000
0000
0100
0000
0001
0000
0010
0000
0100
1000
0010
0100
,
0001
0100
0010
1000
0001
0100
0010
1000
0200
0000
0000
0000
1300
0000
0010
0000
,
0001
0010
0100
0010
1000
0100
0011
0001
,
0100
0000
0010
0100
0010
0000
0010
0000
1010
0000
1M0M
0000
1100
0000
0100
1000
,
0010
0000
1000
0010
0100
0000
0010
0100
0001
0000
1000
0100
0020
0000
0031
0000
,
0001
0000
0100
0010
2000
0000
0001
0000
3001
0000
0100
0010
1000
0000
0001
0010
,
0100
0000
1000
0100
0010
0000
0001
0100
0010
0000
1000
0100
0020
0000
0100
0000
,
0130
0000
1000
0010
0200
0000
0001
0000
0301
0000
0100
0001
0100
0001
0010
0100
,
1000
0000
0100
0000
1000
0000
0100
0000
0010
0000
0001
0010
0100
0000
1000
0000
,
1000
0000
0001
0100
0020
0000
0130
0000
1001
0000
1000
0100
0010
0100
0010
0001
,
1000
0000
0100
0000
0001
0000
0100
0000
1000
0000
0100
0010
0001
0000
0010
0000
,
0001
0000
0100
0010
1000
0000
1000
0000
1100
0000
0000
0000
0210
0000
00M0
0000
,
1300
0M00
2100
0M00
3001
0100
0M00
0010
,
1000
0M01
00M0
0022
0000
0033
0120
0M00
,
0031
000M
0012
00M0
1003
0010
00M0
0100
,
0010
0000
2000
0000
00M0
0000
3001
0000
M010
010M
1000
0M01
2002
0000
0000
0000
,
0000
0000
0000
0000
,
3003
0000
0000
0000
;

//---------------dance-double - M.Emirzian----------------
#NOTES:
     dance-double:
     M.Emirzian:
     Easy:
     3:
     0.202,0.228,0.018,0.018,0.000,157.000,2.000,2.000,0.000,0.000,0.000,0.202,0.228,0.018,0.018,0.000,157.000,2.000,2.000,0.000,0.000,0.000:
00000000
00000000
00000000
00000000
,
00000000
00000000
00000000
00000000
,
00000000
00000000
00000000
00000000
,
10000000
00010000
10000000
00010000
,
20020000
00000000
00000000
30030000
10000000
00000000
00000000
00000000
,
00100000
00000000
00010000
00000000
,
00001000
01000000
00001000
00000000
,
00010000
00000000
00000010
00000000
,
00001000
00000000
00000001
00000100
,
00001000
00000000
00010000
00000000
,
00100000
00000000
01000000
00010000
,
01000000
00000000
00100000
00000000
,
00000000
00000000
10000000
00000000
,
01000000
00000000
00100000
00000000
,
00010000
01000000
00100000
00000000
,
00010000
00000000
00001000
00000000
,
00010000
00000000
00000010
00001000
,
00000100
00000000
00000001
00000000
,
00000010
00000000
00001000
00000010
,
00000100
00000000
00001000
00000000
,
00001000
00000000
00010000
00000000
,
00010000
00100000
00010000
00000000
,
00100000
00000000
10000000
00010000
,
10000000
00000000
10000000
00000000
,
01000000
00000000
01000000
00100000
,
00001000
00000000
00010000
00000000
,
00010000
00000000
00000100
00000000
,
00001000
00000000
00001000
00000000
,
00000010
00000000
00000000
00000100
00000000
00000000
00000001
00000000
,
00000000
00000010
00000000
00000010
,
00000100
00001000
00000000
00001000
,
00000000
00000010
00000000
00000010
,
00010000
00001000
00000000
00000100
,
00000000
00001000
00000000
00010000
,
00001000
01000000
00000000
00100000
,
00000000
01000000
00000000
00001000
,
00010000
00000100
00000000
00010000
,
00000000
00001000
00000000
00001000
,
00000000
00100000
00000000
00100000
,
00000000
01000000
00000000
01000000
,
00000000
10000000
00000000
00010000
,
01000000
00100000
10000000
01000000
,
00010000
00001000
00000010
00000001
,
00000010
00001000
00010000
00100000
,
10000000
00000000
01000000
00000000
00100000
00010000
00100000
00000000
,
00000000
00010000
00000000
01000000
,
00100000
01000000
00000000
01000000
,
00000000
00001000
00000000
00010000
,
00000000
00000100
00001000
00000010
,
00000000
00001000
00000000
00000100
,
00000001
00000100
00000000
00010000
,
00000000
00000010
00000000
00000010
,
00000000
00010000
00001000
01000000
,
00000000
00100000
00000000
00100000
,
00000000
01000000
00001000
00100000
,
00000000
00100000
00000000
00100000
,
00000000
01000000
10000000
00010000
,
00000000
01000000
00000000
00001000
,
00000000
00010000
00100000
00010000
,
00000000
00001000
00000000
00000100
,
00000000
00001000
00000100
00001000
,
00000000
00001000
00000000
00000100
,
00000000
00000001
00000000
00000010
,
00000000
00010000
00000000
00001000
,
01000000
00100000
00000000
10010000
;

//---------------dance-double - M.Emirzian----------------
#NOTES:
     dance-double:
     M.Emirzian:
     Medium:
     5:
     0.313,0.342,0.062,0.018,0.004,240.000,7.000,2.000,0.000,0.000,0.000,0.313,0.342,0.062,0.018,0.004,240.000,7.000,2.000,0.000,0.000,0.000:
00000000
00000000
00000000
00000000
,
00000000
00000000
00000000
00000000
,
00000000
00000000
00000000
00000000
,
10000000
00100000
00010000
00001000
00000010
00000000
00000001
00000000
,
00000220
00000000
00000000
00000330
00001000
00000000
00000001
00000000
,
00000100
00000000
00000000
00001010
00000000
00000000
00000000
00000000
,
00000010
00001000
00000100
00010000
,
00001000
00000000
00000000
01001000
00000000
00000000
00000000
00000000
,
00001000
00010000
00100000
10000000
,
01000000
00000000
00000000
01000000
00000000
01000000
00000000
00100000
,
00010000
10000000
10000000
00100000
,
00100000
00000000
00000000
01001000
00000000
00000000
00000000
00000000
,
00100000
00001000
00010000
00000100
,
00001000
00000000
00000000
00001000
00000000
00001000
00000100
00000000
,
00000010
00000000
00000001
00000000
00000100
00000010
00000000
00000010
,
00000000
00001000
00000100
00000000
,
01000000
00000000
00010000
10000000
,
01000000
00000000
00000000
00100000
00000000
00100000
00000000
00100000
,
00001000
00010000
01000000
00010000
,
00001000
00000000
00000000
00001100
00000000
00000000
00000000
00000000
,
00000010
00000001
00000100
00001000
,
00010000
00001000
00000000
00001000
00000000
00000000
00000000
00010000
,
00000000
00010000
00000000
00010000
00001000
00000000
01000000
00000000
,
00100000
01000000
00000000
01000000
00000000
00000000
00010000
00000000
,
00000000
10000000
01000000
00100000
,
00010000
00100000
00000000
00100000
00000000
00000000
00000000
00001000
,
00000000
00001000
00000000
00010000
00000100
00000000
00000000
00001000
,
00000000
00001000
00000000
00000010
00000000
00000000
00000000
00000101
,
00000000
00000000
00000000
00011000
00000000
00000000
00000010
00000000
,
00000100
00010000
00001000
01000000
,
00100000
01000000
10000000
00010000
,
00000000
00010000
00000000
00010000
01000000
00000000
00100000
00000000
,
00000000
10000000
01000000
00000000
00100000
00000000
00010000
00000000
,
00100000
00001000
00010000
01000000
,
00010000
00001000
00010000
00000100
,
00000000
00000100
00000000
00000100
00000010
00000000
00000001
00000000
,
00000000
00000010
00000100
00000000
00001000
00000000
00000001
00000000
,
00000100
00001000
00010000
01000000
,
00000000
10000000
00000000
01000000
,
00100000
00010000
00100000
01000000
,
00000000
10000000
00100000
00010000
,
00001000
00000000
00010000
00001000
00000100
00000001
00000100
00000000
,
00000010
00000000
00000100
00001000
00010000
01000000
10000000
00000000
,
00100000
00000000
10000000
01000000
00100000
00001000
00010000
00000000
,
00000100
00000000
00000000
00000000
00000010
00000000
00000100
00000000
00001000
00000000
00000010
00000100
00000010
00000000
00000000
00000000
,
00000001
00000000
00000000
00000001
00000000
00000001
00000100
00000000
,
00000010
00001000
00000100
00010000
,
00000000
00010000
00000000
00010000
00001000
00000000
01000000
00000000
,
00000000
00010000
01000000
00000000
00100000
00000000
10000000
00010000
,
00000000
00010000
00000000
00000000
00100000
00000000
01000000
00000000
,
10000000
01000000
00010000
00001000
,
00000000
00000100
00000000
00000100
00000001
00000000
00001000
00000000
,
00000000
00000010
00000100
00000000
00001000
00000000
00000001
00000000
,
00000100
00000000
00000000
00000100
00000000
00000100
00000010
00000000
,
00001000
00000100
00010000
00001000
,
00000000
00010000
00000000
00010000
00001000
00000000
01000000
00000000
,
00000000
00100000
10000000
00000000
00100000
00000000
01000000
00010000
,
00000000
00010000
00000000
00000000
10000000
00000000
01000000
00000000
,
00010000
00001000
00000100
00000001
,
00000000
00000010
00000000
00000010
00000100
00000000
00001000
00000000
,
00000000
00000010
00000100
00000000
00001000
00000000
00010000
00000000
,
01000000
00100000
00010000
00100000
,
00000000
01000000
00000000
10000000
,
00100000
01000000
00001000
00010000
,
00000100
00000000
00001000
00000000
00000010
00000100
00000001
00000000
;

//---------------dance-double - M.Emirzian----------------
#NOTES:
     dance-double:
     M.Emirzian:
     Hard:
     7:
     0.455,0.570,0.026,0.035,0.062,355.000,3.000,4.000,4.000,0.000,0.000,0.455,0.570,0.026,0.035,0.062,355.000,3.000,4.000,4.000,0.000,0.000:
00000000
00000000
00000000
00000000
,
00000000
00000000
00000000
00000000
,
10000000
01000000
00100000
00000000
01000000
00100000
00010000
00000000
00100000
00000000
00001000
00000000
00010000
00000000
00000100
00000000
,
00001000
00000100
00000010
00000000
00000100
00000010
00000001
00000000
00000100
00000000
00000010
00000000
00010000
00000000
00001000
00000000
,
00022000
00000000
00000000
00030000
00013000
00000000
00001000
00010000
,
00000000
00010000
00001000
01000000
00000000
00100000
00000000
01000000
,
00010000
00000000
10000000
00000000
01000000
00100000
00000000
00010000
,
00000000
00100000
01000000
10000000
00000000
10000000
01000000
00000000
,
00100000
00010000
01000000
00000000
00100000
00000000
01000000
00001000
,
00000000
00001000
00010000
00000100
00000000
00001000
00000000
00000100
,
00010000
00000000
00001000
00000000
00000100
00000001
00000000
00000010
,
00000000
00000001
00001000
00000100
00000000
00000100
00000010
00000000
,
00000100
00000000
00010000
00001000
01000000
00000000
00001000
00010000
,
00000000
00010000
00100000
00010000
00000000
00010000
00000000
00010000
,
00100000
00000000
10000000
00000000
01000000
00100000
00000000
01000000
,
00000000
00100000
00010000
00000000
00010000
01000000
00000000
01000000
,
00001000
00000000
00010000
00000100
00001000
00000000
00000010
00010000
,
00000000
00010000
00001000
00000010
00000000
00001000
00000000
00001000
,
00000010
00000000
00001000
00000000
00000010
00000100
00000000
00001000
,
00000000
00000010
00000100
00000001
00000000
00000001
00000100
00000000
,
00000010
00001000
00000010
00000000
00010000
00000000
00001000
00000000
,
00001000
01000000
00000000
01000000
00010000
00000000
00010000
00100000
,
00000000
01000000
00000000
10000000
01000000
00000000
00010000
00000000
,
00010000
00001000
00000000
00001000
00000100
00000000
00000100
00000001
,
00000000
00000001
00000010
00000000
00000100
00000000
00000010
00000000
,
00000001
00000100
00000000
00000100
00000010
00000000
00000010
00001000
,
00000000
00000100
00000000
00010000
00001000
00000000
00100000
00010000
,
00000000
10000000
01000000
00000000
00010000
00001000
00000000
00000100
,
00000000
00001000
00000000
00022000
00033000
00000000
00010000
00000000
,
00010000
00001000
00000000
00001000
00000010
00000000
00000001
00001000
,
00000010
00000000
00000100
00000000
00000001
00000000
00000010
00000100
,
00000000
00010000
00000000
00000010
00010000
00001000
01000000
00000000
,
0M000000
01000000
00001000
00010000
00000010
00000000
00010000
00001000
,
00000000
00000100
00000000
00001000
00010000
00000000
00100000
00000000
,
01000000
00010000
00100000
00000000
01000000
00000000
10000000
01000000
,
00000000
00100000
00000000
00001000
00010000
00000100
00001000
00000000
,
0000M000
00001000
00000100
00010000
00001000
00000000
00010000
00000000
,
00001000
00000000
00000100
00001000
00000000
00001000
00000100
00000000
,
00000100
00001000
00000000
00001000
00010000
00000000
00100000
00000000
,
00010000
00000000
00100000
00010000
00000000
00010000
00100000
00000000
,
00100000
00000000
00010000
00000000
00000000
00000000
00010000
00000000
00001000
00000000
00000000
00000000
00010000
00000000
00000000
00010000
,
00001000
00000000
00000100
00000000
00000001
00000000
00000010
00000000
00000100
00001000
00000100
00000000
00000010
00000000
00000100
00001000
,
00000001
00000000
00000100
00000000
00001000
00000000
01000000
00000000
00010000
01000000
00100000
00000000
10000000
00000000
00000000
10000000
,
01000000
00000000
00010000
00000000
00000100
00000000
00001000
00000000
00000010
00001000
00000010
00000000
00000100
00000000
00000001
00000100
,
00001000
00000000
00000100
00000000
00001000
00010000
00100000
00000000
00010000
00100000
10000000
01000000
00100000
00000000
00000000
00000000
,
00100000
00010000
00000000
00010000
01000000
00000000
00100000
10000000
,
01000000
00000000
00100000
00000000
00010000
00000000
10000000
01000000
,
00000000
00010000
00000000
00001000
00010000
00000000
00010000
00100000
,
00000000
00100000
00010000
00000000
00100000
00000000
00010000
00000000
,
00001000
00000010
00000000
00000010
00000001
00000000
00000100
00000000
,
00000001
00001000
00000100
00000000
00000010
00000000
00000100
00010000
,
00000000
00001000
00000000
00000100
00001000
00000000
00001000
00000100
,
00000000
00000100
00001000
00000000
00010000
00000000
00001000
00010000
,
01000000
00000000
00100000
00010000
01000000
00000000
00100000
00000000
,
01000000
10000000
00000000
10000000
01000000
00000000
01000000
00010000
,
00000000
00010000
00001000
00000000
00001000
00000010
00000000
00000010
,
00000001
00000000
00000010
00000100
00001000
00000000
00000001
00000100
,
00000000
00000010
00000000
00000010
00010000
00001000
01000000
00000000
,
0M000000
01000000
00001000
00010000
00000010
00000000
00000100
00001000
,
00000000
00010000
00000000
00001000
00010000
00100000
01000000
00000000
,
0M000000
01000000
00100000
00010000
00001000
00000000
00010000
00000100
,
00010000
00000000
00010000
00001000
01000000
00100000
00000000
00100000
,
01000000
00010000
00000000
00010000
00000000
00010000
00100000
01000000
,
10000000
00000000
10000000
01000000
00000000
01000000
00010000
00000000
,
00010000
00001000
00000000
00001000
00000100
00000000
00001001
00000000
;

//---------------dance-double - M.Emirzian----------------
#NOTES:
     dance-double:
     M.Emirzian:
     Challenge:
     9:
     0.567,0.712,0.026,0.035,0.255,444.000,3.000,4.000,4.000,0.000,0.000,0.567,0.712,0.026,0.035,0.255,444.000,3.000,4.000,4.000,0.000,0.000:
00000000
00000000
00000000
00000000
,
00000000
00000000
00000000
00000000
,
00000001
00000100
00001000
00000100
00001000
00010000
00001000
00010000
00100000
00000000
01000000
00000000
00100000
00000000
10000000
00000000
,
01000000
00010000
01000000
00010000
00001000
00010000
00001000
00000100
00000010
00000000
00001000
00000000
00000100
00000000
00000010
00000000
,
00002002
00000000
00000000
00000000
00000000
00000000
00000000
00000000
00000000
00000000
00000000
00000000
00003003
00000000
00000000
00001000
00000001
00000000
00000000
00000000
00000010
00000000
00000000
00000000
00000100
00000000
00000000
00000000
00001000
00000000
00000000
00000000
,
00000000
00001000
00000100
00000010
00000000
00000010
00000000
00000010
,
00000100
00000000
00001000
00000000
00000010
00000100
00001000
00010000
,
00000000
00000000
00010000
00000000
00100000
00000000
01000000
00000000
00010000
00000000
00000000
00010000
01000000
00000000
00000000
01000000
,
00100000
10000000
00100000
00000000
01000000
00010000
10000000
01000000
,
00000000
01000000
00010000
00001000
00000000
00001000
00000000
00001000
,
00000010
00000000
00000001
00000000
00001000
00000010
00000100
00000001
,
00000000
00000000
00000001
00000000
00000100
00000000
00001000
00000000
00000100
00000000
00000000
00000100
00000001
00000000
00000000
00000001
,
00000010
00000000
00000000
00000010
00000100
00000000
00001000
00000000
00000010
00000000
00000100
00000000
00001000
00000000
00010000
00000000
,
00000000
00010000
00100000
00010000
00000000
00100000
00010000
00100000
,
10000000
00000000
00000000
10000000
01000000
00000000
00000000
01000000
00100000
00000000
00010000
00000000
10000000
00000000
01000000
00000000
,
00010000
00001000
00010000
00000000
00100000
00010000
00001000
00000010
,
00000100
00001000
00000100
00000000
00000001
00000100
00001000
00000001
,
00000000
00000010
00001000
00000010
00000000
00001000
00000000
00000010
,
00001000
00000000
00000000
00001000
00010000
00000000
00000000
00010000
00001000
00000000
00010000
00000000
00100000
00000000
10000000
00000000
,
00000000
00000000
10000000
00000000
00010000
00000000
01000000
00000000
00100000
00000000
00000000
00100000
10000000
00000000
00000000
10000000
,
01000000
00100000
01000000
00000000
10000000
01000000
00010000
01000000
,
10000000
00100000
00010000
00001000
00000000
00000010
00000000
00001000
,
00000000
00000010
00000000
00000001
00000100
00001000
00000100
00000001
,
00000010
00001000
00010000
00100000
00000000
00010000
00000000
00010000
,
00100000
10000000
01000000
00100000
00001000
00010000
00100000
10000000
,
01000000
00010000
00001000
00000100
00000010
00001000
00000000
00001000
,
00000000
00000010
00000000
00000100
00000001
00000000
00000010
00000100
,
00000000
00010000
00001000
00000000
01000000
00100000
00000000
10000000
,
00000000
01000000
00000000
00220000
00330000
00000000
00001000
00010000
,
00000000
00100000
00000000
00010000
00001000
00000100
00000001
00000100
,
00000010
00000000
00001000
00000000
00000100
00000000
00000000
00000100
00000010
00000000
00000000
00000010
00000001
00000000
00001000
00000000
,
00000000
00000010
00000000
00010000
00001000
00000100
00001000
00000000
,
0000M000
00001000
00010000
00100000
00010000
00000000
00010000
00100000
,
00000000
10000000
00000000
01000000
00100000
00001000
00010000
01000000
,
10000000
00000000
00100000
00000000
01000000
00000000
00000000
01000000
00010000
00000000
00000000
00010000
00100000
00000000
01000000
00000000
,
00000000
00100000
00000000
00001000
00010000
00100000
00010000
00000000
,
000M0000
00010000
00001000
00000010
00001000
00000000
00010000
00001000
,
00000010
00000001
00000100
00000001
00000010
00000100
00001000
00000010
,
00000100
00001000
00000000
00010000
00000000
00001000
00010000
00100000
,
10000000
00010000
01000000
10000000
01000000
00010000
00000000
10000000
,
00000000
00000000
00010000
00000000
00000000
00000000
00100000
00000000
01000000
00000000
10000000
00000000
00010000
00000000
00000000
00010000
,
01000000
00000000
00000000
00000000
00100000
00000000
10000000
00000000
00100000
00000000
00000000
00000000
01000000
00000000
00000000
00000000
00010000
00000000
00100000
00010000
00100000
00000000
01000000
00000000
00010000
00000000
00001000
00000000
00000000
00000000
00001000
00000000
,
00000100
00000001
00000010
00000000
00000100
00001000
00000100
00000000
00001001
00000000
00000000
00000010
00000100
00000000
00000100
00000001
,
00000100
00000000
00000000
00000000
00000100
00000000
00001000
00000000
00000100
00000000
00000000
00000000
00001000
00000000
00000000
00000000
00010000
00000000
00000010
00010000
00000010
00000000
00010000
00000000
00001000
00000000
00000100
00000000
00000000
00000000
00000100
00000000
,
00001000
00000000
00010000
00000000
00100000
00000000
00000000
00000000
10000000
00000000
00010000
00000000
00000000
00000000
00010000
00000000
00100000
00000000
01000000
00000000
10000000
00010000
10000000
00010000
10000000
00000000
00000000
00000000
01000000
00000000
00000000
00000000
,
00000000
01000000
00000000
01000000
10000000
01000000
00010000
00001000
,
00000100
00000000
00000001
00000000
00001000
00000000
00000000
00001000
00000100
00000000
00000000
00000100
00000010
00000000
00000100
00000000
,
00000000
00000100
00000000
00000100
00010000
00001000
00000100
00000000
,
00000M00
00000100
00001000
00010000
00100000
00000000
00010000
00100000
,
00000000
00100000
00000000
00100000
00010000
00001000
00000100
00001000
,
00010000
00000000
00100000
00000000
10000000
00000000
00000000
10000000
00010000
00000000
00000000
00010000
01000000
00000000
10000000
00000000
,
00000000
10000000
00000000
10000000
01000000
00010000
00100000
00000000
,
00M00000
00100000
00010000
01000000
10000000
00000000
01000000
00100000
,
10000000
00000000
01000000
00000000
00010000
00000000
01000000
00000000
10000000
00000000
00100000
00000000
01000000
00000000
00000000
01000000
,
00001000
00000000
00000000
00001000
00010000
00000000
00000000
00010000
00000100
00000000
00001000
00000000
00000100
00000000
00000001
00000000
,
00001000
00000010
00000001
00000010
00001000
00010000
00001000
00000000
,
00000100
00001000
00000000
00001000
00010000
00000000
00010000
00100000
,
10000000
00000000
00100000
00000000
00010000
00000000
10000000
00000000
01000000
00000000
00010000
00000000
10000000
00000000
00000000
10000000
,
01000000
00000000
00000000
01000000
00010000
00000000
00000000
00010000
00001000
00000000
00000100
00000000
00000001
00000000
00000010
00000000
,
00000001
00000010
00001000
00000010
00001000
00010000
00001000
00000000
,
00000100
00001000
00000000
00001000
00010000
00000000
00010000
00100000
,
10000000
01000000
00100000
00010000
01000000
00001000
00000000
00100000
,
00001000
00000100
00000000
00001000
00000000
00000100
00001000
00010000
,
00001000
00010000
00100000
10000000
00100000
01000000
00000000
01000000
,
00001000
00000100
00000000
00001000
00000000
00000100
00000001
00000000
;

//---------------dance-single - D. Renzetti----------------
#NOTES:
     dance-single:
     D. Renzetti:
     Edit:
     9:
     0.617,0.000,0.194,0.123,0.224:
0000
0000
0000
0000
,
0000
0000
0000
0000
,
1000
0010
0100
0000
0001
1000
0000
0000
0110
0000
0000
0001
0010
0100
1000
0000
,
0001
0100
0010
0000
1000
0001
0100
0000
0110
0000
0100
0001
0000
0000
0010
0000
,
2002
0000
0000
0000
0000
0000
0000
0000
0000
0000
0000
0000
3003
0000
0000
1000
0001
0000
0000
0000
0010
0000
0000
0000
0100
0000
0000
0000
1000
0000
0000
0000
,
0000
0000
1000
0000
0010
0000
0100
0000
0000
0000
0100
0000
0000
0000
0100
0001
,
0010
0000
0021
000M
0031
0010
0100
1000
,
0000
1000
0010
0100
0001
0000
0001
0000
,
0001
2001
3001
0000
1000
0100
0010
0001
,
0000
0000
0001
0000
0100
0000
0010
0000
0000
0000
0010
0000
0000
0000
0010
1000
,
0100
0000
1200
M000
1300
0100
0010
0001
,
0000
0001
0100
0010
2000
0000
0200
0000
,
0001
3000
1300
0100
0010
0001
0100
0010
,
0000
0010
1000
0100
0000
1100
0000
1000
,
0001
0000
0012
00M0
0013
0001
0100
0010
,
0000
0110
0000
0100
0001
0010
0100
1000
,
0010
0100
0001
0000
0010
0000
0010
0000
0100
0000
1000
0000
0010
0000
1000
0000
,
0001
0000
0010
0000
0100
0000
1000
0000
0000
0000
1010
0000
0000
0000
0010
0100
,
0001
0000
0012
00M0
0013
0001
0100
0001
,
0010
0100
1000
0001
1000
0000
1000
0000
,
1000
1002
1003
0000
0001
0100
1000
0100
,
0001
0100
1000
0100
0000
0010
0000
1000
,
0000
0010
0000
0100
0001
0010
1000
0010
,
0001
0010
1000
0010
0000
0001
0000
0100
,
0010
1000
0100
0010
0001
0010
1000
0010
,
0001
0010
1000
0010
0000
0001
0000
0100
,
0000
0010
1000
0100
0010
0000
0001
0010
,
0000
0001
0100
0010
1000
0000
0001
0100
,
0000
0000
0010
0000
0000
0000
2002
0000
3MM3
M00M
0000
0000
1000
0000
0100
0000
,
0010
0001
1000
0100
0010
0001
0100
0100
,
0010
0010
1000
0000
1010
M000
1000
0100
,
0010
0001
0000
0011
0000
0010
0001
0000
,
0000
0000
0001
0100
0010
0000
0010
0000
1000
0000
0000
0000
0001
0000
0010
0000
,
0100
1000
0001
0010
0100
1000
0010
0010
,
0100
0100
0001
0000
0101
000M
0001
0010
,
0100
1000
0000
1100
0000
0100
1000
0000
,
0000
0000
1000
0010
0100
0000
0100
0000
0001
0000
0000
0000
0010
0000
0001
0000
,
0100
0100
0010
1000
0001
0001
0100
0010
,
1000
0100
0000
1000
0000
0001
0100
0010
,
1000
1000
0010
0100
0001
0001
1000
0010
,
0100
0000
0001
0000
0000
0000
0100
0000
0000
0000
0010
0000
1000
0000
0000
1000
,
0010
0000
0000
0000
0100
0000
0001
0000
0010
0000
0000
0000
0100
0000
0000
0000
1000
0000
0010
0100
0010
0000
0100
0000
0001
0000
0000
0000
0000
0000
0010
0000
,
0001
0000
0100
0010
1000
0100
0010
0000
0001
0100
0010
1000
0100
0000
0000
1000
,
0010
0000
0000
0000
0100
0000
0001
0000
0010
0000
0000
0000
0001
0000
0000
0000
0100
0000
0010
0100
0010
0000
0100
0000
0001
0000
0000
0000
0000
0000
1000
0000
,
0010
0000
0000
0000
0100
0000
0000
0000
0001
0000
0100
0000
0000
0000
0100
0000
0010
0000
1000
0000
0001
0010
0100
1000
0001
0000
0000
0000
0100
0000
0000
0000
,
0010
1000
0000
0010
0000
0100
0001
0010
,
0100
1000
0001
0000
0011
00M0
0010
0001
,
1000
0100
0000
1100
0000
1000
0010
0000
,
0000
0000
0010
0100
0001
0000
0010
0000
0100
0000
0000
0000
1000
0000
0010
0000
,
0100
0001
0000
0100
0000
0010
1000
0100
,
0010
0001
1000
0000
1100
0M00
0100
1000
,
0001
0010
0000
0011
0000
0001
0100
0000
,
0000
0000
0100
0010
1000
0000
0100
0000
0010
0000
0000
0000
0001
0000
0100
0000
,
0010
0000
1000
0100
0010
0000
0001
0000
0010
0000
0001
0010
0100
0000
1000
0000
,
0100
1000
0100
0010
0001
0000
1000
0010
,
0100
0000
0001
0010
0100
0000
1000
0000
0100
0000
1000
0100
0010
0000
0001
0000
,
0010
0000
0001
0100
0010
0000
1000
0000
0100
0000
0000
0000
1000
0000
0010
0000
,
0001
0000
0010
0100
0001
0000
0100
0000
1000
0000
0100
0010
0100
0000
0001
0000
,
0010
0001
0100
1000
0100
0000
0001
0010
,
0100
0000
1000
0010
0100
0000
0001
0000
0001
0000
1000
0010
0100
0000
0001
0000
,
0001
0000
1000
0010
0100
0000
0001
0000
0001
0010
0100
1000
0001
0000
0100
0000
,
0010
0100
0001
1000
0100
0010
0001
0100
,
0010
0100
0001
1000
0100
0010
0001
1000
,
0010
0100
0001
1000
0010
0100
0001
0010
,
1000
0010
0001
0100
0010
0100
2002
0000
,
0000
3003
0000
0000
;
