#TITLE:Exotica;
#SUBTITLE:;
#ARTIST:Banzai;
#TITLETRANSLIT:;
#SUBTITLETRANSLIT:;
#ARTISTTRANSLIT:;
#GENRE:Jungle Tech;
#CREDIT:;
#BANNER:Exotica-bn.png;
#BACKGROUND:Exotica-bg.png;
#LYRICSPATH:;
#CDTITLE:;
#MUSIC:Exotica.ogg;
#OFFSET:-0.079;
#SAMPLESTART:32.560;
#SAMPLELENGTH:11.960;
#SELECTABLE:YES;
#BPMS:0.000=118.020;
#STOPS:;
#BGCHANGES:0.017=Exotica.mpg=1.000=1=0=0=StretchNoLoop==CrossFade==,
99999=-nosongbg-=1.000=0=0=0 // don't automatically add -songbackground-;
#KEYSOUNDS:;

//---------------dance-single - C. Foy----------------
#NOTES:
     dance-single:
     C. Foy:
     Challenge:
     10:
     0.710,0.714,0.182,0.583,1.000,460.000,20.000,64.000,63.000,40.000,0.000:
0000
0000
0000
0000
,
0000
0000
0000
0000
,
0000
0000
0000
0000
,
0000
0000
0000
0000
,
2000
00M0
0000
0020
3000
0000
M130
0001
0010
0001
0100
0000
0100
0001
1000
0000
,
0200
0000
00M0
0000
0000
0000
0000
0000
0000
0020
0000
0000
0300
0000
0000
0000
0M00
0000
0031
0000
0000
0100
0000
0000
0010
0000
0000
0100
0000
0000
0001
0000
0000
0000
0000
0000
1000
0000
0000
0100
0000
0000
0010
0000
0000
0000
0000
0000
,
2000
0000
0000
0000
00M0
0000
0000
0000
0000
0020
0000
0000
3000
0000
0000
0000
0000
0000
M031
0000
0000
1000
0000
0000
0001
0000
0000
1000
0000
0000
0010
0000
0000
0000
0000
0000
0100
0000
0000
0001
0000
0000
1000
0000
0000
0000
0000
0000
,
0M20
0000
0000
0200
0030
0000
03M1
0010
0001
0010
0100
0000
1000
0010
0100
0000
,
0101
0000
1000
0000
0010
0000
0100
0001
0010
0001
0100
0010
0000
1000
0010
0000
,
0100
0000
0001
0000
0010
0000
0100
0010
0001
1000
0100
0010
0000
0001
1000
0010
,
1000
0000
0010
0000
0100
0000
0001
0010
0001
0100
0001
0010
0000
0100
1000
0000
,
0010
0000
0100
0000
0001
0000
1000
0001
1000
0100
0010
0001
0000
1000
0001
1000
,
0020
0200
0030
0001
00M0
0000
0301
1000
0100
1000
0010
0000
0100
0001
0010
0000
,
0200
0020
0030
0001
00M0
0300
0100
1000
0010
1000
0001
0000
0100
0001
0010
0000
,
0200
0000
0000
2000
0000
0000
0000
0000
3000
0010
0000
0000
M000
0000
0000
0300
0000
0000
0100
0000
0000
0010
0000
0000
0001
0000
0000
1000
0000
0000
0010
0000
0000
0000
0000
0000
0100
0000
0000
0001
0000
0000
0010
0000
0000
0000
0000
0000
,
0002
2000
0003
0010
000M
0000
3001
0100
0010
0100
0001
0000
1000
0100
0010
0000
,
2MM2
0MM0
0MM0
0010
0100
3003
0MM0
0202
,
1000
0000
0303
0000
0000
0M0M
1000
0000
2200
0000
0000
0010
0000
0000
3301
0000
,
22M0
0000
0000
0001
0000
0000
031M
0000
0002
0000
0000
0M10
0000
0000
3M10
0000
,
0200
0000
0000
0000
0000
0000
M000
0000
0000
0010
0000
0000
0300
0000
0000
2000
0000
0000
0M00
0000
0000
0010
0000
0000
0000
0000
3000
0200
0000
0000
0000
0000
0000
0010
0000
0000
0000
0000
0000
0000
0000
0000
M3M3
0000
0000
0000
0000
0000
,
20M2
0M00
00M0
0010
0100
0000
3003
0001
,
0202
0000
0000
0000
0303
0000
1000
0000
0022
0000
0000
1000
0000
0033
1000
0000
,
0002
0200
0003
0010
030M
0000
0100
0001
1000
0001
0010
0000
0100
1000
0010
0000
,
0200
0000
0000
0002
0000
0000
0000
0000
0003
0010
0000
0000
000M
0000
0000
0300
0000
0000
0001
0000
0000
0100
0000
0000
0010
0000
0000
1000
0000
0000
0010
0000
0000
0100
0000
0000
0001
0000
0000
1000
0000
0000
0100
0000
0000
0000
0000
0000
,
0010
0100
0010
0001
0000
1000
0010
1000
0000
0001
0000
0100
0000
0010
0100
0000
,
0000
0001
0M00
1000
0000
0000
1000
0010
1000
0001
0100
0010
0100
0001
1000
0100
,
0010
0000
0001
0000
0010
0000
0001
0000
0000
0000
0000
0000
1000
0000
0000
0000
000M
0000
0010
0000
0000
0100
0000
0000
0001
0000
0000
1000
0000
0000
0000
0000
0000
0010
0000
0000
0000
0000
0000
1000
0000
0000
0010
0000
0000
0000
0000
0000
,
0100
0000
0001
0000
0100
0000
0001
0000
0000
0000
0000
0000
1000
0000
0000
0000
0000
0000
0100
0000
0000
1000
0000
0000
0001
0000
0000
0000
1000
0000
0001
0000
1000
0000
0010
0000
0000
0000
0000
0100
0000
0000
0001
0000
0000
0100
0000
0000
,
0010
1000
0000
0010
0000
0100
0001
0010
0000
0100
0000
0010
0000
0001
1000
0000
,
0000
1010
0M0M
1010
0000
0000
0010
0100
0001
0000
0001
0010
0000
0010
0100
0000
,
1000
0000
0100
0000
1000
0000
0100
0000
0000
0000
0000
0000
0010
0000
0000
0000
0000
0000
0001
0000
0000
0100
0000
0000
0010
0000
0000
1000
0000
0000
0001
0000
0000
1000
0000
0000
0000
0000
0000
0010
0000
0000
0100
0000
0000
0000
0000
0000
,
0001
0000
0010
0000
0001
0000
0010
0000
0000
0000
0000
0000
0100
0000
0000
0000
0000
0000
1000
0000
0000
0010
0000
0000
1000
0000
0000
0100
0000
0000
0010
0000
0000
0001
0000
0000
0000
0000
0000
0000
0001
0000
1000
0000
0010
0000
0100
0000
,
0010
0000
0000
0100
0000
0000
0000
0000
0000
0001
0M00
0000
0000
0000
0000
0000
0000
0000
1000
0000
0000
0100
0000
0000
0000
0000
0000
1000
0M00
0000
0000
0000
0000
0010
0000
0000
0000
0000
0000
0000
0000
0000
0100
0000
0000
0001
0000
0000
,
0000
0000
0000
0010
000M
0000
0000
0000
0000
0100
0000
0000
0000
0000
0000
0000
0000
0000
1000
0000
0000
0010
0000
0000
0000
0000
0000
0100
00M0
0000
0000
0000
0000
0001
0000
0000
1000
0000
0000
0001
0000
0000
0100
0000
0000
0010
0000
0000
,
0100
0000
0001
0000
0100
0000
0001
0000
0000
0000
0000
0000
1000
0000
0000
0000
0000
0000
0100
0000
0000
0010
0000
0000
0001
0000
1000
0000
0001
0000
1000
0000
0000
0010
0000
0000
0000
0000
0000
0100
0000
0000
0001
0000
0000
0000
0000
0000
,
1000
0000
0100
0000
1000
0000
0100
0000
0000
0000
0000
0000
0010
0000
0000
0000
0000
0000
0001
0000
0000
1000
0000
0000
0010
0000
0100
0000
0010
0000
0100
0000
0000
0001
0000
0000
0000
0000
0000
0000
1000
0000
0100
0000
1000
0000
0100
0000
,
0010
0001
0010
0100
0000
0100
0010
0001
0000
0001
0100
0010
0000
0010
1000
0000
,
0000
0100
1000
0010
0000
0010
0100
0000
0100
0001
0000
0010
0000
0100
1000
0001
,
2000
0200
3000
0010
M000
0300
0010
0001
1000
0001
0100
0000
0010
0100
0001
0000
,
0020
0200
0030
0001
00M0
0300
1000
0010
1000
0000
0001
1000
0001
0000
0101
0000
,
1000
0000
0010
0000
0100
0000
0001
0001
0010
0100
0000
1000
0000
0010
0010
0000
,
0100
0000
0001
0000
0010
0000
0100
0100
1000
0010
0000
0100
0000
0001
0001
1000
,
0010
0000
0100
0000
0100
0000
0010
1000
0010
0100
0100
0001
0000
0010
0001
1000
,
0010
0000
0100
0000
0001
0000
0010
0001
1000
1000
0010
1000
0000
0001
1000
0000
,
22MM
0000
0000
00M0
0000
0000
00M0
0000
0000
0001
0000
0000
0010
0000
0000
3300
0000
0000
0000
MM00
0000
0022
0000
0000
,
1000
0000
0000
0000
0033
0000
0001
0000
0022
0000
0000
1000
0000
0000
0133
0000
,
M022
0000
0000
1000
0000
0030
1000
0000
2M00
0000
0000
0010
0000
0003
0100
0000
,
0200
0000
0000
0010
0300
0002
0000
0010
0003
0200
0000
0010
0000
3300
0000
0000
,
2MM2
00M0
00M0
0100
0010
3003
0000
2020
,
0001
0000
3030
0000
0000
0000
1000
0000
2020
0000
0000
0001
0000
0000
3130
0000
,
2200
0000
0000
0010
0000
0000
0310
0000
0002
0000
0000
0010
0000
0000
0013
0000
,
0200
0000
0000
0010
0000
0001
0000
0010
0000
0001
0000
3310
0000
0000
0000
0000
,
1111
0000
0000
0000
0000
0000
0000
0000
0000
00MM
0000
0000
MM00
0000
00MM
0000
0000
0000
0000
0000
0000
0000
0000
0000
0000
0000
0000
0000
0000
0000
0000
0000
0000
0000
0000
0000
0000
0000
0000
0000
0000
0000
0000
0000
0000
0000
0000
0000
;

//---------------dance-single - K. Ward----------------
#NOTES:
     dance-single:
     K. Ward:
     Medium:
     5:
     0.344,0.000,0.227,0.246,0.027:
0000
0000
0000
0000
,
0000
0000
0000
0000
,
0000
0000
0000
0000
,
0000
0000
0000
0000
,
0210
0000
0000
1300
0000
0000
0000
0000
0010
0000
0100
0000
0001
0000
0000
0000
,
0120
0000
0000
0031
0000
0000
0000
0000
0100
0000
0010
0000
1000
0000
0001
0000
,
0020
0000
0000
0130
0000
0000
0000
0000
0010
0000
0001
0000
0100
0000
1000
0000
,
0200
0000
0000
0310
0000
0000
0000
0000
1000
0000
0001
0000
0010
0000
0100
0000
,
0010
0000
0010
0000
0001
1000
0001
0000
,
0100
0000
0000
0000
0100
0000
0000
0000
1000
0000
0000
0100
0000
0000
0001
0000
,
0010
0000
0010
0000
0100
0010
0100
0000
,
1000
0000
1000
0000
0010
0100
1000
0100
,
0020
0000
0001
1030
,
0200
0000
0010
1300
,
0002
0000
0010
1003
,
0200
0000
1000
0310
,
0001
0000
1000
0000
0100
0100
0100
0000
,
1000
0000
0001
0000
0010
0010
0010
0000
,
0100
1100
0010
0011
,
0100
0010
0100
0001
0010
0000
1100
0000
,
0000
0200
0020
0000
0330
0002
2000
0000
,
3003
0200
2000
0000
3300
0020
0002
0000
,
0033
0000
0000
0000
,
0000
0000
0000
1001
,
0010
0100
0001
0000
0010
0100
1000
0000
,
0010
0001
0100
1000
0001
0000
1000
0000
,
1001
0000
0000
0000
0100
0100
0100
0000
,
0000
0000
0000
0000
0010
0010
0010
0000
,
0100
1010
0010
0101
,
0100
1000
0010
0001
1000
0000
0001
0000
,
1001
0000
0000
0000
0001
0001
0001
0000
,
0000
0000
0000
0000
1000
1000
1000
0000
,
0010
0010
0200
0000
0301
0001
0020
0000
,
0130
0010
0002
0000
1003
0000
0100
0000
,
1001
0000
0000
0010
0100
0001
0001
0000
,
0110
0000
0000
0100
0010
1000
1000
0000
,
0001
0011
1000
1100
,
1001
0110
0011
0110
,
1001
0000
0000
0000
,
0000
0000
0000
0000
0000
1000
0001
1000
,
0100
0000
0100
0000
0010
0100
1000
0000
,
0010
0000
0000
0000
0010
0000
0000
0000
0100
0000
0000
0001
0000
0000
0010
0000
,
0100
0000
0100
0000
0010
0001
1000
0000
,
0001
0000
0001
0000
0100
1000
0100
0001
,
1000
0000
0001
0000
0100
0100
0100
0000
,
0010
0000
0100
0000
0001
0001
0001
0000
,
1000
1100
0001
0011
,
0100
0010
0100
0010
0100
0000
1001
0000
,
0000
0002
0020
0000
0033
0200
2000
0000
,
3300
0020
0002
0000
0033
0200
0020
0000
,
0330
1100
0000
0011
,
1000
0001
0010
0100
0010
0100
0010
0000
,
1001
0000
0000
0000
;

//---------------dance-single - K. Ward----------------
#NOTES:
     dance-single:
     K. Ward:
     Easy:
     3:
     0.231,0.000,0.246,0.073,0.000:
0000
0000
0000
0000
,
0000
0000
0000
0000
,
0000
0000
0000
0000
,
0000
0000
0000
0000
,
1000
1001
0000
0000
,
0100
0110
0000
0000
,
0001
1001
0000
0000
,
0010
0110
0000
0000
,
1000
1000
0000
0000
,
0001
0001
0000
0000
,
0100
0100
0000
0000
,
0010
0001
0100
1000
,
1001
0000
0100
0100
,
0010
0000
0010
0010
,
0100
0000
0010
0010
,
0001
0000
1000
0001
,
1001
0000
0000
0000
,
0100
1000
0100
0000
0001
0010
0001
0000
,
0200
0000
0010
0000
,
0010
0000
0010
0301
,
1000
0001
1000
0000
0100
0010
0100
0000
,
0010
0001
0100
1000
,
1001
0000
0000
0000
,
0000
0000
0000
1001
,
1000
0001
0100
0010
,
1000
0100
0010
0100
,
0011
0000
0000
0000
,
1100
0000
0000
0000
,
0010
0010
0100
0100
,
1000
0001
1000
0001
,
1001
0000
0000
0011
0000
0110
0000
0000
,
0000
0000
0000
1100
0000
0110
0000
0000
,
1000
1000
0001
0001
,
0010
0100
1000
0000
0100
0001
0010
0000
,
1001
0000
0000
0022
0000
0000
0033
0000
,
1000
0000
0001
2002
0000
0000
3003
0000
,
0100
0100
0010
0010
,
0100
1000
0010
0001
,
1001
0000
0000
0000
,
0000
0000
0000
0110
,
0001
1000
0001
1000
,
0100
1000
0010
0001
,
1000
0001
1000
0001
,
0010
0001
0100
1000
,
1001
0000
0000
0000
,
0100
1000
0100
0000
0001
0010
0100
0000
,
0020
0000
0001
0000
,
1000
0000
0031
0000
,
1000
1001
0010
0110
,
1000
1100
0001
0011
,
2002
0000
3003
0000
,
0100
1000
0010
0001
,
1001
0000
0000
0000
;

//---------------dance-single - K. Ward----------------
#NOTES:
     dance-single:
     K. Ward:
     Beginner:
     1:
     0.086,0.000,0.073,0.000,0.000:
0000
0000
0000
0000
,
0000
0000
0000
0000
,
0000
0000
0000
0000
,
0000
0000
0000
0000
,
1000
0000
0000
0000
,
1000
0000
0000
0000
,
0001
0000
0000
0000
,
0001
0000
0000
0000
,
0010
0000
0100
0000
,
0010
0000
0000
0000
,
1000
0000
0001
0000
,
1000
0000
0000
0000
,
0001
0000
0001
0000
,
0001
0000
0000
0000
,
1000
0000
1000
0000
,
1000
0000
0000
0000
,
0010
0000
0000
0000
,
0001
0000
0100
0000
,
1001
0000
0000
0000
,
0000
0000
0000
0000
,
0100
0000
0000
0000
,
1000
0000
0010
0000
,
1001
0000
0000
0000
,
0000
0000
0000
0000
,
0100
0000
0000
0000
,
0010
0000
1000
0000
,
0001
0000
0000
0000
,
0001
0000
0000
0000
,
0100
0000
0000
0000
,
1000
0000
0001
0000
,
0001
0000
0000
0000
,
0001
0000
0000
0000
,
0100
0000
1000
0000
,
0010
0000
0001
0000
,
1001
0000
0000
0000
,
1001
0000
0000
0000
,
0010
0000
0001
0000
,
0100
0000
1000
0000
,
1001
0000
0000
0000
,
0000
0000
0000
0000
,
0010
0000
0000
0000
,
0100
0000
0000
0000
,
0001
0000
0000
0000
,
1000
0000
0000
0000
,
1001
0000
0000
0000
,
0010
0000
0100
0000
,
0010
0000
0000
0000
,
0000
0000
0000
0000
,
1001
0000
0000
0000
,
1000
0000
0001
0000
,
1000
0000
0000
0000
,
0000
0000
0000
0000
,
1001
0000
0000
0000
;

//---------------dance-single - K. Ward----------------
#NOTES:
     dance-single:
     K. Ward:
     Hard:
     8:
     0.430,0.000,0.191,0.173,0.286:
0000
0000
0000
0000
,
0000
0000
0000
0000
,
0000
0000
0000
0000
,
0000
0000
0000
0000
,
1100
0000
0000
0110
0000
0000
0000
0000
0001
0000
1000
0000
0100
0000
0000
0000
,
0011
0000
0000
0110
0000
0000
0000
0000
0001
0000
0100
0000
1000
0100
0000
0000
,
1010
0000
0000
1100
0000
0000
0000
0000
0010
0000
0100
0000
0010
0000
0000
0000
,
0101
0000
0000
0011
0000
0000
0000
0000
0100
0000
1000
0000
0100
0001
0000
0000
,
0010
0000
0100
0000
0010
0000
0001
1000
0000
1000
0010
0000
0100
0000
0000
0000
,
0100
0000
1000
0000
0100
0000
0001
0010
0000
0010
0100
0000
0010
0000
0000
0000
,
0100
0000
0010
0000
0001
0000
1000
0100
0000
0100
0000
0000
1010
0000
0110
0000
,
0000
0000
0100
0000
1000
0000
0000
0100
0000
0100
0001
0000
0010
0000
0000
0000
,
0000
0200
1000
0300
0000
0020
0001
0030
,
0000
2000
0100
3000
0000
0020
0100
0031
,
0000
0200
1000
0300
0000
0200
0001
0301
,
0000
0020
0100
0030
0000
0010
0100
1000
,
0001
0100
0010
0100
0001
0100
1000
0100
,
0010
0000
0000
1000
0000
0000
0010
0000
0100
0000
0000
0001
0000
0000
1000
0000
,
0200
0010
0000
1300
,
0010
0000
0100
0000
0001
0000
0010
0100
0000
0100
0010
0000
0001
0000
0000
0000
,
0000
0100
1000
0100
0001
0010
0200
0000
,
0300
0010
0001
0100
1000
0100
0001
0000
,
1001
0000
0000
0000
,
0000
0000
0000
0000
0000
0000
0000
0000
0000
0000
0000
1000
0100
0000
1000
0000
,
0010
0100
0010
0100
0000
0001
0010
0001
0000
0000
0000
0010
0100
0000
1001
0000
,
0000
0100
0000
0100
0000
0000
0010
0000
0010
0000
1000
0000
1000
0000
0001
0010
,
0001
0000
0000
1000
0000
1100
0000
0000
,
0001
0000
0000
0100
0000
1001
0000
0000
,
0100
0010
0100
0010
0000
1000
0100
1000
0000
0000
0000
0100
0010
0000
1002
0000
,
0000
0100
0000
0103
0000
0000
0010
0000
0010
0000
0100
0000
0001
0000
0010
0000
,
0100
0000
0000
0010
0000
0101
0000
0000
,
0010
0100
1000
0100
0000
1010
0110
0000
,
0010
0001
0000
0010
0000
0000
0100
0000
1000
0100
0000
0001
0000
0010
0001
0000
,
0000
0100
0000
0100
0000
0000
1000
0100
0010
0000
0100
0001
0010
0000
0100
0000
,
0020
0000
0000
0001
0000
0130
0000
0000
,
0020
0000
0100
0000
0001
0001
0031
0000
,
1000
0100
1000
0100
0000
0010
0100
0010
0000
0000
0001
1000
0001
0000
0010
0100
,
0010
0000
0100
0000
1000
0000
0010
0000
0001
0010
0100
0000
0001
0000
0010
0000
,
1001
0000
0000
0000
,
0000
0000
0000
0000
0000
0000
0000
0000
0000
0000
1000
0001
1000
0000
0001
0000
,
0100
0000
1000
0000
0100
0000
0001
0000
0010
0000
0100
0010
0000
0010
0001
0000
,
0000
0000
0100
0000
0100
0000
1000
0000
0100
0000
0001
1000
0000
1000
0100
0000
,
0000
0010
0100
0010
0002
0000
1000
1003
,
M00M
0000
0010
0000
0100
0000
0001
0010
0000
0010
0100
0000
0010
0000
0000
0000
,
0200
1000
1300
0M00
0020
0100
0130
00M0
,
0002
0000
0010
0000
0013
0000
000M
0000
0100
0000
0000
0010
0000
0000
0001
0000
,
2000
0000
3100
M000
0020
0000
0130
00M0
,
1000
0001
0000
1000
0000
0001
0000
2000
0000
0000
0100
0000
3100
0000
M000
0000
,
0010
0100
0010
0000
0001
1000
0001
0000
,
0100
0000
1000
0000
0100
0000
0000
0000
0001
0000
0000
1000
0000
0000
0001
0000
,
0010
0001
0100
1001
,
0100
1000
0100
0001
0010
0100
0010
0000
,
1001
0000
0000
0000
;

//---------------dance-single - K. Ward----------------
#NOTES:
     dance-single:
     K. Ward:
     Edit:
     10:
     0.721,0.000,0.400,0.346,0.828:
0000
0000
0000
0000
,
0000
0000
0000
0000
,
2000
0000
0000
3100
0000
0000
0010
0100
0001
0000
1000
0000
0001
0000
1000
0000
,
0200
0000
0000
0310
0000
0000
0100
1000
0010
0000
0100
0000
1010
0000
0000
0000
,
0001
0000
0100
1000
0000
0000
0100
0001
0010
0000
0100
0000
0010
0000
0010
0000
,
0100
0000
1000
0001
0000
0000
0100
0010
0100
0000
0001
0000
1000
0100
1000
0000
,
2000
0000
0000
3100
0000
M0M0
0100
0010
0100
0000
0001
0000
0011
0000
1001
0000
,
0100
0000
0010
0100
000M
M000
1000
0100
0010
0000
1000
0000
0001
1000
0001
0000
,
0011
0000
0100
0000
0010
0000
0100
0010
0000
0001
0000
0010
0000
0100
0010
0000
,
1001
0000
0100
0000
0010
0000
0100
1000
0000
0100
0000
0001
0000
0100
0010
0000
,
1001
0000
0100
0000
0010
0000
0100
1000
0000
2000
0000
0000
0100
3000
0012
0000
,
0000
0000
1000
0000
2003
0000
0000
0010
3000
0010
0100
0000
1001
0000
MMMM
0000
,
1200
0000
0000
0310
0000
0000
0001
0100
0001
0010
0001
0100
0001
0000
0000
0000
,
0120
0000
0000
0031
0000
0000
1000
0010
1000
0001
1000
0010
0100
0000
1001
0000
,
0021
0000
0000
0130
0000
0000
1000
0010
0100
0010
1000
0010
0100
0000
1001
0000
,
1200
0000
0000
0310
0000
0000
0001
0100
0010
0000
1000
0000
0010
0100
0001
0000
,
1001
0000
0000
1000
0100
0000
0010
0000
0200
0000
0010
0000
1300
0000
0000
0000
,
0020
0000
0100
0000
0031
0000
0000
0001
1000
0000
0100
0000
0010
0000
0100
0000
,
2200
0000
0011
3300
0022
0000
1100
0033
,
2200
0000
0011
3300
0022
1100
1100
0033
,
1000
0000
0000
1000
0010
0000
0100
0000
0020
0000
0001
0000
0130
0000
0000
0000
,
0200
0000
0010
0000
1300
0000
0000
0100
0001
0000
0010
0100
0010
0000
0100
0000
,
1001
0000
0000
0000
M00M
0000
0000
0000
0000
0000
0000
0000
1100
0000
0000
0000
M00M
0000
0000
0000
0000
0010
0000
0000
,
0101
0000
0000
0000
0000
0000
0000
0000
0M0M
0000
0000
0000
0000
0000
0000
0000
0000
0000
0010
0000
0000
0100
0000
0000
0001
0000
0000
0000
0000
0000
0000
0000
0MM0
0001
0000
0000
1000
0000
0000
0000
0000
0000
0001
0000
0000
0000
0000
0000
,
1000
0100
1000
0100
0000
0100
0010
0100
0000
0010
0000
0001
1000
0001
1000
0000
,
0000
0000
0010
0000
0000
0000
0101
0000
0000
0000
0000
0000
0001
0000
1000
0000
0001
0000
0000
0000
0100
0000
0010
0000
0100
0000
0000
0000
0001
0010
0001
0000
,
0010
0001
0100
0000
0010
0000
0100
0000
0010
0000
0100
1000
0000
1000
0100
0000
,
0010
0000
0100
0000
0001
0000
0000
0000
0001
0000
0000
0000
1000
0000
0000
0000
0100
0000
1000
0100
1000
0000
0100
0000
0000
0000
0010
0000
0100
0000
0000
0000
,
0010
0001
0100
0010
0000
0010
1000
0100
0000
0010
0000
0100
1000
0001
0200
0000
,
0000
0000
1000
0000
0000
0000
0310
0000
0000
0000
0000
0000
0001
0000
1000
0000
0010
0000
0000
0000
0100
0000
0001
0000
0010
0000
0000
0000
0100
0010
0100
0000
,
0010
0001
0100
0000
0010
0100
1000
0000
0100
0000
0010
0100
0000
0100
0001
0000
,
1000
0100
1000
0000
0100
0000
0000
0000
0010
0000
0000
0000
0100
0000
0000
0000
1000
0000
0000
0000
0100
0000
0010
0000
0000
0000
0001
0010
0001
0000
0000
0000
,
1000
0010
0100
0001
0000
0010
0001
1000
0010
0100
0000
0001
0000
0010
0200
0000
,
0000
0000
0010
0000
0000
0000
1000
0000
0300
0000
0000
0000
0100
0000
1000
0000
0100
0000
0000
0000
0100
0000
0010
0000
0100
0000
0000
0000
0001
0010
0001
0000
,
1000
0000
0010
0000
0100
0000
0000
0000
0001
0000
1000
0000
0010
0000
0000
0000
0100
0010
0100
0000
0010
0000
0100
0000
0000
0000
1010
0000
0000
0000
0000
0000
,
0010
0100
0010
0000
0100
0000
0000
0000
1001
0000
0000
0000
1100
0000
0000
0000
0100
0010
0100
0000
0010
0000
0100
0000
0000
0000
0110
0000
0000
0000
0000
0000
,
0001
1000
0010
0010
0000
0100
0100
0001
0010
0100
0100
0010
0001
1000
1000
0010
,
0010
0000
0100
0000
0100
0000
0001
0000
0001
0000
1000
0000
0001
0000
1000
0000
1000
0000
0001
0000
1000
0000
0001
0000
0001
0000
0000
0000
1000
0100
1000
0000
,
0100
0000
0000
0000
0000
0000
0100
0000
0000
0010
0000
0000
0000
0000
0000
0000
0MM0
0000
0000
0000
0000
0000
0000
0000
0010
0000
0000
0000
0000
0000
0010
0000
0000
0001
0000
0000
0000
0000
0000
0000
00MM
0000
0000
0000
0000
0000
0000
0000
,
0100
0000
0000
0000
0000
0000
0100
0000
0000
1000
0000
0000
0000
0000
0000
0000
M00M
0000
0000
0000
0000
0000
0000
0000
1000
0000
0000
0000
0000
0000
0001
0000
0000
1000
0000
0000
0001
0000
0000
0000
0000
0000
0100
0000
0000
0000
0000
0000
,
0010
0100
0010
0001
0010
0100
0010
0100
1000
0100
1000
0100
0010
0100
0010
0000
,
0010
1000
0100
0010
0001
0100
0010
1000
0100
0010
0000
0100
0000
1000
0001
0000
,
0100
1000
0100
0010
0100
1000
0100
0010
1000
0001
0010
0100
0010
0000
1100
0000
,
1000
0001
0100
0001
0010
0000
0100
0010
0000
0100
1000
0010
0100
0000
1001
0000
,
0020
0100
0130
0MM0
0200
1000
1300
0000
,
0001
1000
0001
0000
1000
0000
0000
0000
2000
0000
0000
0000
0001
0000
3000
0000
0001
1000
0001
0000
1000
0000
0000
0000
0100
0000
0000
0000
0010
0000
0000
0000
,
2200
0000
0011
3300
0022
0000
1100
0033
,
2200
0000
0011
3300
0022
1100
1100
0033
,
0100
0000
0000
0100
0001
0000
0010
0000
0200
0000
0010
0000
1300
0000
MM00
0000
,
0010
0000
0100
0000
0001
0000
0000
0000
0010
0000
0000
0000
0100
0000
0000
0000
0010
0000
0000
0000
0001
1000
0001
0000
1000
0000
0000
0000
0100
0000
0000
0000
,
0020
0100
0130
0000
0200
0010
1300
0000
,
0001
1000
0001
0000
1000
0000
0000
0000
0010
0000
0000
0000
0100
0000
0000
0000
0001
1000
0001
0000
1000
0000
0000
0000
0100
0000
0000
0000
0010
0000
0000
0000
,
0101
0000
0000
0000
;

//---------------dance-double - M.Emirzian----------------
#NOTES:
     dance-double:
     M.Emirzian:
     Challenge:
     12:
     0.786,0.758,0.665,0.118,1.000,518.000,73.000,13.000,82.000,9.000,0.000:
00000000
00000000
00000000
00000000
,
00000000
00000000
00000000
00000000
,
00011000
00000000
00000000
00100010
00000000
00000000
00010000
00001000
00000100
00000000
00000001
00000000
00001100
00000000
00001001
00000000
,
00000110
00000MM0
00000000
00011000
000MM000
00000000
00000100
00000010
00000001
00000000
00000100
00000000
00000010
00001000
00000100
00000000
,
00010000
00001000
00000100
00000000
00001000
00000000
00010000
00100000
00010000
00000000
00001000
01000000
00100000
01000000
00001000
00000000
,
00100000
00000100
00M00M00
00000100
01000000
00000000
00100000
01000000
00001000
00000000
00010000
00000000
01000000
00100000
00001000
00000000
,
01000000
10000000
01000000
00000000
00001000
00000000
00000010
00000001
00000100
00000000
00000010
00000100
00000010
00010000
00000100
00000000
,
00100000
00000010
00M000M0
00000010
00100000
00000000
00001000
00000100
00001000
00000000
00010000
00000000
00000100
00010000
00001000
00000000
,
01000000
00000000
00000000
00000000
00000000
00000000
00000000
00000000
00010000
00000000
00000000
00000000
00000000
00000000
00000000
00000000
01000000
00010000
00000000
00000000
00000000
00000000
00000000
00000000
01000000
00000000
00000000
00000000
00000000
00000000
00000000
00000000
00100000
00000000
00000000
00000000
00000000
00000000
00000000
00000000
10000000
00000000
00000000
00000000
01000000
00000000
00000000
00000000
00100000
01000000
00000000
00000000
00000000
00000000
00000000
00000000
00010000
00000000
00000000
00000000
00000000
00000000
00000000
00000000
,
00001000
00000000
00000000
00000000
00000000
00000000
00000000
00000000
00100000
00000000
00000000
00000000
00000000
00000000
00000000
00000000
00001000
00010000
00000000
00000000
00000000
00000000
00000000
00000000
00000100
00000000
00000000
00000000
00000000
00000000
00000000
00000000
00010000
00000000
00000000
00000000
00000100
00000000
00000000
00000000
00000000
00000000
00000000
00000000
00000100
00000000
00000000
00000000
00000010
00000100
00000000
00000000
00000000
00000000
00000000
00000000
00000001
00000000
00000000
00000000
00000000
00000000
00000000
00000000
,
00000100
00000000
00000000
00000000
00000000
00000000
00000000
00000000
00000010
00000000
00000000
00000000
00000000
00000000
00000000
00000000
00001000
00000100
00000000
00000000
00000000
00000000
00000000
00000000
00010000
00000000
00000000
00000000
00000000
00000000
00000000
00000000
00001000
00000000
00000000
00000000
00000000
00000000
00000000
00000000
01000000
00000000
00000000
00000000
00010000
00000000
00000000
00000000
00100000
00010000
00000000
00000000
00000000
00000000
00000000
00000000
00100000
00000000
00000000
00000000
00000000
00000000
00000000
00000000
,
00010000
00000000
00000000
00000000
00000000
00000000
00000000
00000000
01000000
00000000
00000000
00000000
00000000
00000000
00000000
00000000
00100000
10000000
00000000
00000000
00000000
00000000
00000000
00000000
01000000
00000000
00000000
00000000
00000000
00000000
00000000
00000000
00100000
00000000
00000000
00000000
00001000
00000000
00000000
00000000
00000000
00000000
00000000
00000000
00001000
00000000
00000000
00000000
00010000
00000100
00000000
00000000
00000000
00000000
00000000
00000000
00010000
00000000
00000000
00000000
00000000
00000000
00000000
00000000
,
00001000
00010000
01000000
00000000
00010000
00000000
00001000
00000100
00000001
00000000
00000010
00000100
00010000
00000100
00000010
00000000
,
00000100
00100000
00M00M00
00100000
00000010
00000000
00010000
00001000
00000100
00000000
00001000
00000000
00010000
00100000
10000000
00000000
,
00001000
01000000
10000000
00000000
01000000
00000000
00001000
00100000
00010000
00000000
01000000
00100000
01000000
00001000
00010000
00000000
,
00000100
01000000
0M000M00
01000000
00000010
00000000
00000100
00000001
00000010
00000000
00000100
00000000
00001100
00000000
00000000
00000000
,
00020200
00000000
00000000
00000000
00000010
00000000
00000000
00000000
00001000
00030000
00000000
00000000
00002300
00000000
00000000
00000000
,
00000002
00000010
00003103
00000000
,
00010000
00000000
00000000
00000000
00000000
00000000
00000000
00000000
00001000
00000000
00000000
00000000
00010000
00000000
00000000
00000000
00001000
01000000
00000000
00000000
00000000
00000000
00000000
00000000
00010000
00000000
00000000
00000000
00000000
00000000
00000000
00000000
01000000
00000000
00000000
00000000
00000000
00000000
00000000
00000000
00100000
00000000
00000000
00000000
10000000
00000000
00000000
00000000
01000000
00100000
00000000
00000000
00000000
00000000
00000000
00000000
00010000
00000000
00000000
00000000
00000000
00000000
00000000
00000000
,
01000000
00000000
00000000
00000000
00001000
00000000
00000000
00000000
00000000
00000000
00000000
00000000
00001000
00000000
00000000
00000000
00010000
00000100
00000000
00000000
00000000
00000000
00000000
00000000
00001000
00000000
00000000
00000000
00000000
00000000
00000000
00000000
00000010
00000000
00000000
00000000
00000000
00000000
00000000
00000000
00000100
00000000
00000000
00000000
00000001
00000000
00000000
00000000
00001000
00000010
00000000
00000000
00000000
00000000
00000000
00000000
00000000
00000000
00000000
00000000
00000000
00000000
00000000
00000000
,
00000220
00000000
00001000
00000000
01100000
00000300
00020000
00000030
,
00002000
00100000
00033010
00000000
,
00010100
000M0M00
00000000
01001000
0M00M000
00000000
01000000
00001000
00010000
00000000
01000000
00000000
10010000
00000000
01010000
00000000
,
01100000
0MM00000
00000000
00011000
000MM000
00000000
01000000
00001000
00010000
00000000
00000100
00000010
00000MM0
00000000
00001001
00000000
,
00000100
00000010
00001000
00000100
00000000
01000000
00100000
10000000
00000000
01000000
00000000
00100000
00001000
00010000
00000100
000M0M00
,
00000000
00101000
00000000
00011000
00000000
00000000
01000100
00000000
00011000
00000000
00100100
00000000
00010000
00001000
00010000
00000100
,
00001000
00000001
00000100
00000000
00000010
00000000
00000000
00000000
00000100
00000000
00000000
00000000
00001010
00000000
00000000
00000000
00010010
00000000
000M00M0
00000000
00000000
00000000
00100010
00000000
00000000
00000000
00011000
00000000
01000100
00000000
00000000
00000000
,
00010000
00001000
00100000
00000000
00010000
00000000
00000000
00000000
10000000
00000000
00000000
00000000
01000000
00000000
00000000
00000000
00100000
00000000
00010000
10000000
01000000
00000000
00100000
00000000
00000000
00000000
01000000
00000000
00000000
00000000
10000000
00000000
,
00100000
01000000
00010000
00100000
00000000
00000001
00000100
00000010
00000000
00010000
00000000
00100000
10000000
01000000
00100000
0MM00000
,
00000000
00101000
00000000
00100010
00000000
00000000
00011000
00000000
01000010
00000000
00011000
00000000
00010000
00000100
00001000
00000100
,
00000010
00000001
00001000
00000000
00000100
00000000
00000000
00000000
00000010
00000000
00000000
00000000
00001100
00000000
00000000
00000000
00010100
00000000
000M0M00
00000000
00000000
00000000
01000100
00000000
00000000
00000000
00011000
00000000
00100010
00000000
00000000
00000000
,
00010000
00001000
00010000
00000000
010M0000
00000000
00000000
00000000
10000000
00000000
00000000
00000000
01010000
00000000
00000000
00000000
10001000
00000000
M000M000
00000000
00000000
00000000
01001000
00000000
00000000
00000000
00010000
00001000
00010000
00000000
001M0000
00000000
,
10000000
00000000
01000000
00000000
00000000
00000000
00110000
00000000
00MM0000
00000000
00000000
00000000
10000000
01000000
00100000
00010000
00000000
00000000
00100000
00000000
00000000
00000000
00101000
00000000
00M0M000
00000000
00000000
00000000
00100010
00000000
00011000
00000000
,
00000000
00000000
01000100
00000000
00000000
00000000
00010100
00000000
000M0M00
00000000
00000000
00000000
00001000
00000000
00000100
00000000
00000010
00000000
00000001
00000000
00001000
00000100
00000010
00000000
00000100
00000000
00001000
00000000
00000100
00010000
00001000
00000000
,
01000000
00010000
10000000
00000000
01000000
00000000
00000000
00000000
10000000
00000000
M0000000
00000000
00100000
00000000
00000000
00000000
00100000
01000000
00010000
00000000
000M0000
00000000
00010000
00000000
00000000
00000000
00101000
00000000
00011000
00000000
00000000
00000000
,
00010000
00001000
00100000
00000000
00001000
00000000
00M0M000
00000000
00000000
00000000
00010010
00000000
000M00M0
00000000
00000000
00000000
00001000
00000100
00000010
00000000
00000MM0
00000000
00000001
00000000
0000000M
00000000
00001000
00000010
00000100
00000000
00000001
00000000
,
00001000
0000M000
00000100
00010000
00000M00
000M0010
00010000
00001000
000M0000
0100M000
00000100
0M010000
00000M00
001M0000
01000000
0M000000
,
00100000
10000000
01000000
00100000
00000000
00000100
00000010
00000001
00000100
00000010
00000000
01000000
00000000
00100000
10000000
01000000
,
10010000
M00M0000
00000000
00011000
000MM000
00000000
01000000
00010000
00100000
00000000
01000000
00000000
11000000
00000000
10010000
00000000
,
01100000
0MM00000
00000000
00011000
000MM000
00000000
01000000
00010000
10000000
00000000
01000000
00100000
00100000
00000000
10010000
00000000
,
10000000
00000000
01000000
00000000
00000010
00000000
00000001
00000000
00000100
00000000
00000010
00000010
00001000
00001000
00000100
00000010
,
00000001
00000000
00000100
00000000
00100000
00000000
10000000
00000000
01000000
00000000
00200000
01000000
00000000
10000000
00000000
00010000
,
10300000
00000000
00100000
00000000
00000100
00000000
00000001
00000000
00000010
00000000
00000100
00000100
00001000
00001000
00000010
00000100
,
00000001
00000000
00000010
00000000
01000000
00000000
10000000
00000000
00100000
00000000
02000000
10000000
00000000
00100000
00000000
03010000
,
10000000
01000000
00100000
00010000
01000000
00001000
01000000
00010000
00100000
01000000
00100000
00001000
00010000
00000010
00000100
00000010
,
00010000
00001000
00000010
00000001
00001000
00000010
00000100
00001000
00000010
00001000
00010000
00000100
00010000
00010000
00001000
00001000
,
00011000
000MM000
00000000
00100010
00M000M0
00000000
00011000
00000000
01001000
0M00M000
00000000
00110000
00MM0000
00000000
01000000
00000000
,
00100000
20000000
00000000
00001000
00000000
00010000
00000000
30100000
10000000
10000000
00000000
00110000
00000000
00101000
00000000
00100000
,
00010000
01000000
00100000
01000000
00001000
00100000
01000000
00100000
00001000
00010000
00000100
00000010
00000100
00010000
00000010
00000100
,
00000010
00010000
00001000
00000010
00000001
00000001
00000100
00000100
00000010
00000010
00001000
00001000
00000100
00000100
00010000
00001000
,
00011000
000MM000
00000000
00100010
00M000M0
00000000
01001000
00000000
01010000
0M0M0000
00000000
00001100
0000MM00
00000000
00100000
00000000
,
10000000
01000000
00000000
00110000
00000000
01001000
00000000
00100000
00001000
00000100
00000000
00001001
00000202
00000000
00000000
00000000
,
00001313
00000000
00000000
00000000
;

//---------------dance-double - M.Emirzian----------------
#NOTES:
     dance-double:
     M.Emirzian:
     Hard:
     9:
     0.591,0.592,0.255,0.073,0.701,418.000,28.000,8.000,0.000,8.000,0.000:
00000000
00000000
00000000
00000000
,
00000000
00000000
00000000
00000000
,
01000000
00000000
00000000
00011000
00000000
00000000
00000000
00010000
00001000
00000000
00000010
00000000
00000001
00000000
00000010
00000000
,
00001000
00000000
00000000
00011000
00000000
00000000
00000000
00001000
00010000
00000000
00100000
00000000
10000000
00010000
10000000
00000000
,
01000000
00000000
00000000
01000000
00100000
00000000
00010000
00000000
10000000
00000000
00100000
00000000
00010000
00000000
00001000
00000000
,
00010000
00000000
00000000
00010000
01000000
00000000
10000000
00000000
01000000
00000000
00100000
00000000
00001000
00010000
00001000
00000000
,
00000100
00000000
00000000
00000100
00000001
00000000
00000010
00000000
00001000
00000000
00010000
00000000
00001000
00000000
00000100
00000000
,
00000001
00000000
00000000
00000001
00000100
00000000
00000010
00000000
00001000
00000000
00000100
00000000
00010000
00001000
00010000
00000000
,
00001000
00000000
00010000
00000000
01000000
00000000
10000000
00000000
00100000
00000000
10000000
00010000
00000000
00010000
01000000
00000000
,
00100000
00000000
10000000
00000000
01000000
00000000
00100000
00000000
00001000
00000000
00010000
00001000
00000000
01000000
00000000
00001000
,
00010000
00000000
00001000
00000000
00000010
00000000
00000001
00000000
00000010
00000000
00000100
00010000
00000000
00010000
00001000
00000000
,
00000100
00000000
00001000
00000000
00010000
00000000
01000000
00000000
10000000
00000000
00010000
01000000
00000000
00100000
00000000
01000000
,
00010000
00000000
00000000
00010000
10000000
00000000
01000000
00000000
00010000
00000000
00001000
00000000
00010000
00000000
00100000
00000000
,
10000000
00000000
00000000
10000000
01000000
00000000
00100000
00000000
00010000
00000000
01000000
00000000
00001000
00010000
00001000
00000000
,
00000010
00000000
00000000
00000010
00000001
00000000
00000100
00000000
00001000
00000000
00010000
00000000
00001000
00000000
00000010
00000000
,
00000001
00000000
00000000
00000001
00000100
00000000
00000010
00000000
00010000
00000000
00001000
00000000
01000000
00010000
01000000
00000000
,
02002000
00000000
00100000
03013000
,
00022000
00000000
00100000
00033010
,
00011000
00000000
00000000
00100000
01000000
00000000
00000000
00000000
00011000
00000000
00000000
00000100
00000010
00000000
00000000
00000000
,
00000001
00001000
00000000
00000100
00000000
00010000
00000000
00001000
00000000
01000000
00000000
00100000
00000000
10000000
00000000
00000000
,
02020000
00000000
10000000
03130000
,
02002000
00000000
00100000
03013000
,
01000000
00000000
00000000
10010000
00000000
00000000
00100000
10000000
01000000
00000000
00100000
00000000
10000000
00000000
00100000
00000000
,
00010000
00000000
00000000
10000000
00000000
00000000
10000000
00100000
00010000
00000000
00100000
00000000
01000000
00000000
00001000
00000000
,
00010000
00001000
01000000
00000100
00000000
00010000
00001000
00000100
00000000
00000010
00000000
00001000
00000001
00000010
00000100
00000000
,
00000000
00000110
00000000
00000101
00000000
00000000
00000100
00000000
00000010
00000000
00001000
00000000
00000100
00001000
00000001
00000000
,
00000100
00001000
00010000
00000000
00000000
00000000
00000100
00000000
00010100
00000000
00000000
00001000
00000000
00000010
00010000
00000000
,
00001000
00010000
00100000
00000000
00000000
00000000
00100000
00000000
01000000
00010000
10000000
01000000
00000000
00100000
00000000
00010000
,
10000000
00100000
01000000
00010000
00000000
00100000
00001000
00010000
00000000
00000100
00000000
00001000
00000001
00000010
00000100
00000000
,
00000000
00000011
00000000
00001001
00000000
00000000
00000100
00000000
00000010
00000000
00010000
00000000
00001000
00000000
00100000
00000000
,
01000000
00100000
00001000
00000000
00000000
00000000
10000000
00000000
10100000
00000000
00000000
01000000
00000000
00010000
00100000
00000000
,
00010000
01000000
00001000
00000000
00000000
00000000
00010000
00000000
00010010
00000000
00000000
00001000
00000000
00000100
00000010
00000000
,
00000001
00000100
00000000
00000010
00000000
00000000
00000010
00001000
00000000
00000100
00000000
00010000
00000000
00000000
00010000
00001000
,
00000000
01000000
00000000
00001000
00000000
00000000
00010000
00001000
00000010
00000000
00001000
00010000
00100000
00000000
01000000
00000000
,
00010000
10000000
01000000
00000000
00000000
00000000
00100000
00000000
00010000
01000000
00000000
00100000
00000000
00010000
00001000
00000000
,
00000100
00001000
00010000
00000000
00000000
00000100
00000000
00000000
00001000
00000010
00000000
00000100
00000000
00000010
00001000
00000001
,
00000100
00000000
00000001
00000010
00000000
00000100
00001000
00000001
00000000
00000100
00000010
00001000
00000000
00000100
00010000
00000000
,
00001000
00010000
00000100
00010000
00000000
00001000
01000000
00010000
01000000
00100000
00000000
01100000
00000000
00010000
10000000
01000000
,
00100000
00000000
00000000
00101000
00000000
00000000
01000000
00010000
00001000
00000000
00000100
00000000
00000010
00000000
00000100
00000000
,
00000001
00000000
00000000
00000110
00000000
00000000
00010000
00001000
00000010
00000000
00000100
00001000
00000010
00000000
00001001
00000000
,
00000001
00000000
00000100
00000000
00000010
00000000
00010000
00000000
00001000
00000000
01000000
00100000
00000000
00100000
00010000
00000000
,
00100000
00000000
10000000
00000000
01000000
00000000
00010000
00000000
00000100
00000000
00010000
00001000
00000000
00000100
00000000
00001000
,
00010000
00000000
00000100
00000000
00000001
00000000
00000100
00000000
00001000
00000000
00000010
00000100
00000000
00000100
00000001
00000000
,
00000010
00000000
00001000
00000000
00100000
00000000
00010000
00000000
01000000
00000000
00001000
00010000
00000000
01000000
00000000
00010000
,
00001000
00000000
00000000
01000000
00100000
00000000
00000000
00000000
00011000
00000000
00000000
00000100
00000010
00000000
00000000
00000000
,
00011000
00000000
00000000
01000000
00000100
00000000
00000000
00000000
00011000
00000000
01000000
00010000
00000000
00010000
10000000
00000000
,
01000000
00100000
00010000
00100000
01000000
00000000
00100000
00000000
00001000
00010000
00000100
00010000
00001000
00000000
01000000
00000000
,
00100000
10000000
00000000
00100000
00000000
00010000
00000000
00001000
00010000
00000100
00000000
00000010
00000000
00000001
00000000
00000000
,
00001001
00000000
00000000
00000010
00010000
00000000
00000000
00000000
01001000
00000000
00000000
00010000
00000010
00000000
00000000
00000000
,
01100000
00000000
00000000
00010000
00001000
00000000
00000000
00000000
00000110
00000000
00000001
00001000
00000000
00001000
00000010
00000000
,
00000100
00000010
00010000
00001000
00000010
00000000
00000001
00000000
00001000
00000100
00000010
00000100
00010000
00000000
00001000
00000000
,
00000100
00000010
00000000
00010000
00000000
00001000
00000000
00000010
00000000
00001000
00000000
00010000
00000000
00100000
00000000
00000000
,
10010000
00000000
00000000
00000000
;

//---------------dance-double - ----------------
#NOTES:
     dance-double:
     :
     Easy:
     2:
     0.164,0.189,0.009,0.046,0.000,120.000,1.000,5.000,0.000,0.000,0.000:
00000000
00000000
00000000
00000000
,
00000000
00000000
00000000
00000000
,
00000000
00000000
00000000
00000000
,
00000000
00000000
00000000
00000000
,
00200000
00300000
02000000
03000000
,
00002000
00003000
00010000
00000100
,
00001000
00000000
00000020
00000030
,
00000200
00000300
00000001
00001000
,
00000001
00000000
00000010
00000000
,
00000100
00001000
00000000
00000100
,
00010000
00000000
00001000
00000000
,
01000000
00001000
00000000
01000000
,
00010000
00000000
10000000
00000000
,
00100000
00000000
01000000
00010000
,
01000000
00000000
00001000
00000000
,
00100000
00000000
00001000
00010000
,
00001000
00000000
00000001
00001000
,
00000001
00000000
00010000
00001000
,
00010000
00000000
00001000
00000000
,
00010000
00001000
01000000
00000000
,
00100000
00000000
10000000
00010000
,
10000000
00000000
00100000
01000000
,
00010000
00000000
10000000
00000000
,
00001000
00000000
00010000
00000000
,
00000001
00001000
00000001
00000000
,
00000100
00000000
00000010
00000000
,
00010000
00000000
00001000
00000000
,
01000000
00000000
00010000
10000000
,
00010000
00000000
00100000
00000000
,
00001000
00000000
00010000
00000000
,
00000100
00000000
00001000
00000000
,
00000001
00000000
00001000
00000001
,
00001000
00000000
00000001
00000000
,
00010000
00000000
00001000
00000000
,
10000000
00000000
00010000
00000000
,
01000000
00000000
00100000
10000000
,
00100000
00000000
01000000
00000000
,
00010000
00000000
10000000
00100000
,
01000000
00000000
00000000
00000000
,
00000010
00000000
00000000
00010000
,
00001000
00000000
00010000
00000000
,
00000100
00010000
00000000
00001000
,
01000000
00000000
00010000
00000000
,
10000000
00100000
00000000
01000000
,
00010000
00000000
00100000
00001000
,
00100000
00000000
00001000
00010000
,
00001000
00000000
00010000
00000000
,
00000100
00000000
00001000
00000010
,
00001000
00000000
00000001
00001000
,
00000001
00000000
00000010
00000100
,
00000010
00000000
00000001
00000000
,
00001000
00000000
00000010
00010000
,
00011000
00000000
00000000
00000000
;

//---------------dance-double - ----------------
#NOTES:
     dance-double:
     :
     Medium:
     6:
     0.339,0.331,0.282,0.000,0.009,230.000,31.000,0.000,0.000,0.000,0.000:
00000000
00000000
00000000
00000000
,
00000000
00000000
00000000
00000000
,
00000000
00000000
00000000
00000000
,
00000000
00000000
00000000
00000000
,
00100000
00000000
10010000
00000000
00100000
01000000
00010000
01000000
,
00100000
00000000
10010000
00000000
10000000
01000000
00100000
00010000
,
00100000
00000000
00101000
00000000
00001000
00010000
00001000
00010000
,
00000100
00000000
00001100
00000000
00000010
00000001
00000100
00000000
,
00001000
00000001
00000100
00000000
00000010
00000001
00001000
00000000
,
00000010
00000001
00001000
00000000
00000010
00010000
00001000
00000000
,
00000010
00010000
00001000
00000000
01000000
00001000
00010000
00000000
,
01000000
00001000
00010000
00000000
00001000
00010000
00001000
00000000
,
00010000
00000000
01001000
00000000
00010000
01000000
00001000
01000000
,
00010000
00000000
01010000
00000000
00100000
10000000
00100000
01000000
,
00010000
00000000
01010000
00000000
10000000
01000000
00100000
01000000
,
10000000
00000000
00110000
00000000
00010000
01000000
00001000
00000000
,
00010000
00000000
00001000
00010100
,
00011000
00000000
00000100
00001000
,
00000100
00000000
00000000
00001000
00000000
00000000
00000000
00000000
00000100
00000000
00000000
00001000
00000000
00000000
00000000
00000000
,
00000010
00001000
00000010
00000100
00000001
00000100
00001000
00000000
,
00000100
00000000
00000001
00001001
,
00001100
00000000
00000010
00010010
,
00001000
00000000
00010000
00000000
,
00001000
00000000
00010000
00001000
,
00010000
00001000
01000000
00000000
00010000
00001000
01000000
00000000
,
00010000
00000000
01000000
00000000
00100000
10000000
00100000
01000000
,
00010000
11000000
00100000
00110000
,
00001000
00000000
00010000
00000000
00001000
00010000
00001000
00000000
,
00000100
00001000
00000010
00000000
00000100
00001000
00000010
00000000
,
00000100
00000000
00000001
00000000
00000010
00000100
00001000
00000100
,
00000010
00001001
00000100
00010100
,
00001000
00000000
00010000
00000000
00000100
00010000
00001000
00000000
,
00100000
00010000
01000000
00000000
00100000
00010000
01000000
00000000
,
00100000
00000000
10000000
00000000
00010000
01000000
00100000
01000000
,
00010000
11000000
00100000
00110000
,
00001000
00000000
00010000
00000000
00001000
00010000
00001000
00000000
,
00000100
00010000
00001000
00000000
00000100
00010000
00001000
00000000
,
00010000
00000000
00000100
00000000
00000010
00000100
00001000
00000100
,
00000010
00000000
00000001
00000000
,
00001000
00000000
00000010
00001000
,
00000100
00001000
00000010
00000000
00000100
00001000
00000010
00000000
,
00010000
00000100
00001000
00000000
00010000
00000100
00001000
00000000
,
00010000
00001000
01000000
00000000
00010000
00001000
01000000
00000000
,
00100000
00010000
01000000
00000000
00100000
00010000
01000000
00000000
,
00100000
00000000
10000000
11000000
,
00110000
00000000
00001000
00011000
,
00010100
00000000
00001010
00000000
,
00010010
00000100
00001000
00000100
,
00000010
00000000
00000001
00001010
,
00000101
00000000
00001000
00011000
,
01001000
00000000
00110000
00000000
,
10000000
00100000
01000000
00100000
10000000
01000000
00010000
00000000
,
00011000
00000000
00000000
00000000
;
