#TITLE:Esperanza;
#SUBTITLE:;
#ARTIST:KaW;
#TITLETRANSLIT:;
#SUBTITLETRANSLIT:;
#ARTISTTRANSLIT:;
#GENRE:Anthem;
#CREDIT:;
#BANNER:Esperanza-bn.png;
#BACKGROUND:Esperanza-bg.png;
#LYRICSPATH:;
#CDTITLE:;
#MUSIC:Esperanza.ogg;
#OFFSET:0.009;
#SAMPLESTART:45.620;
#SAMPLELENGTH:11.840;
#SELECTABLE:YES;
#BPMS:0.000=147.246;
#STOPS:180.000=0.407
,181.000=0.407
,194.000=0.815;
#BGCHANGES:0.273=Esperanza.mpg=1.000=1=0=0=StretchNoLoop==CrossFade==,
99999=-nosongbg-=1.000=0=0=0 // don't automatically add -songbackground-;
#KEYSOUNDS:;

//---------------dance-single - K. Ward----------------
#NOTES:
     dance-single:
     K. Ward:
     Medium:
     5:
     0.343,0.000,0.271,0.289,0.018:
0000
0000
0000
0000
,
0000
0000
0000
0000
,
0000
0000
0000
0000
,
1001
0000
0000
0000
,
0100
0010
0100
0000
0002
0000
0003
0000
,
1000
0100
0010
0000
0200
0000
0300
0000
,
1000
0001
1000
0000
0002
0000
0003
0000
,
0100
0010
1001
0000
,
0010
0100
0010
0000
1000
0100
1000
0000
,
0100
0010
0100
0000
0001
0010
0001
0000
,
0010
0100
0010
0000
1000
0001
1000
0000
,
0100
0100
0100
0000
,
0010
0000
0000
2200
0000
0000
3300
0000
,
0010
0000
0000
0022
0000
0000
0033
0000
,
0100
0000
0000
2002
0000
0000
3003
0000
,
0010
0001
0100
1000
,
1001
0000
0000
0000
,
1100
0000
0000
0000
,
0011
0000
0000
0000
,
1001
0000
0000
M00M
0000
0000
0000
0000
,
1000
0000
0100
0000
1000
0100
0000
0000
0200
0000
0000
0000
0300
0000
0000
0000
,
0010
0000
0100
0000
0010
0100
0000
0000
0200
0000
0000
0000
0300
0000
0000
0000
,
1000
0000
0001
0000
1000
0001
0000
0000
0002
0000
0000
0000
0003
0000
0000
0000
,
1000
0000
0001
0000
1000
0001
0000
0000
2000
0000
0000
0000
3000
0000
0000
0000
,
0100
0000
0001
0000
0010
0010
0010
0000
,
0001
0000
1000
0000
0100
0100
0100
0000
,
1000
1100
0010
0100
,
1001
0000
0000
0000
,
0100
0100
0010
0010
,
2000
3000
0002
0003
,
0010
0010
0100
0100
,
1000
0001
1000
0001
,
0100
0100
0010
0100
,
0001
0010
0010
0100
,
1000
0001
1000
0000
0010
0100
0010
0000
,
2002
0000
3003
0000
,
0100
0000
0000
1010
0000
0000
0000
0000
,
0010
0000
0000
0101
0000
0000
0000
0000
,
0010
0000
0000
1001
0000
0000
0000
0000
,
0100
1000
0010
0001
,
1001
0000
0000
1000
0000
0000
0000
0000
,
1001
0000
0000
0001
0000
0000
0000
0000
,
0100
0000
0100
0000
0100
0000
0000
0010
,
0000
1000
1000
0000
,
0100
0010
0001
0010
,
1001
0110
0100
0010
,
0001
0000
0000
1000
0000
0000
0001
0000
,
0001
0000
0100
1000
,
0100
0010
0010
0000
,
1000
0001
1000
0000
2002
0000
3003
0000
,
0010
0100
0010
0000
0220
0000
0330
0000
,
0010
0001
0010
0000
0202
0000
0303
0000
,
0010
0100
0010
0000
2200
0000
3300
0000
,
0010
0100
0010
0000
2002
0000
3003
0000
,
0100
0010
0100
0000
0022
0000
0033
0000
,
0010
0100
1000
0000
2200
0000
3300
0000
,
0010
0000
0000
0000
,
1001
0100
0100
0100
,
0010
1000
1000
1000
,
0001
0010
0100
1000
,
0100
0010
0100
0000
,
1100
0000
0000
0000
,
0011
0000
0000
0000
,
0100
1000
0100
0010
,
0020
0000
0030
0000
,
1001
0000
0000
0000
;

//---------------dance-single - K. Ward----------------
#NOTES:
     dance-single:
     K. Ward:
     Easy:
     3:
     0.253,0.000,0.198,0.018,0.000:
0000
0000
0000
0000
,
0000
0000
0000
0000
,
0000
0000
0000
0000
,
1001
0000
0000
0000
,
0001
0000
0000
0000
,
1000
0000
0000
0000
,
0100
0000
0000
0000
,
0001
0000
0000
0000
,
0001
0001
0001
0000
,
1000
1000
1000
0000
,
0100
0100
0100
0000
,
1001
0000
0000
0000
,
0100
0100
0100
0100
,
0010
0010
0010
0010
,
0100
0100
0100
0100
,
1000
0001
1000
0001
,
0000
1100
0000
0000
,
0011
0000
0000
0000
,
1001
0000
0000
0000
,
0110
0000
0000
0000
,
1000
0001
1000
0001
,
0100
1000
0100
1000
,
0001
1000
0001
1000
,
0010
0001
0010
0001
,
1000
0001
1000
0001
,
0100
1000
0100
1000
,
0001
1000
0001
1000
,
1001
0000
0000
0000
,
1000
1100
1100
0000
,
0010
1001
1001
0000
,
0001
1000
0001
0000
0010
0100
0010
0000
,
0100
1000
0010
0001
,
0010
1001
1001
0000
,
0100
1010
1010
0000
,
0100
0010
1000
0001
,
0020
0000
0000
0000
,
0031
0000
0000
0000
,
1000
0000
0000
0000
,
0001
0000
0000
0000
,
1000
0000
0000
0000
,
1001
0000
0000
0000
,
0000
0000
0000
0000
,
0100
0010
0100
0010
,
0001
1000
0001
0000
,
0010
0100
0010
0100
,
1001
0110
0001
1000
,
0001
1000
0100
0100
,
0100
0000
0010
0100
,
0010
0100
1001
0000
,
1000
0001
1000
0001
,
0100
1000
0100
1000
,
0001
1000
0001
1000
,
0010
0001
0010
0001
,
1000
0001
1000
0001
,
0100
1000
0100
1000
,
0001
0010
0100
0010
,
1001
0000
0000
0000
,
0100
0100
0100
0000
,
0010
0010
0010
0000
,
0001
1000
0001
1000
,
0200
0000
0300
0000
,
0100
1000
0100
0010
,
0100
0000
0000
0000
,
0010
0001
0010
0100
,
1001
0000
0000
0000
,
1001
0000
0000
0000
;

//---------------dance-single - K. Ward----------------
#NOTES:
     dance-single:
     K. Ward:
     Beginner:
     1:
     0.098,0.000,0.072,0.000,0.000:
0000
0000
0000
0000
,
0000
0000
0000
0000
,
0000
0000
0000
0000
,
0000
0000
0000
0000
,
1000
0000
0000
0000
,
0001
0000
0000
0000
,
0010
0000
0000
0000
,
0001
0000
0000
0000
,
1000
0000
0000
0000
,
0100
0000
0000
0000
,
0010
0000
0000
0000
,
0100
0000
0000
0000
,
0001
0000
0000
0000
,
0000
0000
0000
0000
,
1000
0000
0000
0000
,
0000
0000
0000
0000
,
0001
0000
0001
0000
,
1000
0000
1000
0000
,
0010
0000
0010
0000
,
1001
0000
0000
0000
,
1000
0000
0000
0000
,
0010
0000
0000
0000
,
0100
0000
0000
0000
,
0010
0000
0000
0000
,
1000
0000
0000
0000
,
0001
0000
0000
0000
,
0010
0000
0000
0000
,
0001
0000
0000
0000
,
1000
0000
1000
0000
,
0001
0000
0001
0000
,
0010
0000
0010
0000
,
0001
0000
0001
0000
,
1000
0000
1000
0000
,
0010
0000
0010
0000
,
1000
0000
0000
0000
,
0001
0000
0000
0000
,
1001
0000
0000
0000
,
0000
0000
0000
0000
,
1001
0000
0000
0000
,
0000
0000
0000
0000
,
1000
0000
0000
0000
,
0001
0000
0000
0000
,
0100
0000
0000
0000
,
0100
0000
0000
0000
,
0100
0000
0000
0000
,
1001
0000
0010
0000
,
0000
0000
0010
0000
,
0000
0000
0100
0000
,
0000
0000
1001
0000
,
0001
0000
0000
0000
,
1000
0000
0000
0000
,
0100
0000
0000
0000
,
1000
0000
0000
0000
,
0010
0000
0000
0000
,
0100
0000
0000
0000
,
0001
0000
0000
0000
,
1000
0000
0000
0000
,
1001
0000
0000
0000
,
0100
0000
0000
0000
,
0001
0000
0000
0000
,
0010
0000
0000
0000
,
1001
0000
0000
0000
,
1000
0000
0000
0000
,
0010
0000
0000
0000
,
0100
0000
0000
0000
,
1001
0000
0000
0000
;

//---------------dance-single - K. Ward----------------
#NOTES:
     dance-single:
     K. Ward:
     Hard:
     8:
     0.474,0.000,0.325,0.171,0.126:
0000
0000
0000
0000
,
0000
0000
0000
0000
,
0000
0000
0000
0000
,
1001
0000
0000
0000
0000
0000
0010
0100
0010
0000
0000
0000
0000
0000
0000
0000
,
1000
0100
0010
0100
2000
0000
3100
0000
,
0001
0010
0100
0010
0002
0000
0013
0000
,
0100
1000
0100
0010
0200
0000
1300
0000
,
0001
1000
0100
0010
0001
1000
0001
0000
,
0001
0000
0100
0000
0010
0000
0001
0000
0010
0000
0000
0100
0000
0000
0001
0000
,
0000
0000
0010
0000
0100
0000
1000
0000
0100
0000
0000
0010
0000
0000
0001
0000
,
0000
0000
0100
0000
0010
0000
1000
0000
0100
0000
0000
0010
0000
0000
2002
0000
,
0000
0000
3003
0000
,
1000
0010
0100
0001
0010
0100
1000
0001
,
1000
0010
0100
0001
0010
0100
0010
0001
,
1000
0001
0100
0010
1000
0100
0010
0001
,
1000
0001
0010
0100
1000
0100
0010
0000
,
1200
0000
0000
0310
0000
0000
0MM0
0000
,
0021
0000
0000
0130
0000
0000
0MM0
0000
,
1002
0000
0000
0103
0000
0000
0000
0000
,
0120
0000
0000
0031
0000
0000
M00M
0000
,
1000
0000
0010
0000
1000
0010
0000
0000
0100
0000
0000
0001
0000
0000
0010
0000
,
0100
0000
1000
0000
0100
1000
0000
0000
0100
0000
0000
0010
0000
0000
0100
0000
,
1000
0000
0001
0000
1000
0001
0000
0000
0100
0000
0000
0010
0000
0000
0100
0000
,
0001
0000
0010
0000
0100
0010
0000
0000
0100
0000
0000
0010
0000
0000
0100
0000
,
2000
0000
0100
0000
0000
0100
0000
0000
3100
0000
0000
0000
0010
0000
0000
0000
,
0002
0000
0010
0000
0000
0010
0000
0000
0013
0000
0000
0000
1000
0000
0000
0000
,
0200
0000
1000
0000
0000
1000
0000
0000
1300
0000
0000
0000
0010
0000
0000
0000
,
0100
0001
0000
0001
0010
0000
0100
0000
0010
0000
0000
0000
0011
0000
0000
0000
,
1000
1100
0010
0101
,
0020
0100
0002
0033
,
1000
0100
0001
0000
0001
0100
1000
0000
,
0100
0000
0010
0000
0100
0000
0010
0000
0010
0000
0100
0010
0000
0000
0000
0000
,
0001
1100
1000
0011
,
0100
1000
0100
0000
0010
0000
1001
0000
,
0100
0010
1000
0000
1000
0100
0010
0000
,
0002
0000
0013
0000
,
0101
0000
0010
0000
0100
0010
0001
0000
,
0010
0000
0011
0000
0100
0010
1000
0000
,
0100
0000
1100
0000
0010
0010
0100
0000
,
0110
0000
0000
0000
1001
0000
0000
0000
0000
0000
0010
0100
0000
0100
0010
0000
,
0100
0000
0000
0011
0000
0000
0000
0000
,
0100
0000
0000
1001
0000
0000
0000
0000
,
1100
0010
0001
0000
0011
0100
1000
0000
,
0110
0000
0001
0000
1000
0000
0000
0000
0110
0000
1000
0000
0100
0000
0000
0010
,
0100
0000
0010
0000
0001
1000
0100
0010
,
0001
0000
1000
0000
0010
0100
0001
0000
,
0011
0000
0000
1000
0000
0100
0001
0000
,
0011
0000
0010
0100
,
1001
0000
0000
0000
0110
0000
0000
0000
1001
0000
0000
0000
0004
4000
0000
0000
,
0003
3000
0000
0000
0000
0000
0000
0000
0100
0000
0100
0000
0010
0000
0000
0000
,
1000
0000
0100
0000
1000
0100
0000
0000
1000
0000
0100
0000
0010
0000
0000
0000
,
0001
0000
1000
0000
0001
1000
0000
0000
0001
0000
0010
0000
0100
0000
0000
0000
,
1000
0000
0010
0000
0100
0010
0000
0000
0100
0000
0100
0000
0100
0000
0000
0000
,
0004
0100
0013
000M
,
4000
0001
3100
M000
,
0400
1000
0310
0M00
,
1001
0000
0000
0000
0000
0000
0100
0010
0400
0000
0000
0000
0310
0000
0000
0000
,
0101
0010
0001
0000
0001
0010
0100
0000
,
1010
0100
1000
0000
1000
0100
0010
0000
,
0101
0001
0010
0000
1100
0100
0010
0000
,
0001
0000
0100
0000
1000
0000
0100
0000
0010
0000
0100
0010
0000
0000
0000
0000
,
0011
0100
0200
0000
,
1300
0100
0002
0000
,
1003
0000
0100
0000
0010
0000
0000
0000
0010
0000
0100
0010
0000
0000
0000
0000
,
2002
0000
3003
0100
,
0011
0000
0000
0000
;

//---------------dance-single - C. Foy----------------
#NOTES:
     dance-single:
     C. Foy:
     Challenge:
     9:
     0.532,0.000,0.135,0.307,0.424:
0000
0000
0000
0000
,
0000
0000
0000
0000
,
0000
0000
0000
0000
,
1MM1
0000
0000
0000
0000
0000
0010
1000
0002
0000
0000
0003
1001
0000
0000
0000
,
01M0
0001
0010
0000
0002
0000
0040
0003
,
0130
0000
1000
0000
0010
0000
0000
0000
0200
0000
0000
0000
0040
0000
0000
0300
,
1030
0000
0100
0000
0010
0000
0000
0000
0020
0000
0000
0000
0004
0000
0000
0030
,
0103
0000
0001
0000
0020
0000
0000
0000
0400
0000
0000
0030
1300
0000
0000
0000
,
0001
0000
0001
0000
0010
0000
0002
0000
0040
0000
0000
0000
0000
0033
1001
0000
,
0000
0000
0000
0000
0000
0000
2000
0000
0400
0000
0000
0000
0000
3300
1001
0000
,
0000
0000
0000
0000
0000
0000
0020
0000
0004
0000
0000
0000
0000
0033
1001
0000
,
00M0
0000
0000
0000
0000
0000
0400
0000
0020
0000
0000
0330
1001
0000
0000
0000
,
1M00
0000
0000
1000
0100
0000
0100
0000
0000
0010
0001
0000
0010
0000
0000
0000
,
0010
0000
0000
0001
0100
0000
0100
0000
0000
0010
1000
0000
1000
0000
0000
0000
,
0001
0000
0000
0001
1000
0000
1000
0000
0000
0100
0010
0000
0010
0000
0000
0000
,
0001
0000
0000
0100
0001
0000
1000
0000
0000
0000
0001
0010
0100
1000
0100
0000
,
2000
0000
0040
0000
3000
0400
0030
0002
,
0000
0300
0040
0000
0003
0200
0030
2000
,
000M
0300
0040
0000
3000
2000
0030
0400
,
000M
3000
0040
0000
0300
0030
1001
0000
,
10M0
0000
0100
0000
0010
0001
0000
1000
0100
0000
0010
0100
0000
0010
0001
0000
,
1000
0000
0100
0000
0010
0100
0000
0010
0001
0000
1000
0100
0000
1000
0001
0000
,
1000
0000
0001
0000
1000
0010
0000
1000
0100
0000
0010
0001
0000
0100
0010
0000
,
1000
0000
0010
0000
1000
0001
0000
0100
0010
0000
0100
0001
0000
1000
0001
0000
,
1000
0000
0001
0000
0001
0010
0000
0010
0100
0000
0100
1000
0000
1000
0010
0000
,
0010
0000
0100
0000
0100
0010
0000
0010
1000
0000
1000
0100
0000
0100
0010
0000
,
0010
0000
0001
0000
0001
0100
0000
0100
0010
0000
0010
1000
0000
1000
0100
0000
,
0100
0000
0010
0000
0010
0100
0000
0100
1000
0000
1000
0001
0000
0001
1000
0000
,
20M0
0400
0000
3000
,
0020
0300
0004
0000
0000
0000
0030
0000
,
0400
0003
0020
0000
0000
0000
0300
0000
,
4000
0030
0200
0000
0000
0000
3000
0000
,
0040
0300
0200
0000
0000
0000
0030
0000
,
4000
0300
0004
0000
0000
0000
3000
0000
,
0400
0003
0020
0000
0000
0000
0300
0000
,
M400
0030
0004
0000
0000
0000
0303
0000
,
1M1M
0000
0000
1000
0000
0000
0100
0000
0000
0000
0001
0000
0100
0000
0000
0000
,
1000
0000
0000
0100
0000
0000
0010
0000
0000
0000
0001
0000
0010
0000
0000
0000
,
1000
0000
0000
0010
0000
0000
0100
0000
0000
0000
1000
0000
0010
0000
0000
0000
,
0001
0000
0000
0010
0000
0000
1000
0000
0000
0000
1000
0100
0010
0001
0010
0100
,
100M
0000
0000
1000
0000
0000
0100
0000
0000
0001
0000
0000
0100
0000
0000
0000
,
1000
0000
0000
0010
0000
0000
0001
0000
0000
0010
0000
0000
1000
0000
0000
0000
,
010M
0000
0000
0010
0000
0000
1000
0000
0000
0000
0010
0000
0100
0000
0000
0000
,
1000
0000
0000
0010
0000
0000
0001
0000
0000
0000
0010
0000
0100
0000
0000
0000
,
0001
0000
0000
0010
0000
0000
1000
0000
0000
0000
0010
0000
0001
0000
0000
0000
,
2200
3300
0000
0000
0000
0000
0000
0000
0202
0303
0000
0000
0000
0000
0000
0000
1000
0000
0000
0000
0100
0000
0000
0000
0010
0000
0000
0000
0001
0000
0000
0000
,
0100
0010
1000
0100
1000
0010
0100
0001
,
0010
0100
2000
0000
3010
1000
0100
0010
,
0100
0000
0000
0000
0000
0000
0000
0000
1000
0000
0000
0000
0000
0000
0000
0000
0002
0000
0000
0000
0000
0000
0000
0000
0000
0000
0000
0000
0000
0000
0000
0000
1000
0003
0000
0000
0000
0000
0000
0000
0000
0000
0000
0000
0000
0000
0000
0000
1000
0000
0000
0000
0100
0000
0000
0000
0010
0000
0000
0000
0001
0000
0000
0000
,
1M00
0000
0010
0000
0100
0001
0000
0100
0010
0000
1000
0001
0000
0010
0100
0000
,
0100
0000
0010
0000
0100
0010
0000
0100
1000
0000
0001
0010
0000
0001
1000
0000
,
0001
0000
1000
0000
0001
0100
0000
0001
0010
0000
0100
1000
0000
0010
0100
0000
,
0001
0000
0100
0000
0001
1000
0000
0010
0100
0000
0010
1000
0000
0001
1000
0000
,
0001
0000
1000
0000
1000
0100
0000
0100
0010
0000
0010
0001
0000
0001
1000
0000
,
1000
0000
0010
0000
0010
0100
0000
0100
0001
0000
0001
0010
0000
0010
0100
0000
,
0100
0000
1000
0000
1000
0001
0000
0001
0100
0000
0100
0001
0000
0001
0010
0000
,
0010
0000
0100
0000
0100
0010
0000
0010
0001
0000
0001
1000
0000
1000
0001
0000
,
20M1
0000
0000
0000
0000
0000
0000
0000
0010
0000
0000
0001
0000
0000
0400
3000
,
0020
0000
0000
0000
0300
0000
0000
0000
0100
0000
0000
0001
0000
0000
0032
0000
,
0400
0000
0000
0000
0000
0000
0000
0003
0001
0000
0000
0010
0000
0000
0340
0000
,
4000
0000
0000
0000
0030
0000
0001
3000
0002
0000
0000
0000
2000
0000
0000
3003
,
2MM2
0000
0000
0000
0000
0000
0003
3040
,
0400
0000
0000
0000
0000
0000
0030
0000
0001
0000
0000
0010
0000
0000
0340
0000
,
2000
0000
0000
0000
0000
0000
0030
3100
,
01MM
0000
1100
M1M1
,
1MM1
0000
0000
0000
;

//---------------dance-double - M. Emirzian----------------
#NOTES:
     dance-double:
     M. Emirzian:
     Easy:
     3:
     0.187,0.000,0.081,0.018,0.000:
00000000
00000000
00000000
00000000
,
00000000
00000000
00000000
00000000
,
00000000
00000000
00000000
00000000
,
10000000
00000000
00010000
00000000
,
01000000
00000000
00001000
00010000
,
00001000
00000000
01000000
00001000
,
00010000
00000000
00000010
00010000
,
00001000
00000000
00010000
00000100
,
00001000
00000000
00000010
00001000
,
00000100
00000000
00000010
00000001
,
00001000
00000000
00000010
00000100
,
00002002
00000000
00000000
00003003
,
00000010
00000000
00001000
00000000
,
00000100
00001000
00000100
00000000
,
00010000
00000000
00000100
00000000
,
00010000
00001000
00010000
00000000
,
00011000
00000000
00000000
00000000
,
01001000
00000000
00000000
00000000
,
01010000
00000000
00000000
00000000
,
10100000
00000000
00000000
00000000
,
10000000
00000000
00100000
00000000
,
01000000
00000000
00010000
00000000
,
00100000
00000000
00001000
00000000
,
00010000
00000000
00000100
00000000
,
00001000
00000000
00000010
00000000
,
00000100
00000000
00000001
00000000
,
00000010
00000000
00000100
00000000
,
00001000
00000000
00000010
00000000
,
00001000
00000010
00001000
00000000
,
00000100
00000000
00010000
00000000
,
00001000
00010000
00001000
00000000
,
01000000
00000000
00001000
00000000
,
01000000
00010000
10000000
00000000
,
00100000
00000000
01000000
00000000
,
00010000
10000000
01000000
00000000
,
00100000
00000000
00010000
00000000
,
01000000
00000000
00001000
00000000
,
00010000
00001000
00000100
00000000
,
00000001
00000000
00000010
00000000
,
00000100
00010000
00001000
00000000
,
01001000
00000000
00000000
00000000
,
00011000
00000000
00000000
00000000
,
00010010
00000000
00010000
00000000
,
00001000
00000000
00001000
00010000
,
00100000
00000000
10000000
00000000
,
00010000
01000000
10000000
00000000
,
01000000
00010000
10000000
00000000
,
01000000
00100000
00010000
00000000
,
00100000
00001000
00010000
00000000
,
00001000
00000000
00010000
00000000
,
00000100
00000000
00001000
00000000
,
00000001
00000000
00001000
00000000
,
00000010
00000000
00001000
00000000
,
00000100
00000000
00010000
00000000
,
00001000
00000000
01000000
00000000
,
00010000
00000000
00100000
00000000
,
00010000
00000000
01000000
00000000
,
00100000
00000000
00000000
10000000
,
00010000
00000000
00000000
01000000
,
00001000
00000000
00000000
00010000
,
00000010
00000000
00001000
00000000
,
00000001
00000000
00000000
00000000
,
00000010
00000000
00000000
00000000
,
00010000
00000000
00000000
00000000
,
10000000
00000000
00000000
00000000
,
00011000
00000000
00000000
00000000
;

//---------------dance-double - M. Emirzian----------------
#NOTES:
     dance-double:
     M. Emirzian:
     Medium:
     6:
     0.383,0.000,0.243,0.090,0.000:
00000000
00000000
00000000
00000000
,
00000000
00000000
00000000
00000000
,
00000000
00000000
00000000
00000000
,
00010100
00000000
00000000
02002000
00000000
00000000
03003000
00000000
,
01000000
00010000
10000000
00000000
00100000
00000000
00010000
00000000
,
00100000
10000000
00010000
00000000
10000000
00000000
01000000
00000000
,
00100000
00010000
00100000
00010000
01000000
00000000
00001000
00000000
,
00010000
00000100
00010000
00000100
00001000
00000000
00000010
00000000
,
00000100
00000001
00001010
00000000
,
00000001
00000100
00001010
00000000
,
00000100
00010000
00010100
00001000
,
00010000
00001000
00101000
00000000
,
00000000
01000000
00010000
01000000
00000000
00100000
10000000
00100000
,
00000000
01000000
00010000
01000000
00000000
00001000
01000000
00001000
,
00000000
00010000
00000100
00010000
00000000
00001000
00010000
00001000
,
00000000
00010000
00000010
00010000
00000000
00000010
00001000
00000000
,
00000100
00000000
00001000
00000000
00000001
00001000
00000001
00000000
,
00000100
00000000
00000010
00000000
00001000
00000010
00001000
00000000
,
00000100
00000000
00010000
00000000
00000100
00010000
00000100
00000000
,
00010100
00000000
00000000
02002000
00000000
00000000
03003000
00000000
,
01000000
00000000
00010000
10000000
00010000
01000000
00010000
00000000
,
00100000
00010000
01010000
00000000
,
00100000
00000000
10000000
00010000
10000000
01000000
00100000
00000000
,
00010000
01000000
01001000
00000000
,
00001000
00000000
00010000
00000100
00010000
00001000
00010000
00000000
,
00000100
00001000
00010100
00000000
,
00000100
00000000
00001000
00000010
00001000
00000001
00001000
00000000
,
00001100
00000000
00000000
00020020
00000000
00000000
00030030
00000000
,
00001000
00000000
00010000
00000000
00001000
00010000
00001000
00000000
,
00010000
00000000
00001000
01000000
00001000
00010000
00001000
00000000
,
00100000
00000000
00010000
00000000
10000000
00100000
10000000
00000000
,
01000000
00000000
00100000
00010000
00100000
01000000
10000000
00000000
,
00010000
00000000
01000000
00000000
00100000
10000000
00100000
00000000
,
01000000
00000000
00010000
01000000
00001000
00010000
00001000
00000000
,
00010000
00000100
00001000
00000100
,
00001001
00000000
00000000
00000220
00000000
00000000
00000330
00000000
,
00000000
00000001
00001000
00000001
00000000
00001000
00000100
00001000
,
00000000
00000100
00010000
00000100
00000000
00010000
00001000
00010000
,
00000000
00001000
01000000
00001000
00000000
01000000
00010000
01000000
,
00000000
00100000
10000000
00100000
00000000
01000000
00010000
00000000
,
10000000
00000000
00000000
01000000
00000000
00000000
00100000
00000000
,
00001000
00000000
00000000
00000100
00000000
00000000
00000001
00000000
,
00001000
00000100
00001000
00000010
,
00000100
00000001
00001000
00000100
,
00010000
00001000
01000000
00010000
,
00110000
00000000
11000000
00000000
01000000
00000000
00000000
00110000
,
00000000
00000000
00001000
00000000
00010000
00000000
00000000
00010100
,
00000000
00000000
00001000
00000000
00000100
00000000
00000000
00001010
,
00000000
00000100
00002002
00003003
,
00000010
00000000
00001000
00000010
00001000
00000010
00000100
00000000
,
00000001
00001000
00001100
00000000
,
00000010
00000000
00010000
00001000
00010000
00000100
00010000
00000000
,
00001000
01000000
01010000
00000000
,
10000000
00000000
01000000
00100000
00010000
00100000
01000000
00000000
,
00100000
00010000
00101000
00000000
,
00010000
00000000
01000000
00001000
00010000
00001000
00010000
00000000
,
00000100
00001000
00001010
00000000
,
00000001
00001000
00000100
00000000
,
00001000
00000000
00000010
00000000
,
00001000
00000100
00010000
00000000
,
00001000
00000000
01000000
00000000
,
00001000
00000000
00100000
00000000
,
00010000
00000000
01000000
00000000
,
00001000
00000000
00010000
00000000
,
00000010
00000000
00000100
00001001
,
00000110
00000000
00000000
00000000
;

//---------------dance-double - M. Emirzian----------------
#NOTES:
     dance-double:
     M. Emirzian:
     Hard:
     9:
     0.701,0.000,0.262,0.072,0.550:
00000000
00000000
00000000
00000000
,
00000000
00000000
00000000
00000000
,
01001000
00000000
00000000
00000000
00011000
00000000
00000000
00000100
00010000
00000100
00000000
00000100
00001000
00000000
00000010
00000000
,
00000100
00000000
00000000
00000000
00001001
00000000
00000000
00000010
00000000
00001000
00000000
00000100
00000010
00000000
00000100
00000000
,
00001000
00000010
00000100
00000010
00001000
00000001
00000100
00001000
,
00010000
01000000
10000000
00100000
00010000
00100000
10000000
01000000
,
00100000
01000000
10000000
00100000
00010000
00100000
10000000
01000000
,
00100000
00001000
00010000
00100000
00010000
00001000
00000010
00000100
,
00000010
00000001
00000100
00001000
00000100
00000001
00000010
00000100
,
00000010
00000001
00000100
00001000
00000100
00000001
00000010
00000100
,
00000010
00001000
00010000
00100000
00010000
00001000
00000010
00001000
,
00010000
00100000
10000000
00010000
01000000
00100000
10010000
00000000
,
10000000
00000000
01000000
00100000
00000000
00000000
00100000
00010000
00000000
00000000
00010000
00100000
00001000
00000000
00010000
00000000
,
00100000
00000000
00010000
00001000
00000000
00000000
00001000
00000010
00000000
00000000
00000010
00000100
00001000
00000000
00000010
00000000
,
00000100
00000000
00000001
00001000
00000000
00000000
00001000
00000100
00000000
00000000
00000100
00000010
00000001
00000000
00000100
00000000
,
00000010
00000000
00010000
00001000
00000000
00000000
00001000
01000000
00000000
00000000
01000000
00100000
10000000
00000000
00010000
00000000
,
00100000
00000000
00000000
00000000
11000000
00000000
00000000
00010000
01000000
00010000
00000000
00010000
10000000
00000000
01000000
00000000
,
00100000
00000000
0MM00000
00000000
00011000
00000000
00000000
00010000
00000000
00001000
00000000
00000010
00000100
00000000
00001000
00000000
,
00000110
00000000
00000000
00000000
00001001
00000000
00000000
00001000
00000010
00001000
00000000
00001000
00000100
00000000
00010000
00000000
,
00001000
00000000
000MM000
00000000
01001000
00000000
00000000
00010000
00000000
01000000
00000000
00100000
10000000
00000000
01000000
00000000
,
00100000
00000000
01000000
00000000
10000000
01000000
00000000
01000000
00100000
00000000
00100000
00010000
00000000
00010000
01000000
00000000
,
00100000
00000000
01000000
00000000
00000000
01001000
00000000
00000000
00011000
00000000
00000000
00010010
00000000
00000000
00001000
00000000
,
00010000
00000000
00000100
00000000
00010000
00001000
00000000
00001000
00000010
00000000
00000010
00000001
00000000
00000001
00000100
00000000
,
00000010
00000000
00001000
00000000
00000000
00010010
00000000
00000000
00011000
00000000
00000000
01001000
00000000
00000000
00001000
00000000
,
00100000
00000000
00001000
00000000
00010000
00001000
00000000
00001000
01000000
00000000
01000000
00100000
00000000
00100000
10000000
00000000
,
01000000
00000000
00100000
00000000
00000000
00101000
00000000
00000000
00011000
00000000
00000000
00010010
00000000
00000000
00010000
00000000
,
00001000
00000000
01000000
00000000
00100000
01000000
00000000
01000000
00001000
00000000
00001000
00010000
00000000
00010000
00000010
00000000
,
00001010
00000000
00000000
00010010
00000000
00000000
00000110
00000000
00000000
00000000
00000001
00000000
00000100
00000000
00000010
00000000
,
00001000
00000001
00000010
00000100
00000010
00000001
00000100
00001000
,
00000100
00000000
00000001
00000000
00001000
00000100
00000000
00000100
00010000
00000000
00010000
00001000
00000000
00001000
01000000
00000000
,
00010000
00100000
10000000
00100000
00010000
01000000
00100000
01000000
,
00010000
00000000
10000000
00000000
01000000
00100000
00000000
00100000
00001000
00000000
00001000
00010000
00000000
00010000
00000100
00000000
,
00010000
00001000
00000010
00000001
00000100
00001000
00000100
00000001
,
00000010
00000000
00000100
00000000
00000010
00000001
00000000
00000001
00000100
00000000
00000100
00001000
00000000
00001000
00010000
00000000
,
00100000
01000000
00100000
10000000
01000000
00010000
01000000
10000000
,
00100000
00000000
01000000
00000000
00010000
10000000
00000000
10000000
01000000
00000000
01000000
00010000
00000000
00010000
00001000
00000000
,
00000010
00000000
00000100
00001000
00000000
00000000
00001000
00000001
00000000
00000000
00000001
00000100
00000010
00000000
00001000
00000000
,
00000100
00000000
00010000
00001000
00000000
00000000
00001000
00000010
00000000
00000000
00000010
00000001
00001000
00000000
00000010
00000000
,
00010000
00000000
00100000
01000000
00000000
00000000
01000000
00010000
00000000
00000000
00010000
10000000
01000000
00000000
00100000
00000000
,
00010000
00000000
01000000
00001000
00000000
00000000
00001000
00010000
00000000
00000000
00010000
00000100
00001000
00000000
00000010
00000000
,
00000100
00000000
00000000
00000001
00000000
00000000
00010000
00000000
00000000
00001000
00000000
00000000
10000000
00000000
M0000000
00000000
,
10000000
00000000
00000000
00001000
00000000
00000000
00010000
00000000
00000000
00000001
00000000
00000000
00000010
00000000
00000100
00000000
,
00001000
00000000
00000001
00000100
00000001
00000000
00001000
00000010
00001000
00000000
00000001
00000000
00001000
00000000
00000100
00000000
,
00000010
00000000
00000100
00001000
00000100
00000000
00010000
00001000
00010000
00000000
00000100
00000000
00010000
00000000
00001000
00000000
,
01000000
00000000
00010000
01000000
00010000
00000000
10000000
00100000
10000000
00000000
00100000
00000000
01000000
00000000
00001000
00000000
,
00022000
00000000
00133010
00000000
02002000
00000000
00000000
10000000
,
00000000
00100000
00000000
00000000
03013000
00000000
00000000
00000000
00022000
00000000
00000000
00000000
00000000
00000000
00000010
00000000
,
00000000
00100000
00000000
00000000
00033010
00000000
00000000
00000000
00020200
00000000
00000000
00000000
00000000
00000000
00000001
00000000
,
00000000
00000010
00000000
00000000
00031300
00000000
00000000
00000000
00001100
00000000
0000MMMM
00000000
00000001
00000000
00000100
00000000
,
00000010
00001000
00000100
00000001
00000100
00001000
00000010
00000100
,
00000010
00000000
00001000
00000000
00000100
00010000
00000000
00010000
00001000
00000000
00001000
00100000
00000000
00100000
00010000
00000000
,
01000000
10000000
01000000
00010000
00100000
01000000
00100000
00010000
,
10000000
00000000
00100000
00000000
00010000
00001000
00000000
00001000
00000010
00000000
00000010
00000001
00000000
00000001
00000100
00000000
,
00000010
00010000
00001000
00000100
00000001
00001000
00000010
00010000
,
00001000
00000000
01000000
00000000
00001000
00010000
00000000
00010000
00100000
00000000
00100000
10000000
00000000
10000000
01000000
00000000
,
00100000
01000000
10000000
00100000
00010000
00100000
10000000
01000000
,
00100000
00000000
01000000
00000000
10000000
01000000
00000000
01000000
00010000
00000000
00010000
00001000
00000000
00001000
00000100
00000000
,
00000001
00000000
00000010
00000000
00000100
00000000
00001000
00000000
00000001
00000000
00000100
00000000
00000010
00001000
00000010
00000000
,
00010000
00000000
00001000
00000000
00000100
00000000
00001000
00000000
00010000
00000000
00100000
01000000
00000000
01000000
00100000
00000000
,
10000000
00000000
01000000
00000000
00100000
00000000
01000000
00000000
10000000
00000000
01000000
00000000
00100000
00010000
00100000
00000000
,
00001000
00000000
00010000
00000000
01000000
00000000
00010000
00000000
00001000
00000000
00000100
00000010
00000000
00000010
00000100
00000000
,
00000001
00000000
00001000
00000000
00000000
00000100
00000000
00000000
00000001
00000000
00000000
00000100
00000000
00000000
00010000
00000000
,
00001000
00000000
00010000
00000000
00000000
00100000
00000000
00000000
10000000
00000000
00000000
01000000
00000000
00000000
00100000
00000000
,
01000000
00000000
10000000
00000000
00000000
00100000
00000000
00000000
00010000
00000000
00000000
00001000
00000000
00000000
00000010
00000000
,
00000100
00000010
00000001
00000100
00000010
00000000
00001010
00000000
,
00110000
00000000
00000000
00000000
;

//---------------dance-double - M. Emirzian----------------
#NOTES:
     dance-double:
     M. Emirzian:
     Challenge:
     11:
     0.834,0.000,0.379,0.072,0.857:
00000000
00000000
00000000
00000000
,
00000000
00000000
00000000
00000000
,
00010100
00000000
00000000
00000000
00011000
00000000
00000000
00100000
00001000
00010000
00000000
00010000
00000100
00000000
00001000
00000000
,
00001010
00000000
00000000
00000000
00001001
00000000
00000000
00001000
00000000
00000010
00000000
00000100
00000001
00000000
00001000
00000000
,
00000100
00000010
00000001
00000100
00000010
00000100
00000001
00010000
,
00001000
01000000
00100000
01000000
00001000
00100000
10000000
00100000
,
00001000
00010000
00000010
00000001
00000010
00010000
00001000
00000010
,
00000100
00000010
00000001
00000100
00001000
00000100
00000001
00000010
,
00001000
01000000
10000000
01000000
00001000
00010000
00000010
00000001
,
00000010
00010000
00001000
01000000
00100000
01000000
00010000
10000000
,
01000000
00010000
00001000
01000000
00100000
01000000
00000100
00000010
,
00000100
00000000
00001000
00000000
00000010
00000000
00000100
00000000
00000001
00000000
00000000
00001000
00000100
00000000
00000010
00000000
,
00000001
00000000
00001000
00000100
00000010
00000100
00000010
00000001
00001000
00000000
00000010
00001000
00000010
00010000
00001000
01000000
,
00010000
00000000
01000000
00001000
01000000
00010000
01000000
00100000
10000000
00000000
00010000
10000000
00010000
10000000
01000000
00100000
,
00010000
00000000
01000000
00001000
00010000
00001000
00010000
00000100
00001000
00000000
00000001
00001000
00000100
00001000
00000001
00000100
,
00000010
00000000
00001000
00000010
00010000
00001000
00010000
00000100
00010000
00000000
00001000
01000000
00010000
01000000
00100000
01000000
,
00010000
00000000
00000000
00000000
11000000
00000000
00000000
00100000
01000000
00010000
00000000
00010000
10000000
00000000
01000000
00000000
,
00110000
00000000
00000000
00000000
00101000
00000000
00000000
00010000
00000000
00001000
00000000
01000000
00001000
00000000
00010000
00000000
,
00010010
00000000
00000000
00000000
00100010
00000000
00000000
00010000
00001000
00000010
00000000
00000001
00001000
00000000
00000010
00000000
,
00000101
00000000
00000000
00000000
00001001
00000000
00000000
00000010
00000000
00010000
00000000
00001000
01000000
00000000
00001000
00000000
,
00010000
00000000
00000100
00000000
00010000
00001000
00000000
01000000
00001000
00000000
00100000
00010000
00000000
10000000
01000000
00000000
,
00100000
00000000
00010000
00000000
00000000
01010000
00000000
00000000
01001000
00000000
00000000
01000100
00000000
00000000
00011000
00000000
,
00010000
00000000
00001000
00000000
01000000
00100000
00000000
01000000
00001000
00000000
00010000
00000010
00000000
00001000
00000100
00000000
,
00000010
00000000
00000001
00000000
00000000
00001100
00000000
00000000
00001010
00000000
00000000
00010010
00000000
00000000
00100010
00000000
,
00010000
00000000
00000010
00000000
00000100
00000010
00000000
00010000
00001000
00000000
00100000
01000000
00000000
00100000
00001000
00000000
,
01000000
00000000
00100000
00000000
00000000
10010000
00000000
00000000
01001000
00000000
00000000
01000100
00000000
00000000
00011000
00000000
,
00000100
00000000
00010000
00000000
00001000
00000010
00000000
00001000
00010000
00000000
01000000
00010000
00000000
00001000
00000100
00000000
,
00000110
00000000
00000000
00001001
00000000
00000000
00010001
00000000
00000000
00000000
00000010
00000000
00000100
00000000
00000001
00000000
,
00001000
00000000
00000100
00000000
00000010
00000000
00000100
00000000
00010000
00000000
00000100
00010000
00000100
00001000
00000100
00010000
,
00001000
00000000
01000000
00000000
00001000
00100000
00000000
00010000
00000010
00000000
00001000
00100000
00000000
00010000
00000010
00000000
,
00010000
00000000
00001000
00000000
01000000
00000000
00100000
00000000
01000000
00000000
01000000
00010000
01000000
00100000
01000000
00001000
,
01000000
00000000
00010000
00000000
10000000
01000000
00000000
00010000
00001000
00000000
00000010
00000001
00000000
00001000
00000100
00000000
,
00000010
00000000
00000001
00000000
00000100
00000000
00000010
00000000
00001000
00000000
00000100
00000010
00000100
00001000
00000100
00010000
,
00000100
00000000
00010000
00000000
00001000
01000000
00000000
00010000
00000010
00000000
00001000
01000000
00000000
00010000
00000010
00000000
,
00010000
00000000
00001000
00000000
01000000
00000000
00100000
00000000
01000000
00000000
01000000
00100000
01000000
00001000
01000000
00010000
,
01000000
00000000
00100000
00000000
10000000
00100000
00000000
00010000
00001000
00000000
00000100
00000001
00000000
00000010
00000100
00001000
,
00000001
00000000
00001000
00000010
00001000
00000100
00001000
00000001
00001000
00000000
00000010
00000100
00000010
00001000
00000010
00010000
,
00001000
00000000
00010000
00001000
01000000
00001000
00010000
00001000
00100000
00000000
00010000
01000000
00010000
10000000
01000000
00100000
,
00010000
00000000
00100000
00001000
00010000
00001000
01000000
00001000
00010000
00000000
00000100
00010000
00001000
00010000
00000010
00001000
,
00000010
00000000
00000100
00000001
00000010
00000100
00001000
00000010
00000100
00000000
00000001
00000100
00000010
00001000
00000100
00000010
,
00000001
00000000
00000000
00001100
00000000
00000000
00010010
00000000
00000000
00011000
00000000
00000000
01000010
00000000
00000000
00000000
,
00011000
00000000
00000000
00100100
00000000
00000000
00011000
00000000
00000000
01001000
00000000
00010000
00001000
01000000
00010000
10000000
,
00010000
00000000
00100000
00010000
01000000
00000000
00100000
10000000
01000000
00000000
00100000
00010000
00100000
01000000
10000000
00000000
,
00010000
00000000
01000000
00001000
00010000
00000000
00000100
00001000
00000010
00000000
00000100
00000001
00001000
00000100
00000010
00000000
,
00000001
00000000
00001000
00000010
00000100
00000000
00000010
00001000
00000100
00000000
00010000
00000000
00001000
00000000
00000000
00000000
,
02000200
00000000
00000000
00000000
03011300
00000000
00000000
00000000
02002000
00000000
00000000
10000000
00000000
00000000
00100000
00000000
,
00000000
00010000
00000000
00000000
03003010
00000000
00000000
00000000
02000200
00000000
00000000
10000000
00000000
00000000
00010000
00000000
,
00000000
00001000
00000000
00000000
03000301
00000000
00000000
00000000
00020200
00000000
00000000
00000001
00000000
00000000
00000010
00000000
,
00000000
00000000
00001000
00000000
00000000
00000000
00000000
00000000
00130300
00000000
00000000
00000000
00000000
00000000
00000000
00000000
00011000
00000000
00000000
00000000
00000000
00000000
00000000
00000000
00010000
00001000
00010000
00000000
00000000
00000000
00000000
00000000
,
00001000
00000000
00010000
00000000
00100000
00000000
10000000
00000000
01000000
00000000
00100000
00010000
10000000
01000000
10000000
00100000
,
10000000
00000000
00010000
00000000
01000000
00001000
00000000
00010000
00000010
00000000
00010000
00001000
00000000
00010000
00000010
00000000
,
00010000
00000000
00000100
00000000
00000001
00000000
00000100
00000000
00010000
00000000
00001000
00010000
00000100
00010000
00001000
00010000
,
00000010
00000000
00010000
00000000
00001000
01000000
00000000
00010000
00000100
00000000
00001000
01000000
00000000
00010000
00000100
00000000
,
00010000
00000000
00001000
00000000
01000000
00000000
10000000
00000000
01000000
00000000
00001000
00010000
00001000
01000000
00010000
01000000
,
00100000
00000000
10000000
00000000
01000000
00100000
00000000
00001000
00010000
00000000
00000100
00000010
00000000
00000001
00001000
00000000
,
00000010
00000000
00000100
00000000
00000001
00000000
00000010
00000000
00001000
00000000
00010000
00000100
00010000
00001000
00010000
00000010
,
00010000
00000000
00001000
00000000
01000000
00001000
00000000
00010000
00000010
00000000
01000000
00001000
00000000
00010000
00000010
00001000
,
00000010
00000000
00000100
00000000
00000001
00000000
00000010
00000000
00000100
00000000
00010000
00000100
00000000
00000100
01000000
00000000
,
00001000
00000000
00000100
00000000
00001000
00000000
01000000
00000000
10000000
00000000
01000000
00001000
00000000
00001000
00010000
00000000
,
01000000
00000000
00100000
00010000
01000000
00000000
00001000
01000000
00000000
01000000
00000100
00000000
00010000
00000100
00001000
00000000
,
00000010
00000000
00000100
00000000
00000001
00000000
00001000
00000000
00000100
00000010
00000100
00000000
00001000
00000000
00000001
00000000
,
00000100
00000000
00000010
00000000
00010000
00000000
00000100
00000000
00000001
00000000
00000100
00010000
00000000
00010000
00001000
00000000
,
01000000
00000000
10000000
00000000
01000000
00000000
00001000
00000000
00100000
00000000
00001000
01000000
00000000
01000000
00000100
00000000
,
00010000
00000000
00001000
00010000
00000100
00000000
00001000
00000010
00000000
00000010
00000100
00000000
00000001
00001000
00000100
00000000
,
00010000
00000010
00000001
00000010
00010000
00000000
00011000
00000000
,
00100010
00000000
00000000
00000000
;

//---------------dance-single - M.Emirzian----------------
#NOTES:
     dance-single:
     M.Emirzian:
     Edit:
     11:
     0.844,0.000,0.415,0.072,0.906: // measure 1
0000
0000
0000
0000
,  // measure 2
0000
0000
0000
0000
,  // measure 3
1010
0000
0000
0000
1100
0000
0000
0010
0100
0010
0000
0010
1000
0000
0010
0000
,  // measure 4
0101
0000
0000
0000
0011
0000
0000
0101
0000
0001
0000
0100
0010
0000
1000
0000
,  // measure 5
0001
0000
0100
0000
1000
0000
0100
0000
0001
0000
0100
0001
0000
0001
0010
0000
,  // measure 6
0100
0000
1000
0000
0100
0000
0010
0000
0001
1000
0001
0000
0010
0100
0010
0000
,  // measure 7
0001
0000
1000
0000
0100
0000
0001
0000
0100
0000
1000
0010
0000
0010
1000
0000
,  // measure 8
0010
0000
0100
0000
0010
0000
1000
0000
0100
0010
0100
0000
1000
0001
1000
0000
,  // measure 9
0010
0000
0100
0000
0001
0000
0010
0000
1000
0000
0010
0001
0000
0001
1000
0000
,  // measure 10
0010
0000
0100
0000
0010
0000
1000
0000
0100
0010
0100
0000
1000
0001
1000
0000
,  // measure 11
0001
0000
0100
0000
0010
0000
0100
0000
0001
0000
0010
0100
0000
0100
0010
0000
,  // measure 12
0001
0000
0100
0000
1000
0000
0100
0000
0001
0000
0000
0001
0100
0000
0010
0000
,  // measure 13
1000
0000
0100
0010
0001
0010
0001
1000
0010
0000
0100
0001
0100
0010
1000
0001
,  // measure 14
0010
0000
0100
1000
0100
1000
0001
0100
0010
0000
0100
0010
0100
0001
0100
0010
,  // measure 15
1000
0000
0100
0010
0100
1000
0100
0010
0001
0000
0100
0010
1000
0001
0100
0010
,  // measure 16
1000
0000
0100
0010
0001
0010
0100
0010
0001
0000
1000
0010
1000
0100
0010
0001
,  // measure 17
1000
0000
0000
0000
1001
0000
0000
1000
0100
1000
0000
1000
0010
0000
1000
0000
,  // measure 18
1001
0000
0000
0000
0101
0000
0000
1000
0000
0100
0000
0010
0100
0000
1000
0000
,  // measure 19
0101
0000
0000
0000
0011
0000
0000
0010
0100
0010
0000
0010
0001
0000
1000
0000
,  // measure 20
1010
0000
0000
0000
0101
0000
0000
0010
0000
0100
0000
0010
0001
0000
1000
0000
,  // measure 21
0010
0000
0100
0000
0001
0100
0000
0100
0010
0000
0010
1000
0000
1000
0100
0000
,  // measure 22
0010
0000
0001
0000
0000
1001
0000
0000
0110
0000
0000
1010
0000
0000
0110
0000
,  // measure 23
0100
0000
0001
0000
0010
0100
0000
1000
0001
0000
0100
0010
0000
1000
0001
0000
,  // measure 24
0010
0000
0100
0000
0000
1100
0000
0000
0110
0000
0000
0011
0000
0000
1001
0000
,  // measure 25
0001
0000
0100
0000
1000
0100
0000
0100
0001
0000
0001
0100
0000
0100
0010
0000
,  // measure 26
1000
0000
0100
0000
0000
0011
0000
0000
0110
0000
0000
1001
0000
0000
0110
0000
,  // measure 27
0100
0000
0001
0000
1000
0100
0000
0010
0001
0000
1000
0100
0000
0010
0001
0000
,  // measure 28
0110
0000
0000
1001
0000
0000
0101
0000
0000
0000
0010
0000
1000
0000
0010
0000
,  // measure 29
0100
0000
0001
0000
1000
0000
0100
0000
0010
0000
0001
0010
0100
0010
0001
0010
,  // measure 30
0100
0000
1000
0000
0010
0100
0000
0100
0001
0000
0001
0010
0000
0010
0100
0000
,  // measure 31
1000
0000
0100
0000
0010
0000
0001
0000
1000
0000
0010
0100
0010
1000
0010
0100
,  // measure 32
0010
0000
1000
0000
0100
0010
0000
0001
1000
0000
0010
0100
0000
0001
0010
0000
,  // measure 33
0100
0000
0010
0000
0001
0000
0100
0000
0010
0000
0100
0010
1000
0010
0100
0010
,  // measure 34
1000
0000
0100
0000
0010
0001
0000
0100
0010
0000
1000
0100
0000
0010
0001
0000
,  // measure 35
1000
0000
0001
0000
0100
0000
1000
0000
0100
0000
0001
0100
0001
0100
0010
0100
,  // measure 36
0001
0000
1000
0000
0100
0010
0000
0010
0001
0000
0001
0010
0000
0010
0100
1000
,  // measure 37
0001
0000
0100
0010
0100
0001
0100
0010
1000
0000
0100
0010
0001
0010
0100
1000
,  // measure 38
0001
0000
0100
0010
1000
0010
0100
0001
0010
0000
0100
1000
0010
0100
0001
0010
,  // measure 39
0100
0000
1000
0010
0100
0001
0010
0100
1000
0000
0010
0100
0010
1000
0010
0100
,  // measure 40
0001
0000
0100
0010
1000
0100
0010
0100
1000
0000
0001
0100
0010
0100
0001
0010
,  // measure 41
0001
0000
0000
1100
0000
0000
0110
0000
0000
0011
0000
0000
1001
0000
0000
0000
,  // measure 42
0110
0000
0000
0101
0000
0000
0110
0000
0000
1010
0000
1000
0100
0010
0100
1000
,  // measure 43
0100
0000
0010
0001
0100
0000
0010
1000
0100
0000
0010
0001
0100
0001
0010
0000
,  // measure 44
0110
0000
0100
1000
0010
0000
0100
0001
0010
0000
0100
1000
0010
1000
0100
0000
,  // measure 45
0010
0000
0001
1000
0100
0000
0010
0001
1000
0000
0010
0000
0110
0000
0000
0000
,  // measure 46
2200
0000
3311
0000
2200
0000
0000
0001
,  // measure 47
0000
0010
3300
0000
0000
0000
0000
0000
0202
0000
0000
0000
0000
0000
0010
0000
,  // measure 48
0000
1000
0303
0000
0000
0000
0000
0000
0220
0000
0000
0000
0000
0000
1000
0000
,  // measure 49
0000
0000
0001
0000
0330
0000
0000
0000
0000
0000
0000
0000
0000
0000
0000
0000
1001
0000
0000
0000
0000
0000
0000
0000
1000
0001
1000
0000
0000
0000
0000
0000
,  // measure 50
0010
0000
1000
0000
0100
0000
0010
0000
0001
0000
1000
0100
0010
0100
1000
0100
,  // measure 51
0010
0000
0001
0000
0100
0010
0000
0010
1000
0000
1000
0100
0000
0100
0010
0000
,  // measure 52
0001
0000
1000
0000
0010
0000
0100
0000
0001
0000
0100
0010
0100
0001
0100
0010
,  // measure 53
1000
0000
0100
0000
0010
0001
0000
1000
0010
0000
1000
0100
0000
0010
0001
0000
,  // measure 54
1000
0000
0010
0000
0001
0000
0010
0000
1000
0000
0100
0010
0100
1000
0100
0010
,  // measure 55
0001
0000
0100
0000
0010
1000
0000
1000
0100
0000
0100
0001
0000
0001
0100
0000
,  // measure 56
1000
0000
0001
0000
0100
0000
0010
0000
1000
0000
0001
0100
0010
0100
0001
0010
,  // measure 57
0001
0000
1000
0000
0010
0100
0000
0001
1000
0000
0100
0010
0000
0001
1000
0100
,  // measure 58
0010
0000
0001
0000
0100
0000
0010
0000
1000
0000
0100
0010
0000
0010
0001
0000
,  // measure 59
0100
0000
1000
0000
0100
0000
0001
0000
0010
0000
0100
0010
0000
0010
0001
0000
,  // measure 60
0010
0000
0100
1000
0010
0000
0100
0001
0000
0001
0100
0000
0010
1000
0100
0000
,  // measure 61
0010
0000
0001
0000
1000
0000
0010
0000
0100
0001
0100
0000
0010
0000
1000
0000
,  // measure 62
0100
0000
0001
0000
0100
0000
1000
0000
0010
0000
0100
0010
0000
0010
0100
0000
,  // measure 63
0001
0000
1000
0000
0100
0000
0010
0000
0001
0000
0010
0100
0000
0100
0010
0000
,  // measure 64
0001
0000
1000
0010
0100
0000
0001
0100
0000
0100
0010
0000
0100
0001
0010
0000
,  // measure 65
0100
1000
0010
0100
1001
0000
1100
0000
,  // measure 66
0011
0000
0000
0000
;
