#TITLE:Dragostea Din Tei;
#SUBTITLE:(English Mix);
#ARTIST:Lucas Prata;
#TITLETRANSLIT:;
#SUBTITLETRANSLIT:;
#ARTISTTRANSLIT:;
#GENRE:Pop;
#CREDIT:;
#BANNER:Dragostea Din Tei-bn.png;
#BACKGROUND:Dragostea Din Tei-bg.png;
#LYRICSPATH:;
#CDTITLE:;
#MUSIC:Dragostea Din Tei.ogg;
#OFFSET:-1.301;
#SAMPLESTART:91.340;
#SAMPLELENGTH:11.840;
#SELECTABLE:YES;
#BPMS:0.000=137.010,143.000=68.500,151.000=137.000;
#STOPS:14.000=0.438
,165.000=0.438;
#BGCHANGES:-2.719=Dragostea Din Tei.mpg=1.000=1=0=0=StretchNoLoop==CrossFade==,
99999=-nosongbg-=1.000=0=0=0 // don't automatically add -songbackground-;
#KEYSOUNDS:;

//---------------dance-single - K. Ward----------------
#NOTES:
     dance-single:
     K. Ward:
     Easy:
     4:
     0.281,0.291,0.196,0.121,0.000,177.000,21.000,13.000,0.000,0.000,0.000,0.281,0.291,0.196,0.121,0.000,177.000,21.000,13.000,0.000,0.000,0.000:
0000
0000
0000
0000
,
0000
0000
0000
0000
,
0000
0000
0000
0000
,
1001
0110
1001
0100
,
0010
1000
1000
0001
,
0010
0001
0001
0100
,
0000
0100
1000
0010
,
0001
2000
0000
3100
,
0000
0010
0100
0100
,
0000
0010
0100
0001
,
0000
0010
0001
1000
,
0001
0000
0000
0100
,
0010
0000
0001
0010
0001
0000
0100
0000
,
0010
0000
1000
0100
1000
0000
0100
0000
,
0000
0010
0000
0011
,
0000
0000
0100
0200
,
0000
0300
1000
0100
,
0001
1000
0100
0010
,
0000
0000
0100
0110
,
0000
0000
0000
0000
0000
0000
0010
0001
,
0010
0000
0000
0000
0000
0000
1000
0100
,
1000
0000
0100
0020
,
0000
0030
0100
0100
,
1000
0001
0100
1100
,
0000
0000
0010
0101
,
0000
1001
0000
0100
,
1000
0010
0001
1000
,
1001
0000
0000
0100
,
1000
0001
1000
0001
,
0000
0000
0100
0010
0100
0000
2000
0000
,
3000
0000
0100
0010
0100
0000
0002
0000
,
0003
0010
0100
1000
,
0010
0010
0100
0001
,
0000
0001
1000
0100
,
0000
0100
0010
0110
,
1001
0000
0000
0200
,
0010
0320
1000
2030
,
0001
3001
0100
1100
,
0100
0001
0010
0100
,
0010
0100
0100
1000
,
0001
0100
0010
1001
,
0110
1001
0100
1000
,
0010
0001
1000
0000
,
0100
0010
0100
0000
0002
0000
0003
0000
,
0100
0010
0100
0000
2000
0000
3000
0000
,
0100
0001
0010
0100
,
0010
0001
0001
0000
,
1000
0100
1100
0000
,
0110
0000
1001
1001
,
0000
0000
0100
0010
,
1000
1000
0010
0100
,
0001
0001
0100
0010
,
1000
0100
0010
0010
,
0100
1000
0002
0000
,
0013
0100
2000
0000
,
3010
0001
0020
0000
,
0130
0010
0110
1001
;

//---------------dance-single - K. Ward----------------
#NOTES:
     dance-single:
     K. Ward:
     Medium:
     5:
     0.338,0.317,0.242,0.093,0.000,218.000,26.000,10.000,6.000,0.000,0.000,0.338,0.317,0.242,0.093,0.000,218.000,26.000,10.000,6.000,0.000,0.000:
0000
0000
0000
0000
,
0000
0000
0000
0000
,
0000
0000
0000
0000
,
0110
1100
0011
2000
,
3100
0002
0013
1001
,
0000
0000
0100
0010
1000
0000
1000
0000
,
0000
0000
0010
0100
0001
0000
0001
0000
,
0000
0000
0100
0010
0100
0000
0200
0000
,
1300
0020
0031
1001
,
0000
0000
0100
0010
1000
0000
1100
0000
,
0000
0100
1000
0010
,
0001
0000
0000
0000
0000
0000
1000
1000
,
1000
0000
0000
0000
0000
0000
0100
0100
,
0100
0000
0000
0000
0000
0000
0001
1000
,
0001
0000
0000
0000
0010
0101
0000
0000
,
0000
0000
0100
0010
1000
0010
0100
0000
,
0010
0000
1000
0100
1000
0000
0001
0000
,
1000
0000
0100
0010
0100
0010
0000
1001
,
0000
0000
0000
0000
0100
0010
0000
0011
,
0000
0000
0000
0000
0000
0000
1000
0100
,
1000
0000
1000
0000
0010
0000
0100
0001
,
0010
0000
0010
0000
0100
0020
0000
0000
,
0000
0030
0000
0000
0100
1000
0000
0010
,
0000
0001
0000
0010
0000
1001
0000
0000
,
0000
0000
0000
0100
0010
0000
1010
0000
,
0000
0000
0001
0010
0000
0001
0000
1000
,
0000
0001
0000
0100
0000
0100
0010
0100
,
1000
0000
0000
0000
0000
0000
0100
0001
,
0010
0010
0100
0010
,
0000
0000
1000
0100
1000
0100
1000
0000
,
0000
0000
0010
0100
0010
0100
0001
0010
,
0001
0000
1000
0000
0010
0000
0100
0001
,
0010
0010
0100
1100
,
0000
0000
0010
0001
0010
0000
0100
0000
,
0001
1000
0100
0110
,
0011
0000
0000
0200
,
1000
2300
0010
3020
,
0001
0032
1000
1003
,
1000
0001
0001
0100
,
0100
0000
0010
0000
0010
0000
1000
0100
,
1000
0000
0001
1000
0001
0000
1001
0000
,
0110
1001
0001
0001
,
1000
1000
0200
0300
,
0010
0001
0010
0001
0010
0000
0000
0000
,
0100
1000
0100
1000
0010
0100
0001
0000
,
0010
0100
1000
1100
,
0010
0011
1001
0000
,
0100
0010
0100
0000
0001
0000
0001
0000
,
1000
1000
0110
1001
,
0000
0000
0000
0000
0100
0001
0010
0000
,
0001
0000
0001
0000
0100
0010
1000
0000
,
1000
0000
0001
0000
0010
0100
1000
0000
,
1000
0000
0010
0000
0100
0010
0001
0000
,
0010
0100
1001
M00M
,
0100
0010
1100
MM00
,
0010
0100
0001
0000
0011
0000
00MM
0000
,
0001
1000
0001
0010
0000
1001
0000
0000
;

//---------------dance-double - M.Emirzian----------------
#NOTES:
     dance-double:
     M.Emirzian:
     Hard:
     8:
     0.538,0.505,0.177,0.009,0.056,384.000,19.000,1.000,10.000,0.000,0.000,0.538,0.505,0.177,0.009,0.056,384.000,19.000,1.000,10.000,0.000,0.000:
00000000
00000000
00000000
00000000
,
00000000
00000000
00000000
00000000
,
00100000
01000000
00010000
10000000
,
11000000
00110000
00101000
00000011
,
00001100
00000000
00000010
00001000
00000100
00001000
00000010
00000000
,
00000101
00000000
00000100
00000001
00000010
00000001
00000100
00000000
,
00001010
00000000
00000010
00001000
00000100
00010000
00001000
01000000
,
00010000
00000000
00100000
00010000
01000000
00010000
00100000
00000000
,
10010000
00000000
01000000
00100000
00001000
00010000
00000100
00000000
,
00001100
00000000
00000010
00000001
00000100
00000001
00000010
00000000
,
00001100
00000000
00000001
00000100
00001000
00000100
00000001
00000010
,
00000001
00000000
00000100
00000000
00000010
00000000
00001000
00000010
,
00000100
00000001
00000010
00000100
00001000
00000001
00001000
00000010
,
00001000
00000100
00010000
00001000
00100000
00010000
10000000
00100000
,
01000000
00100000
10000000
00010000
01000000
00010000
00100000
00001000
,
00010000
00100000
10000000
01000000
00100000
00010000
00100000
00001000
,
00010000
00000100
00010000
00001000
00010000
00000010
00001000
00000100
,
00000010
00000100
00001000
00000001
00000010
00000100
00001000
00000010
,
00000100
00000010
00001000
00000100
00000010
00000100
00010000
00001000
,
01000000
00010000
00000000
10010000
00000000
01000000
00100000
10000000
,
01000000
00100000
00001000
00010000
01000000
10000000
01000000
00100000
,
00010000
01000000
00100000
10000000
00100000
01000000
00001000
00010000
,
00000100
00001000
00000001
00000010
00000100
00000010
00000001
00000100
,
00001000
00000100
00000001
00001000
00000100
00000010
00000100
00001000
,
00000010
00001000
00000100
00010000
00001000
00010000
00100000
00010000
,
00001000
00010000
00000100
00010000
00001000
00010000
01000000
00010000
,
00001000
00000000
01000000
00000000
00001000
00000000
00010000
00000000
00100000
00000000
10000000
00000000
01000000
00000000
10000000
00010000
,
00000000
00000000
00010000
00100000
00000000
00000000
00100000
01000000
00000000
00000000
00000000
00000000
10000000
00000000
01000000
00000000
,
00100000
00010000
10000000
00100000
01000000
00100000
10000000
00010000
,
01000000
00100000
10000000
01000000
00010000
00001000
00000010
00000001
,
00000010
00000100
00001000
00000001
00000100
00001000
00010000
00100000
,
10000000
00000000
00010000
00100000
00001000
00010000
01000000
10000000
,
01000000
00100000
00010000
01000000
00100000
01000000
00010000
10000000
,
01000000
00100000
01000000
10000000
00010000
01000000
00001000
00010000
,
00000010
00001000
00000100
00000010
00000001
00000010
00000100
00000000
,
00001001
00000000
00000010
00001000
00000100
00001000
00000010
00000000
,
00001000
00000100
00010000
00001000
00000000
00000000
00000000
00000000
01000000
00010000
10000000
01000000
00000000
00000000
00000000
00000000
,
00001000
00000100
00000010
00000001
00000000
00001100
00000000
00000000
00000010
00010000
00001000
00010000
00000100
00000000
00000000
00000000
,
00010000
00000000
00001000
01000000
00001000
00010000
000M0000
00010000
,
00100000
00000000
10000000
00010000
10000000
01000000
0M000000
01000000
,
00010000
00000000
00001000
00010000
00000100
00001000
00000000
00010100
,
00000000
00000000
00001001
00000000
00000010
00001000
00000001
00000010
,
00000001
00001000
00000100
00001000
00000010
00001000
00000001
00000010
,
00000001
00000100
00001000
00010000
00100000
10000000
00010000
00100000
,
01000000
10000000
01000000
00010000
00001000
00000010
00000001
00000000
,
00001000
00000010
00000100
00000001
00001000
00000100
00000010
00000100
,
00001000
00000010
00000100
00001000
00010000
00000100
00010000
00001000
,
00100000
00010000
10000000
00100000
01000000
00000000
M00M0000
00000000
,
10010000
00000000
00011000
00001001
,
00000010
00000100
00001000
00000001
0000000M
00000001
00000100
00001000
,
00000100
00000001
00000010
00000100
00000M00
00000100
00010000
00001000
,
01000000
00001000
00010000
00100000
00M00000
00100000
10000000
00010000
,
00100000
01000000
00100000
00010000
00000000
11000000
00000000
00100000
,
10000000
01000000
10000000
00100000
00M00000
00100000
01000000
00010000
,
00100000
00001000
00010000
00000100
00000M00
00000100
00000010
00000100
,
00001000
00000001
00000100
00001000
0000M000
00001000
00000100
00000001
,
00000100
00001000
00010000
00001000
00000000
00010000
00002000
00000000
,
00003000
00000000
00000000
00000000
;

//---------------dance-double - M.Emirzian----------------
#NOTES:
     dance-double:
     M.Emirzian:
     Challenge:
     10:
     0.555,0.506,0.242,0.019,0.061,389.000,26.000,2.000,8.000,0.000,0.000,0.555,0.506,0.242,0.019,0.061,389.000,26.000,2.000,8.000,0.000,0.000:
00000000
00000000
00000000
00000000
,
00000000
00000000
00000000
00000000
,
01001000
10010000
00101000
00010010
,
00001001
00010100
00000101
00001010
,
00010010
00000000
00010000
00000100
00010000
00100000
00010000
00000000
,
01001000
00000000
00100000
00010000
00001000
00000010
00000100
00000000
,
00010010
00000000
00000100
00001000
00010000
00001000
00000010
00001000
,
00010000
00000000
00100000
00010000
00001000
00010000
01000000
00000000
,
00101000
00000000
01000000
00100000
00010000
00001000
00000100
00000000
,
00010010
00000000
00001000
00000100
00001000
00010000
01000000
00000000
,
00101000
00000000
10000000
00100000
00010000
00000100
00000001
00000100
,
00001000
00000000
00000001
00000100
00000001
00001000
00000100
00000010
,
00000100
00010000
00001000
00000010
00001000
00010000
00100000
00010000
,
00001000
01000000
00100000
00010000
01000000
00010000
00001000
00100000
,
01000000
10000000
01000000
00010000
00100000
00010000
00001000
00010000
,
00000010
00000001
00000010
00001000
00000001
00000100
00001000
00000010
,
00001000
00100000
00001000
00000010
00001000
00010000
00100000
10000000
,
00100000
00010000
01000000
00010000
00000100
00010000
01000000
00010000
,
00001000
01000000
00100000
01000000
00000100
00000010
00001000
00100000
,
00001000
00000100
00000000
00001001
00000000
00000010
00000100
00000010
,
00000001
00010000
00001000
10000000
00100000
01000000
00000100
00000010
,
00000100
00010000
00001000
00100000
01000000
10000000
00001000
00010000
,
00000001
00000100
00000010
00010000
00000100
00010000
00100000
01000000
,
00001000
00100000
01000000
10000000
00001000
01000000
00100000
01000000
,
00000100
00000010
00000100
00010000
00000010
00000100
00000001
00010000
,
00000100
00000010
00000100
01000000
00100000
01000000
00001000
10000000
,
01000000
00000000
00100000
00000000
00000100
00000000
00000010
00000000
00000001
00000000
00001000
00000000
00000010
00000000
00000100
00000001
,
00000000
00000000
00000001
00000010
00000000
00000000
00000010
00000100
00000000
00000000
00000100
00001000
00000010
00000000
00001000
00000000
,
00000100
00010000
00100000
00010000
00001000
01000000
10000000
01000000
,
00010000
10000000
01000000
00010000
00000010
00000001
00000010
00001000
,
00000001
00000010
00000100
00010000
00100000
00010000
00000100
01000000
,
10000000
00000000
01000000
00010000
10000000
01000000
00100000
00001000
,
01000000
00001000
00000010
00001000
00000100
00001000
01000000
00001000
,
00000100
00000001
00010000
00000001
00000100
00001000
00100000
01000000
,
00010000
00100000
00010000
00000010
00010000
00100000
10000000
00000000
,
01010000
00000000
10000000
01000000
00100000
00010000
00100000
00000000
,
00001000
01000000
00001000
00010000
00000000
00000000
00000000
00000000
00000100
00010000
00001000
00100000
00000000
00000000
00000000
00000000
,
00000010
00010000
00001000
01000000
00000000
00011000
00000000
00000000
00100000
00001000
00010000
00000100
00001000
00000000
00000000
00000000
,
00000110
00000000
00000001
00000010
00000100
00001000
00000000
01000000
,
10000000
00000000
00010000
01000000
00100000
10000000
00000000
00000010
,
00000100
00000000
00000001
00000010
00000100
00001000
00000000
01010000
,
00000000
10010000
10100000
00000000
00000010
00000001
00001000
00000010
,
00010000
00100000
00010000
00000100
00000010
00000100
00010000
00000001
,
00000100
00001000
01000000
10000000
01000000
00010000
10000000
01000000
,
00100000
00001000
00000100
00001000
00100000
00000010
00000001
00000000
,
00000010
00000100
00001000
00100000
01000000
10000000
00100000
01000000
,
00000010
00000100
00000001
00000010
00000100
00100000
01000000
10000000
,
00100000
01000000
00000100
00000010
00000001
00000000
0000MMMM
00000000
,
00001100
0000MM00
00010100
01001000
,
10000000
00100000
01000000
00010000
00000000
00000100
00000010
00000001
,
00000010
00010000
00100000
00010000
00000000
10000000
01000000
00001000
,
00010000
01000000
00010000
00001000
00000000
00000001
00000100
00010000
,
00001000
00000100
00001000
01000000
00000000
00110000
00000000
00100000
,
10000000
00001000
00010000
10000000
00000000
00010000
00001000
00000001
,
00000100
00001000
00000001
00000100
00000000
00000010
00010000
00001000
,
00000010
00001000
00000100
00001000
00000000
00010000
00100000
00010000
,
01000000
00010000
00001000
01000000
00000000
00100000
20020000
00000000
,
30030000
M00M0000
00000000
00000000
00000000
00000000
00000000
00000000
;

//---------------dance-single - R. McKanna----------------
#NOTES:
     dance-single:
     R. McKanna:
     Hard:
     8:
     0.418,0.581,0.205,0.168,0.047,274.000,22.000,18.000,0.000,0.000,0.000,0.418,0.581,0.205,0.168,0.047,274.000,22.000,18.000,0.000,0.000,0.000:
0000
0000
0000
0000
,
0000
0000
0000
0000
,
0000
0000
0000
0000
,
0000
0000
0000
0001
,
0001
0000
0001
0010
0001
1000
0100
0000
,
0000
0000
0100
0010
0001
0100
1000
0000
,
0100
0000
0001
0010
1000
0010
1000
0010
,
0100
0000
0001
0010
0001
0100
0001
0000
,
1001
0000
1000
0010
1000
0001
0100
0000
,
0000
0000
0100
0010
1000
0100
0001
0000
,
0100
0000
1000
0010
0001
0010
0001
0010
,
0100
0000
0000
0000
0001
1000
0010
0000
,
0010
0000
0100
0000
0001
1000
0010
0000
,
0010
0000
0100
0000
1000
0001
0010
0000
,
0010
0000
0100
0000
1000
0001
0010
0000
,
0010
0000
0100
0010
0100
1000
0000
0000
,
0000
0000
0000
1001
0000
0101
0000
0011
,
0000
1100
0000
0000
0001
1000
0000
1000
,
0000
0000
0000
0000
1000
0001
0000
0001
,
0000
0000
0101
0000
0100
0001
1000
0000
,
1000
0000
0010
0100
0001
0010
0001
0000
,
0001
0000
1100
0000
0100
1000
0001
0000
,
0001
0000
0100
0010
1000
0100
0000
0100
,
0000
1000
0000
0001
0000
1001
0000
0000
,
0000
0000
0000
1000
0010
0100
0001
0000
,
0000
0000
0001
0100
0010
2000
0000
0100
,
3000
0002
0000
0100
0003
1000
0000
0100
,
0010
1001
0110
1001
,
0001
0000
0001
0010
0100
0010
1000
0000
,
0100
0000
1000
0100
0010
0100
0001
0000
,
0010
0000
0001
0010
0100
0010
1000
0010
,
0001
0011
0110
1100
,
0100
0000
0001
0100
0010
0100
1000
0000
,
0010
0000
0001
0000
0100
0020
0000
0000
,
1030
0200
0000
0000
0310
0000
0000
0000
,
0003
0000
0010
0100
1000
0002
0000
0003
,
0100
0001
0010
0200
0000
0000
0300
0000
0010
0100
1000
0020
0000
0000
0030
0000
,
0100
0001
0010
0100
0000
1001
0000
0000
0001
0010
0100
2000
0010
0000
0000
0000
,
0100
0000
3010
0100
0001
2000
0010
0000
,
0100
0000
3001
0100
0010
2000
0001
0000
,
0100
0000
3010
0100
0001
0010
0000
1001
,
0000
0000
0100
0010
0100
0000
0000
0000
1001
0000
0000
0000
1000
0000
0000
0000
,
1000
0100
0010
0100
0001
0000
0010
0000
,
0001
0010
0100
0010
1000
0000
0100
0000
,
1000
0100
0010
0100
0001
0100
1000
0000
,
1100
1001
0011
0010
,
1000
0010
0100
0010
0001
0000
0100
0000
,
1000
0000
0010
0200
0000
0000
0301
0020
,
0000
0130
0000
3000
,
0001
0100
0100
0020
0000
0000
0030
0000
,
1000
0100
0100
0020
0000
0000
0030
0000
,
0001
0010
0010
0200
0000
0000
0300
0000
,
1000
0010
0010
0100
0000
1001
0000
0000
,
0001
1000
0100
0020
0000
0001
0031
0000
,
1000
0001
0010
0200
0000
1000
1300
0000
,
0010
1000
0100
0020
0000
0001
0031
0000
,
0001
1000
0100
0001
0000
0110
0000
0000
;

//---------------dance-single - K. Ward----------------
#NOTES:
     dance-single:
     K. Ward:
     Beginner:
     1:
     0.099,0.132,0.056,0.000,0.000,68.000,6.000,0.000,0.000,0.000,0.000,0.099,0.132,0.056,0.000,0.000,68.000,6.000,0.000,0.000,0.000,0.000:
0000
0000
0000
0000
,
0000
0000
0000
0000
,
0000
0000
0000
0000
,
0000
0000
0000
1000
,
0000
0000
0000
0001
,
0000
0000
0000
0010
,
0000
0000
0000
0001
,
0000
0000
0000
0001
,
0000
1000
0000
1000
,
0000
0000
0000
0100
,
0000
0010
0000
1001
,
0000
0000
0000
0100
,
0000
0000
0000
1000
,
0000
0000
0000
0010
,
0000
0000
0000
0001
,
0000
0000
0000
0100
,
0000
0000
0000
0010
,
0000
0010
0000
0010
,
0000
0000
0000
0100
,
0000
0000
0000
0001
,
0000
0000
0000
1000
,
0000
0000
0000
0100
,
0000
0000
0000
0010
,
0000
0100
0000
1000
,
0000
0000
0000
0001
,
0000
0000
0000
0100
,
0000
0100
0000
0100
,
0000
0000
0000
0010
,
0000
0000
0000
1000
,
0000
0000
0000
0001
,
0000
0000
0000
1000
,
0000
0000
0000
0010
,
0000
0100
0000
0010
,
0000
0000
0000
1000
,
0000
0001
0000
1000
,
0000
0000
0000
0100
,
0000
1000
0000
0010
,
0000
0001
0000
1001
,
0000
0000
0000
0100
,
0000
0000
0000
0010
,
0000
0000
0000
1001
,
0000
0000
1000
0000
,
0001
0000
1000
0000
,
0010
0000
0000
0000
,
0100
0000
0000
0000
,
0001
0000
0001
0000
,
1000
0000
0001
0000
,
0000
0000
1001
0000
,
1001
0000
1001
0000
,
0000
0000
1000
0000
,
0000
0000
0001
0000
,
0000
0000
0010
0000
,
0000
0000
0001
0000
,
0000
0000
0001
0000
,
0000
0000
1000
0000
,
0000
0000
0100
0000
,
0000
0000
1000
1000
;

//---------------dance-single - D. Runberg----------------
#NOTES:
     dance-single:
     D. Runberg:
     Challenge:
     9:
     0.694,0.689,0.410,0.336,0.261,441.000,44.000,36.000,50.000,0.000,0.000,0.694,0.689,0.410,0.336,0.261,441.000,44.000,36.000,50.000,0.000,0.000: // measure 1
0000
0000
0000
0000
,  // measure 2
0000
0000
0000
0000
,  // measure 3
0000
0000
0000
0000
,  // measure 4
1001
0000
1001
0000
200M
0000
3001
0100
,  // measure 5
0001
0000
0010
0000
0100
0000
1000
0100
0010
0000
0001
0000
2000
0000
0010
0000
,  // measure 6
3010
00M0
2000
0001
3001
0010
0200
M000
,  // measure 7
1300
0010
0001
0010
1000
0001
0020
0100
,  // measure 8
0130
0M00
1000
0010
0100
0010
1MM1
0000
,  // measure 9
MM11
0000
0000
0000
0010
0000
0001
0100
0010
0000
1000
0000
0002
M000
0000
0000
,  // measure 10
1003
0000
0100
0000
0010
0000
0001
0100
0010
0000
1000
0000
0200
M000
0000
0000
,  // measure 11
1300
0000
0100
0000
0010
0000
0001
0010
0001
0000
0010
0000
0001
1000
0001
0000
,  // measure 12
0200
00M0
0000
0000
0310
0000
0010
0000
0010
0000
1000
0000
2001
0000
0010
0000
,  // measure 13
0001
0001
0100
0001
3001
M000
0102
0010
,  // measure 14
0100
0100
1000
0100
0103
000M
1020
0100
,  // measure 15
1000
1000
0100
1000
1030
11M0
0000
0001
,  // measure 16
0100
0110
0000
0M20
1000
1030
0001
0010
,  // measure 17
0100
0010
0001
0000
1000
0010
0001
0010
,  // measure 18
1000
0100
0M20
0000
0031
020M
0000
0310
,  // measure 19
1000
0001
0010
0100
0100
1000
0002
0103
,  // measure 20
0100
0010
1000
0MM0
0021
0031
1001
1000
,  // measure 21
0010
0100
0001
0020
0100
0130
1000
0001
,  // measure 22
0100
1000
0100
0001
0010
0200
00M0
1000
,  // measure 23
M000
0310
0001
1000
0001
M1M1
0000
1MM1
,  // measure 24
1000
0100
0010
0000
0001
0000
020M
0000
0000
0000
0310
0000
0100
0000
0001
0000
,  // measure 25
1000
0200
0000
0310
0010
0001
1000
0010
,  // measure 26
0100
0000
0000
0001
0100
0000
0001
0000
0010
0000
0220
0000
0300
0000
0130
0000
,  // measure 27
1000
0010
0200
00M0
0301
0100
0010
0110
,  // measure 28
1010
0000
0MM0
0000
2000
0000
0000
0000
3001
0000
0010
0100
1000
0000
0001
0000
,  // measure 29
0100
0000
0001
0000
0010
0100
0010
0000
0100
1000
0100
0000
1100
0000
1000
0000
,  // measure 30
0001
0000
0100
0000
0010
1000
0010
0000
0100
0010
0100
0000
0101
0000
0001
0000
,  // measure 31
1000
0000
0100
0000
1000
0100
1000
0000
0001
0100
0001
0000
1000
0010
0100
0000
,  // measure 32
1001
0000
0001
0010
0110
0100
1100
1000
,  // measure 33
0010
0000
0100
0000
0001
0100
0010
0000
0100
0001
0010
0000
0001
0000
0010
0000
,  // measure 34
0100
0000
1000
0000
0010
0000
0000
0100
0001
0000
0010
0000
010M
0000
0000
0010
,  // measure 35
0100
0000
1000
0000
0M01
0000
0000
1000
0010
0000
0100
0000
0101
0000
0001
0000
,  // measure 36
1001
0000
2000
0000
0100
0100
3100
0010
,  // measure 37
00M2
0000
0100
0100
0103
0000
001M
0000
2M00
0000
0001
0001
3001
0000
0M10
0000
,  // measure 38
0200
0000
1300
11MM
0000
1MM1
0000
0001
0100
0000
0001
1000
0100
0000
1000
0100
,  // measure 39
1000
0000
0100
0010
0100
0000
0010
0001
0010
0000
0001
1000
0001
0000
1000
0010
,  // measure 40
0100
0000
0010
0100
0001
0000
0100
0001
1000
0000
0001
0010
0100
0000
0010
0100
,  // measure 41
1000
0000
0001
1000
0010
0000
1000
0010
0100
0000
0010
0100
0001
0100
0010
1000
,  // measure 42
0100
0010
0001
1000
0020
MM0M
0030
0000
0100
0000
0001
0000
0100
0000
0010
0000
,  // measure 43
1000
0001
0100
0000
0001
0100
0001
0000
0101
0000
0100
0000
0010
0000
1000
0000
,  // measure 44
0100
0010
0001
0000
0010
0100
1000
0000
1001
0000
0001
0000
1000
0000
0010
0000
,  // measure 45
0100
0001
0010
0000
0001
0010
0100
0000
1000
0010
0100
0000
0101
0000
0000
0000
,  // measure 46
0100
0010
1000
0100
0011
0001
0100
0010
,  // measure 47
0100
0010
1000
0001
0010
0100
1000
0100
,  // measure 48
0001
0100
1000
0010
0110
0100
0001
1000
,  // measure 49
1100
0100
0010
0001
0101
0100
0110
0000
,  // measure 50
2010
0000
0100
0000
0001
0000
0001
0000
3001
0000
1000
0100
1000
0000
0100
0000
,  // measure 51
0210
0000
1000
0000
0010
0000
0010
0000
0310
0000
0001
0100
0010
0000
0100
0000
,  // measure 52
0210
0000
0001
0000
0010
0000
0010
0000
0310
0000
1000
0100
0010
0000
0100
0000
,  // measure 53
2100
0100
3001
M1M1
0000
M1M1
0000
0100
,  // measure 54
0010
0010
1000
0100
0210
1000
1000
1300
,  // measure 55
0100
0010
0001
1000
1020
0100
0100
0130
,  // measure 56
0010
1000
0001
0010
0012
1000
1000
1003
,  // measure 57
0010
0100
0001
001M
0011
00M1
1001
M00M
;

//---------------dance-double - J. Frederick----------------
#NOTES:
     dance-double:
     J. Frederick:
     Easy:
     2:
     0.198,0.264,0.186,0.056,0.000,123.000,20.000,6.000,0.000,0.000,0.000,0.198,0.264,0.186,0.056,0.000,123.000,20.000,6.000,0.000,0.000,0.000:
00000000
00000000
00000000
00000000
,
00000000
00000000
00000000
00000000
,
00000000
00000000
00000000
00000000
,
00011000
00011000
00011000
10000000
,
00000000
01000000
00000000
00100000
,
00000000
00010000
00000000
01000000
,
00000000
00010000
00000000
00001000
,
00000000
00000100
00000000
00001100
,
00000000
00000001
00000000
00000010
,
00000000
00000001
00000000
00001000
,
00000000
00000010
00000000
00000100
,
00000100
00000000
00000000
00000001
,
00000000
00001000
00000000
00000010
,
00000000
00001000
00000000
00010000
,
00000000
00100000
00000000
01000000
,
00000000
10000000
00000000
00100000
,
00000000
00010000
00000000
01000000
,
00000000
00010000
00000000
00100000
,
00100000
00000000
00010000
00010000
,
00010000
00000000
10000000
10000000
,
00000000
01000000
00000000
00100000
,
00000000
00010000
00000000
00001000
,
00000000
00010000
00000000
00001000
,
00000000
00000100
00000000
00001001
,
00000000
00000010
00000000
00000100
,
00000000
00000001
00000000
00000010
,
00000000
00001000
00000000
00001001
,
00001001
00002002
00003003
00000001
,
00000000
00000100
00000000
00000020
,
00000030
00001000
00001000
00002000
,
00003000
00010000
00010000
00020000
,
00030000
00010000
00000000
00110000
,
00000000
00010000
00010000
00020000
,
00030000
01000000
00000000
01100000
,
00000000
10010000
00000000
01100000
,
00000000
10000000
00000000
00010000
,
01000000
00010000
00100000
00010000
,
00001000
00000001
00000100
00000010
,
00000000
00001000
00000000
00000001
,
00000000
00000100
00000000
00000010
,
00000000
00001000
00000000
00011000
,
00011000
00011000
00001000
00000000
,
00000100
00000000
00000001
00000000
,
00000010
00000000
00001000
00000000
,
00010000
00010000
00010000
00000000
,
00100000
00000000
01100000
00000000
,
10000000
00000000
01000000
00000000
,
00010000
00000000
00011000
00000000
,
10010000
00000000
00011000
00000000
,
00001000
00000000
00000001
00000000
,
00000100
00000000
00000010
00000000
,
00001000
00000000
00000001
00000000
,
00000100
00000000
00000010
00000010
,
00001000
00000000
00010000
00000000
,
00100000
00000000
01000000
00000000
,
10000000
00000000
01000000
00000000
,
00100000
00000000
00000000
10010000
;

//---------------dance-double - J. Frederick----------------
#NOTES:
     dance-double:
     J. Frederick:
     Medium:
     5:
     0.377,0.449,0.289,0.019,0.000,250.000,31.000,2.000,0.000,0.000,0.000,0.377,0.449,0.289,0.019,0.000,250.000,31.000,2.000,0.000,0.000,0.000:
00000000
00000000
00000000
00000000
,
00000000
00000000
00000000
00000000
,
00000000
00000000
00000000
00000000
,
10010000
00011000
00001001
00000001
,
00000100
00000000
00000001
00000100
00000001
00000000
00000010
00000000
,
00001000
00000000
00000010
00001000
00000010
00000000
00000010
00000000
,
00001000
00000000
00000001
00000100
00000001
00000000
00000010
00000000
,
00001000
00010000
00011000
00010000
,
00100000
00000000
00010000
00100000
00010000
00000000
10000000
00000000
,
01000000
00000000
00100000
00010000
00100000
00000000
01000000
00000000
,
10000000
00000000
00010000
10000000
00010000
10000000
00010000
10000000
,
00010000
00000000
00100000
10000000
,
01000000
00000000
00100000
00000000
00010000
00001000
00000001
00000000
,
00000100
00000000
00000010
00000000
00001000
00000010
00001000
00000000
,
00000100
00000000
00000001
00000000
00000010
00000001
00000100
00000000
,
00000010
00000000
00001000
00000000
00000001
00000100
00000010
00000000
,
00001000
00000000
00010000
00000000
00001000
00010000
00000000
00001000
,
00000000
00100000
00000000
00000000
10000000
01000000
00000000
00100000
,
00000000
00000000
00000000
00000000
00010000
00001000
00000000
00000010
,
00000000
00000001
00000100
00000101
,
00000001
00000000
00000100
00000001
00000100
00000000
00000010
00000000
,
00001000
00000000
00000001
00001000
00000001
00000000
00000010
00000000
,
00000100
00000000
00000010
00001000
00000010
00001000
00000000
00000001
,
00000000
00000100
00000000
00000010
00000000
00001000
00000000
00000000
,
00000000
00000000
00000000
00010000
00100000
00010000
10000000
00000000
,
00000000
00000000
01000000
00100000
00000000
00010000
00000000
10000000
,
00000000
01000000
00000000
00100000
00000000
00010000
00000000
00001000
,
00010000
00001000
00000001
00000100
,
00000101
00000000
00000001
00000010
00000001
00000100
00000010
00000000
,
00001000
00000000
00000010
00001000
00001000
00000000
00000010
00000000
,
00001010
00000000
00000001
00000100
00000100
00000000
00000001
00000000
,
00000101
00000010
00010000
00011000
,
00010000
00000000
00100000
00010000
00010000
00000000
10000000
00000000
,
00100000
00000000
10000000
01000000
01000000
00000000
00110000
00000000
,
01000000
11000000
00100000
10010000
,
10000000
00010000
00001000
00000001
,
00000100
00000001
00000020
00000030
00001000
00000100
00000002
00000003
,
00000010
00001000
00011000
00011000
00010000
00001000
00100000
00000000
,
10000000
01000000
00100000
00010000
,
00001000
00000010
00000001
00000100
,
00000001
00001000
00000001
00001001
,
00011000
10010000
10000000
01000000
,
00100000
01000000
10000000
00000000
00010000
00000000
00100000
00000000
,
00010000
00100000
00010000
00000000
00100000
00000000
10000000
00000000
,
01000000
10000000
01000000
00000000
00010000
01000000
00010000
00000000
,
00011000
00000001
00000100
00000001
,
00000010
00000001
00000010
00000000
00000001
00000000
00000100
00000000
,
00000010
00001000
00000000
00000010
00001010
00000000
00000000
00000000
,
00001001
00000000
00000101
00001001
,
00001010
00001001
00000011
00000001
,
00000100
00000001
00000001
00000000
00000101
00000000
00001001
00000000
,
00000000
00001010
00000010
00000000
00001010
00000000
00001000
00000000
,
00010000
00001000
00010000
00000000
00001000
00000000
00110000
00000000
,
10000000
01000000
10000000
00000000
00100000
00000000
00010000
00000000
,
10000000
01000000
10000000
00000000
00100000
00000000
00010000
00000000
,
01000000
00010000
01000000
00000000
00001000
00000000
00000010
00000000
,
00001000
00000001
00000100
00000001
00000000
00000101
00000000
00000000
;
