#TITLE:Coming Out;
#SUBTITLE:;
#ARTIST:Playmaker feat. Robin;
#TITLETRANSLIT:;
#SUBTITLETRANSLIT:;
#ARTISTTRANSLIT:;
#GENRE:RnB;
#CREDIT:;
#BANNER:Coming out-bn.png;
#BACKGROUND:Coming Out-bg.png;
#LYRICSPATH:;
#CDTITLE:;
#MUSIC:Coming Out.ogg;
#OFFSET:-0.029;
#SAMPLESTART:42.900;
#SAMPLELENGTH:11.860;
#SELECTABLE:YES;
#BPMS:0.000=130.000;
#STOPS:;
#BGCHANGES:0.068=Coming Out.mpg=1.000=1=0=0=StretchNoLoop==CrossFade==,
99999=-nosongbg-=1.000=0=0=0 // don't automatically add -songbackground-;
#KEYSOUNDS:;

//---------------dance-single - D. D'Amato----------------
#NOTES:
     dance-single:
     D. D'Amato:
     Challenge:
     9:
     0.499,0.426,0.261,0.084,0.042,337.000,28.000,9.000,4.000,0.000,0.000,0.499,0.426,0.261,0.084,0.042,337.000,28.000,9.000,4.000,0.000,0.000: // measure 1
0000
0000
0000
0000
,  // measure 2
0000
0000
0000
0000
,  // measure 3
0000
0000
0000
0000
,  // measure 4
0000
0000
0000
0000
,  // measure 5
1000
0000
0100
0000
0000
0000
0000
0010
0001
0000
0100
0000
0000
0000
0000
0010
,  // measure 6
1000
0000
0100
0000
0000
0000
0000
0010
0001
0000
0100
0000
0001
1000
0000
0010
,  // measure 7
1000
0000
0100
0000
0000
0000
0000
0010
0001
0000
0100
0000
0010
0000
0000
0010
,  // measure 8
1000
0100
0010
0100
0010
0100
0010
0002
,  // measure 9
0000
0103
0010
1000
0020
0000
1030
0100
,  // measure 10
0000
0110
0000
0010
0001
0100
0010
2000
,  // measure 11
0000
3100
0010
0001
0010
0010
0001
0100
,  // measure 12
0000
0110
0000
0010
1000
0100
0010
0001
,  // measure 13
1000
0100
0000
0011
0000
1000
0001
0100
,  // measure 14
0000
1010
0000
0110
0000
0101
0000
0010
,  // measure 15
1000
0001
0010
0100
0000
1000
0010
0100
,  // measure 16
0000
0010
1000
0100
0000
0010
0001
0100
,  // measure 17
1010
0001
0100
0001
0100
0010
1000
0001
,  // measure 18
0010
0100
1000
0000
0010
0100
0001
0100
,  // measure 19
0010
1000
0100
1000
0100
0010
0001
1000
,  // measure 20
0010
0100
0001
0000
0010
0100
0010
0010
,  // measure 21
0001
0000
0010
1000
0010
0001
0100
1000
,  // measure 22
0000
1100
0000
0110
0000
0100
0010
0001
,  // measure 23
0010
1000
0100
0001
0000
0101
0000
0110
,  // measure 24
0000
0100
0010
0001
1000
0010
0100
0020
,  // measure 25
1000
0000
0100
0000
1030
0001
0010
0001
,  // measure 26
0000
1000
0010
1000
0000
0110
0000
0001
,  // measure 27
0010
0001
1000
0010
1000
0100
0001
0000
,  // measure 28
1100
0000
0010
1000
0001
0010
0100
0020
,  // measure 29
0001
0000
0100
0000
0031
1000
0100
1000
,  // measure 30
0000
0001
0100
0001
0000
0110
0000
1000
,  // measure 31
0100
1000
0001
0100
0001
0MM0
1000
0100
,  // measure 32
0001
0000
1100
0000
0010
0001
0100
0000
,  // measure 33
0001
1000
0010
1000
0001
0100
1000
0000
,  // measure 34
0101
0000
0010
0001
0100
1000
0000
0100
,  // measure 35
0001
1000
0010
0100
0001
0100
1000
0000
,  // measure 36
0110
0000
1001
0000
0010
1000
0100
0010
,  // measure 37
0002
0000
1003
0100
1000
0010
0000
0100
,  // measure 38
0001
0000
1000
0000
0100
0000
0000
0000
1000
0000
0000
0010
0000
0000
0100
0000
,  // measure 39
0010
0000
0000
0000
1000
0000
0000
0000
0001
0000
0000
0010
0000
0000
0100
0000
,  // measure 40
0010
0001
1000
0010
2000
0000
3001
0100
,  // measure 41
0001
0010
0001
1000
0001
0010
0100
0020
,  // measure 42
0001
0000
0100
0000
0031
1000
0010
1000
,  // measure 43
0000
0001
0010
0001
0000
0110
0000
1000
,  // measure 44
0010
1000
0001
0010
0001
0100
1000
0000
,  // measure 45
0101
0000
0010
0001
1000
0010
0100
0020
,  // measure 46
1000
0000
0100
0000
1030
0001
0100
0001
,  // measure 47
0000
1000
0100
1000
0000
0110
0000
0001
,  // measure 48
0100
0001
1000
0100
1000
0MM0
0001
0100
,  // measure 49
1000
0000
0101
0000
0010
1000
0100
0000
,  // measure 50
1000
0001
0010
0001
1000
0100
0001
0000
,  // measure 51
1100
0000
0010
1000
0100
0001
0000
0100
,  // measure 52
1000
0001
0010
0100
1000
0100
0001
0000
,  // measure 53
0110
0000
1001
0000
0010
0001
0100
0000
,  // measure 54
0001
1000
0100
1000
0001
0010
1000
0000
,  // measure 55
0011
0000
0100
0001
0010
1000
0000
0010
,  // measure 56
0001
0100
1000
0100
0001
0010
1000
0000
,  // measure 57
0110
0000
1001
0000
1000
0010
0001
0000
,  // measure 58
0100
0000
0000
0000
;

//---------------dance-single - D. D'Amato----------------
#NOTES:
     dance-single:
     D. D'Amato:
     Hard:
     7:
     0.417,0.399,0.149,0.112,0.009,285.000,16.000,12.000,0.000,0.000,0.000,0.417,0.399,0.149,0.112,0.009,285.000,16.000,12.000,0.000,0.000,0.000:
0000
0000
0000
0000
,
0000
0000
0000
0000
,
0000
0000
0000
0000
,
0000
0000
0000
0000
,
0010
0100
0000
0010
0010
1000
0000
0001
,
0001
0100
0000
0010
0010
1000
0100
0010
,
0010
0001
0000
1000
1000
0100
0000
0010
,
0010
0001
0000
0101
0000
1010
0000
0200
,
0000
0000
0310
1000
0001
0000
0010
0100
,
1000
0001
0000
0010
0000
0100
0000
0020
,
0000
0000
0130
1000
0010
0100
0001
0010
,
0000
0100
0000
1000
0000
0100
0000
0010
,
0001
1000
0000
0001
0000
0100
0001
1000
,
0000
0001
0000
1000
0000
0110
0000
0001
,
1000
0001
0100
0001
0000
1000
0010
1000
,
0000
0010
0000
0100
0000
0001
0010
0000
,
0110
0000
0100
1000
0100
0010
0000
0001
,
0010
0100
0010
0000
0001
0000
0100
0000
,
0010
1000
0010
0000
0100
0001
0100
0010
,
0100
0000
0001
0000
0010
0000
0100
0100
,
1000
0000
0010
1000
0010
0100
0001
0100
,
0000
0010
0000
1000
0000
0100
1000
0100
,
0010
0001
0000
0101
0000
1010
0000
0200
,
0000
0000
0310
1000
0100
0010
0000
0120
,
0000
0000
0000
0000
0000
0031
1000
0100
,
0000
1000
0000
0010
0000
1000
0000
0001
,
0001
1000
1000
0001
1000
0010
0100
0000
,
0001
0000
0010
0001
0100
0010
0000
0120
,
0000
0000
0000
0000
0000
0030
1000
0100
,
0000
0010
0000
0100
0000
1000
0000
0002
,
0000
0103
0010
0100
0001
0000
1000
0100
,
0020
0100
0001
0130
,
1001
0001
0010
0001
1000
0100
1000
0000
,
0010
0100
0000
0001
0100
0001
0000
0010
,
0100
1000
0010
1000
0001
0100
0001
0000
,
0110
0000
1000
0000
0001
0000
0100
0010
,
0100
0000
0000
0010
1000
0010
0000
0100
,
0001
0000
0000
0000
0100
0000
0000
0000
0010
0000
0000
0010
0000
0000
0010
0000
,
1000
0000
0000
0000
0001
0000
0000
0000
0100
0000
0000
0100
0000
0000
0100
0000
,
0001
0100
0010
0100
0002
0000
1003
0100
,
0000
0000
0010
0001
0100
0010
0000
0120
,
0000
0000
0000
0000
0000
1030
0001
0100
,
0000
0001
0000
0010
0000
0001
0000
1000
,
1000
0001
0001
1000
0001
0010
0100
0000
,
1000
0000
0010
1000
0100
0010
0000
0120
,
0000
0000
0000
0000
0000
0030
0001
0100
,
0000
0010
0000
0100
0000
0001
0000
2000
,
0000
3100
0010
0100
1000
0000
0001
0100
,
0020
0100
1000
0130
,
1001
1000
0010
1000
0001
0100
0001
0000
,
0010
0100
0000
1000
0100
1000
0000
0010
,
0100
0001
0010
0001
1000
0100
1000
0000
,
0110
0000
1001
0000
0010
0001
0100
0000
,
0001
1000
0100
1000
0001
0010
0100
0000
,
0010
0000
0100
1000
0010
0100
0000
0010
,
1000
0001
0100
0001
1000
0100
0010
0000
,
1001
0000
0010
0000
0100
0010
0001
0000
,
1000
0000
0000
0000
;

//---------------dance-single - D. D'Amato----------------
#NOTES:
     dance-single:
     D. D'Amato:
     Medium:
     5:
     0.316,0.319,0.047,0.084,0.000,223.000,5.000,9.000,0.000,0.000,0.000,0.316,0.319,0.047,0.084,0.000,223.000,5.000,9.000,0.000,0.000,0.000:
0000
0000
0000
0000
,
0000
0000
0000
0000
,
0000
0000
0000
0000
,
0000
0000
0000
0000
,
0010
1000
0000
0000
0001
0010
0000
0000
,
0100
1000
0000
0000
0001
1000
0001
0000
,
1000
0100
0000
0000
0010
0001
0000
0000
,
0100
0010
0000
1000
0000
0100
0000
0020
,
0000
0000
0031
0100
0001
0000
1000
0100
,
0000
1000
0000
0000
0000
0000
0000
0020
,
0000
0000
1030
0100
1000
0001
0100
0001
,
0000
0010
0000
0000
0000
0000
0000
0100
,
1000
0100
0000
0010
0000
0001
1000
0001
,
0000
0010
0000
0100
0000
1000
0000
0000
,
1000
0010
0100
0010
0000
0100
0001
0100
,
0000
0010
0000
1000
0000
0001
1000
0000
,
1001
0000
0001
0100
0000
0100
0010
0100
,
0010
1000
0100
1000
,
1000
0001
1000
0100
0000
0100
0010
0100
,
0010
0000
0001
0000
0010
0000
0001
1000
,
0001
0000
0010
0010
0100
0100
0010
0100
,
0000
0010
0000
0001
0000
0100
0010
0100
,
0001
0001
0000
0010
0000
0100
0000
2000
,
0000
0000
3001
0010
0001
0010
0000
0020
,
0000
0000
0000
0000
0000
0031
0000
0100
,
0000
1000
0000
0100
0000
0001
0000
0010
,
0000
1000
0000
0010
0000
0001
0100
0000
,
0001
0000
1000
0010
1000
0010
0000
0020
,
0000
0000
0000
0000
0000
1030
0000
0100
,
0000
0001
0000
0100
0000
1000
0000
0010
,
0000
0100
0010
0100
0010
0000
1000
0000
,
0200
0000
0000
0300
,
1000
0010
1000
0100
,
0000
0000
0000
1000
0000
0001
0000
0000
,
0001
0010
0001
0100
,
0010
1000
0001
0100
,
0010
0000
1000
0000
0100
0010
0000
0100
,
1000
0000
0100
0000
0010
0100
0000
0010
,
0001
0000
1000
0000
0010
0100
0000
0010
,
1000
0000
0010
0100
0001
0000
1000
0100
,
0000
0000
1000
0010
1000
0010
0000
0020
,
0000
0000
0000
0000
0000
1030
0000
0100
,
0000
0001
0000
0100
0000
1000
0000
0010
,
0000
0001
0000
0010
0000
1000
0100
0000
,
1000
0000
0001
0010
0001
0010
0000
0020
,
0000
0000
0000
0000
0000
0031
0000
0100
,
0000
1000
0000
0100
0000
0001
0000
0010
,
0000
0100
0010
0100
0010
0000
0001
0000
,
0200
0000
0000
0300
,
0001
0010
0001
0100
,
0000
0000
0000
0001
0000
1000
0000
0000
,
1000
0010
1000
0100
,
0010
1001
0010
1001
,
0100
0010
1000
0100
,
0000
0000
0000
1000
0001
1000
0000
0000
,
0100
0010
0001
1000
,
0110
0001
0110
1000
,
0001
0000
0000
0000
;

//---------------dance-single - D. D'Amato----------------
#NOTES:
     dance-single:
     D. D'Amato:
     Easy:
     3:
     0.201,0.213,0.037,0.103,0.000,136.000,4.000,11.000,0.000,0.000,0.000,0.201,0.213,0.037,0.103,0.000,136.000,4.000,11.000,0.000,0.000,0.000:
0000
0000
0000
0000
,
0000
0000
0000
0000
,
0000
0000
0000
0000
,
0000
0000
0000
0000
,
1000
0000
0001
0000
,
1000
0000
0001
0001
,
0010
0000
0100
0000
,
0010
0010
0010
0010
,
0100
0000
0001
1000
,
0100
0000
0010
1100
,
0000
0010
0001
0000
,
0100
0000
0010
0101
,
1000
1000
0001
0001
,
0100
0010
1000
0100
,
0000
0100
0000
0010
,
0000
0010
0001
1000
,
0110
0000
0001
0000
,
0010
1000
0100
0001
,
0010
0000
1000
0000
,
0010
0001
0100
1000
,
0110
0000
0100
0010
,
0000
0010
0000
0010
,
0100
0000
0010
1000
,
0200
0000
0000
0300
,
0020
0000
0030
1000
,
0100
0000
0001
0000
,
0010
0010
0100
0010
,
0000
0000
0100
0000
,
0020
0000
0030
0100
,
0010
0000
1000
0000
,
0100
0010
0001
0000
,
0200
0000
0000
0300
,
1000
0010
1000
1000
,
0000
0000
1000
0000
,
0001
0010
0001
0001
,
0000
1000
0001
0100
,
0020
0000
0030
0000
,
2000
0000
3000
0000
,
0200
0000
0300
0000
,
0010
0100
1000
0000
,
0200
0000
0000
0300
,
0020
0000
0030
0001
,
0100
0000
1000
0000
,
0010
0010
0100
0010
,
0000
0000
0100
0000
,
0020
0000
0030
0100
,
0010
0000
0001
0000
,
0100
0010
1000
0000
,
0200
0000
0000
0300
,
0001
0010
0001
0001
,
0000
0000
0001
0000
,
1000
0010
1000
1000
,
0010
0001
0010
1000
,
0100
0010
0001
0001
,
0000
0000
0001
0000
,
0100
0010
1000
1000
,
0010
0001
0010
1000
,
0100
0000
0000
0000
;

//---------------dance-single - J. Frederick----------------
#NOTES:
     dance-single:
     J. Frederick:
     Beginner:
     1:
     0.061,0.080,0.037,0.000,0.000,42.000,4.000,0.000,0.000,0.000,0.000,0.061,0.080,0.037,0.000,0.000,42.000,4.000,0.000,0.000,0.000,0.000:
0000
0000
0000
0000
,
0000
0000
0000
0000
,
0000
0000
0000
0000
,
0000
0000
0000
0000
,
1000
0000
0000
0000
,
0001
0000
0000
0000
,
0010
0000
0000
0000
,
0100
0000
0000
0000
,
0001
0000
0000
0000
,
0000
0000
0000
0000
,
1000
0000
0000
0000
,
0000
0000
0000
0000
,
0010
0000
0000
0000
,
0000
0000
0000
0000
,
0100
0000
0000
0000
,
0000
0000
0000
0000
,
1001
0000
0000
0000
,
0000
0000
0000
0000
,
0001
0000
0000
0000
,
0000
0000
0000
0000
,
1000
0000
0000
0000
,
0000
0000
0000
0000
,
0010
0000
0000
0000
,
0000
0000
0000
0000
,
0110
0000
0000
0000
,
1000
0000
0000
0000
,
0001
0000
0000
0000
,
0010
0000
0000
0000
,
0100
0000
0000
0000
,
0001
0000
0000
0000
,
1000
0000
0000
0000
,
0010
0000
0000
0000
,
0100
0000
0000
0000
,
0001
0000
0000
0000
,
1000
0000
0000
0000
,
0010
0000
0000
0000
,
0100
0000
0000
0000
,
0001
0000
0000
0000
,
0010
0000
0000
0000
,
1000
0000
0000
0000
,
0010
0000
0000
0000
,
1001
0000
0000
0000
,
0100
0000
0000
0000
,
0010
0000
0000
0000
,
0001
0000
0000
0000
,
1000
0000
0000
0000
,
0010
0000
0000
0000
,
0100
0000
0000
0000
,
0001
0000
0000
0000
,
1000
0000
0000
0000
,
0000
0000
0000
0000
,
0010
0000
0000
0000
,
0000
0000
0000
0000
,
0100
0000
0000
0000
,
0000
0000
0000
0000
,
0001
0000
0000
0000
,
0000
0000
0000
0000
,
1001
0000
0000
0000
;

//---------------dance-double - J. Frederick----------------
#NOTES:
     dance-double:
     J. Frederick:
     Easy:
     3:
     0.221,0.293,0.177,0.187,0.000,127.000,19.000,20.000,0.000,0.000,0.000,0.221,0.293,0.177,0.187,0.000,127.000,19.000,20.000,0.000,0.000,0.000:
00000000
00000000
00000000
00000000
,
00000000
00000000
00000000
00000000
,
00000000
00000000
00000000
00000000
,
00000000
00000000
00000000
00000000
,
11000000
00000000
01100000
00000000
,
00110000
00000000
00011000
00000000
,
00001010
00000000
00001001
00000000
,
00000101
00000000
00000011
00000000
,
00000001
00000100
00000001
00000000
,
00000010
00000000
00001000
00000000
,
00000100
00000001
00001000
00000000
,
00010000
00000000
00100000
00000000
,
00010000
10000000
01000000
00000000
,
00100000
00000000
00010000
00000000
,
10000000
01000000
00100000
00000000
,
00010000
00000000
00001000
00000000
,
00011000
00001000
00001000
00000000
,
00000010
00000000
00000100
00000000
,
00000001
00000010
00000001
00000000
,
00000100
00000000
00000010
00000000
,
00001000
00000100
00001000
00000000
,
00010000
00000000
00100000
00000000
,
00010000
01000000
10000000
00000000
,
02200000
00000000
00000000
03300000
,
20000000
30000000
02000000
03000000
,
00100000
00010000
01000000
00000000
,
10000000
00000000
00010000
00000000
,
00100000
01000000
00010000
00000000
,
00002000
00003000
00000020
00000030
,
00000100
00000001
00000010
00000000
,
00000001
00000000
00000100
00000000
,
00000010
00001000
00000010
00001000
,
00001010
00000000
00000101
00000000
,
00000001
00000010
00000001
00000000
,
00001001
00000000
00001100
00000000
,
00001000
00010000
00100000
00000000
,
01000000
00000000
10000000
00000000
,
00200000
00000000
00000000
00300000
,
01000000
00000000
00010000
00000000
,
20000000
00000000
00000000
30000000
,
20020000
00000000
00000000
30030000
,
00100000
01000000
10000000
00000000
,
01000000
00000000
00100000
00000000
,
00020000
00030000
00002000
00003000
,
00000010
00000100
00000001
00000000
,
00001001
00000000
00000100
00000000
,
00000001
00000010
00000001
00000000
,
00000200
00000300
00000020
00000030
,
00001000
00001000
00011000
00011000
,
00100000
00010000
10000000
02000000
,
03000000
00100000
00020000
00030000
,
10000000
01000000
00100000
00020000
,
00000000
00000000
00000000
00030000
,
00001000
00000010
00000100
00000002
,
00000003
00000001
00000020
00000030
,
00000100
00000001
00000010
00002000
,
00000000
00000000
00000000
00003000
,
00011000
00000000
00000000
00000000
;

//---------------dance-double - J. Frederick----------------
#NOTES:
     dance-double:
     J. Frederick:
     Medium:
     5:
     0.316,0.319,0.131,0.187,0.000,203.000,14.000,20.000,0.000,0.000,0.000,0.316,0.319,0.131,0.187,0.000,203.000,14.000,20.000,0.000,0.000,0.000:
00000000
00000000
00000000
00000000
,
00000000
00000000
00000000
00000000
,
00000000
00000000
00000000
00000000
,
00000000
00000000
11000000
11000000
,
00100000
01000000
00000000
00000000
00010000
10000000
00000000
00000000
,
01000000
00100000
00000000
00000000
00010000
00001000
00000000
00000000
,
00000001
00000100
00000000
00000000
00000010
00001000
00000000
00000000
,
00000100
00000001
00000000
00000000
00000010
00000001
00000100
00000000
,
00000001
00000010
00000001
00000100
,
00000010
00001000
00000100
00000001
,
00000100
00001000
00010000
00100000
,
00010000
00100000
01000000
10000000
,
01000000
00100000
00010000
10000000
,
01000000
00100000
01000000
00100000
,
00010000
00001000
00000100
00000001
,
00000020
00000000
00000000
00000030
,
00000101
00000100
00000001
00000010
,
00000001
00000100
00000010
00001000
,
00010000
00100000
00010000
01000000
,
10000000
01000000
00100000
00010000
,
10000000
01000000
00100000
00010000
,
00001000
00000010
00000100
00000001
,
00000010
00000001
00000000
00000100
00000000
00000010
00000000
00002000
,
00000000
00000000
00010000
00013000
,
00012000
00010000
00100000
00013000
,
00021000
00000100
00001000
00030010
,
00000001
00000100
00000010
00001000
,
00000001
00000100
00000010
00001000
,
00001002
00000000
00001000
00000000
00000010
00000000
00001000
00000003
,
00002001
00000000
00000001
00000000
00000010
00000000
00000001
00003000
,
00001000
00000010
00000100
00000001
,
00000010
00000001
00000100
00000010
,
00001000
00000000
00000001
00000000
00000100
00000010
00001000
00000000
,
00000000
00000000
00000000
00010000
00001000
00010000
00000000
00000000
,
00010000
00000000
00100000
00000000
00010000
00100000
00010000
00000000
,
00100000
01000000
10000000
01000000
,
00200000
00300000
02000000
03000000
,
20000000
30000000
00020000
00030000
,
00200000
00300000
00020000
00030000
,
00002000
00003000
00000020
00000030
,
00000220
00000000
00000000
00000330
,
00000102
00000010
00000100
00001003
,
00002001
00000001
00000010
00003001
,
00001000
00000010
00001000
00010000
,
00100000
00010000
00100000
01000000
,
21000000
01000000
00100000
30010000
,
01200000
10000000
01000000
10300000
,
01000000
00100000
00010000
00001000
,
00000010
00000100
00000101
00000100
,
00000001
00000000
00000010
00000000
00000001
00000100
00000010
00000000
,
00000000
00000000
00000000
00001000
00000010
00001000
00000000
00000000
,
00000100
00000000
00000001
00000000
00000100
00000010
00001000
00000000
,
00000001
00000100
00000010
00001000
,
00010000
00000000
00100000
00000000
01000000
00100000
00010000
00000000
,
00000000
00000000
00000000
01000000
10000000
00100000
00000000
00000000
,
01000000
00010000
00100000
01000000
,
00010000
00001000
00000010
00000100
,
00000101
00000000
00000000
00000000
;

//---------------dance-double - C. Sandmann----------------
#NOTES:
     dance-double:
     C. Sandmann:
     Hard:
     7:
     0.441,0.456,0.224,0.093,0.019,297.000,24.000,10.000,0.000,0.000,0.000,0.441,0.456,0.224,0.093,0.019,297.000,24.000,10.000,0.000,0.000,0.000: // measure 1
00000000
00000000
00000000
00000000
,  // measure 2
00000000
00000000
00000000
00000000
,  // measure 3
00000000
00000000
00000000
00000000
,  // measure 4
00000000
00000000
00000000
00000000
,  // measure 5
10000000
01000000
00100000
00000000
00010000
10000000
00100000
00000000
,  // measure 6
10000000
00000000
00100000
00000000
01000000
00001000
00010000
00000000
,  // measure 7
00010000
00001000
00000100
00000000
00000010
00001000
00000001
00000000
,  // measure 8
00001000
00000000
00000100
00000000
00000010
00000100
00001000
00000000
,  // measure 9
00000001
00000000
00001000
00000000
00000020
00010000
00010030
00000000
,  // measure 10
00001000
00000000
00100000
00000000
00020000
01000000
01030000
00000000
,  // measure 11
00100000
00000000
10000000
00000000
02000000
00100000
03100000
00000000
,  // measure 12
00010000
00100000
01000000
10000000
00100000
01000000
00001000
00000000
,  // measure 13
00010000
00000000
00000100
00000000
00002000
00000001
00003001
00000000
,  // measure 14
00000010
00000000
00000100
00000000
00000020
00000100
00000130
00000000
,  // measure 15
00010000
00000000
00100000
00000000
02000000
00010000
03010000
00000000
,  // measure 16
01000000
00001000
00010000
00000100
00001000
00000010
00000100
00000000
,  // measure 17
00000001
00000000
00001000
00000100
00000000
00001000
00000010
00000000
,  // measure 18
00010000
00011000
01000000
01010000
,  // measure 19
10000000
00000000
00100000
01000000
00000000
00010000
01000000
00000000
,  // measure 20
00010000
00010100
00000010
00000011
,  // measure 21
00001000
00000000
00000010
00010000
00000000
00001000
01000000
00000000
,  // measure 22
00100000
01100000
01000000
01001000
,  // measure 23
00100000
00000000
00001000
00010000
00000000
00000001
00001000
00000000
,  // measure 24
00000011
00001100
00001010
00000110
,  // measure 25
00001000
00000000
00000010
00001000
00000100
00000000
00000010
00000001
,  // measure 26
00001000
00000000
00000010
00000100
00001000
01000000
00010000
10000000
,  // measure 27
01000000
00000000
00100000
00010000
01000000
00000000
10000000
01000000
,  // measure 28
00010000
00000000
10000000
01000000
00010000
00001000
00010000
00100000
,  // measure 29
01000000
00000000
00010000
00100000
00001000
00000000
00010000
00000010
,  // measure 30
00001000
00000000
00000001
00001000
00000010
00001000
00000100
00000010
,  // measure 31
00000001
00000000
00000010
00000100
00001000
00000000
00000100
00010000
,  // measure 32
00001000
00000000
00100000
00010000
10000000
01000000
10000000
00000000
,  // measure 33
01000000
10000000
11000000
00000000
00001000
01000000
01001000
00000000
,  // measure 34
00010000
00000010
00010010
00010000
00000001
00001000
00001001
00000000
,  // measure 35
00000001
00000010
00000110
00000000
00000010
00000100
00010100
00000000
,  // measure 36
00010000
00100000
01100000
01000000
10000000
01000000
00110000
00000000
,  // measure 37
10000000
00000000
00000000
00000000
00010000
00000000
00000000
00000000
00100000
00000000
00000000
00001000
00000000
00000000
00010000
00000000
,  // measure 38
00000100
00000000
00000000
00000000
00001000
00000000
00000000
00000000
00000010
00000000
00000000
00000100
00000000
00000000
00000001
00000000
,  // measure 39
00001000
00000000
00000000
00000000
00000100
00000000
00000000
00000000
00010000
00000000
00000000
00001000
00000000
00000000
00010000
00000000
,  // measure 40
01000000
00000000
00000000
00000000
00100000
00000000
00000000
00000000
00010000
00000000
00000000
10000000
00000000
00000000
00100000
00000000
,  // measure 41
02200000
00000000
00000000
00000000
00000000
00000000
00000000
03300000
,  // measure 42
00100000
10000000
00100000
00010000
00000000
00010000
00001000
00000100
,  // measure 43
00000000
00000100
00000001
00001000
00000100
00000010
00000001
00001000
,  // measure 44
00000010
00000100
00000001
00000010
00000000
00000010
00001000
00010000
,  // measure 45
00000000
00010000
00100000
10000000
01000000
00100000
00010000
00000000
,  // measure 46
10000000
00010000
01000000
10000000
00000000
10000000
01000000
00001000
,  // measure 47
00000000
00001000
00010000
00000010
00001000
00000100
00000010
00000001
,  // measure 48
00000100
00001000
00000001
00000010
00000000
00000010
00010000
00001000
,  // measure 49
00000000
00001000
00010000
00100000
10000000
01000000
10000000
00000000
,  // measure 50
10000000
01000000
00100000
00010000
00001000
00000100
00001000
00000000
,  // measure 51
00000000
00000000
00000000
00010000
00000100
00010000
00000000
00000000
,  // measure 52
00000100
00010000
00001000
01000000
00001000
00010000
00000010
00000000
,  // measure 53
00010000
00011000
00000001
00000101
,  // measure 54
00000010
00000001
00000100
00000010
00010000
00001000
00000100
00000000
,  // measure 55
00000000
00000000
00000000
00001000
00010000
00001000
00000000
00000000
,  // measure 56
00100000
00001000
00010000
00000010
00010000
00001000
01000000
00000000
,  // measure 57
10000000
10100000
00010000
10010000
,  // measure 58
00220000
00000000
00330000
00000000
;

//---------------dance-double - C. Sandmann----------------
#NOTES:
     dance-double:
     C. Sandmann:
     Challenge:
     9:
     0.569,0.479,0.261,0.103,0.271,388.000,28.000,11.000,0.000,4.000,0.000,0.569,0.479,0.261,0.103,0.271,388.000,28.000,11.000,0.000,4.000,0.000:
00000000
00000000
00000000
00000000
,
00000000
00000000
00000000
00000000
,
00000000
00000000
00000000
00000000
,
00000000
00000000
00000000
00000000
,
10000000
01000000
00010000
01000000
00100000
00010000
01000000
00010000
,
01000000
00001000
00010000
00000100
00000010
00000001
00000010
00000100
,
00010000
00000010
00000100
00000001
00001000
00000100
00010000
01000000
,
11000000
01010000
00101000
10010000
,
00100000
00000000
00000000
00010000
10000000
00000000
00010000
00000000
01000000
00000000
00000000
00010000
10000000
00000000
01000000
00000000
,
10000000
00000000
00010000
00000000
01000000
00000000
00001000
00000000
00010000
00000000
00000010
00000000
00001000
00000000
00000010
00001000
,
00000001
00000000
00000000
00001000
00000010
00000000
00001000
00000000
00000001
00000000
00000000
00001000
00000100
00000000
00001000
00000000
,
00000001
00000000
00000100
00000000
00000010
00000000
00001000
00000000
00000100
00000000
00010000
00000000
00001000
00000000
00100000
00001000
,
00010000
00000000
00000000
00001000
00100000
00000000
00000010
00000000
00001000
00000000
00000000
00000100
00010000
00000000
00001000
00000000
,
01000000
00000000
00010000
00000000
00100000
00000000
00001000
00000000
00000010
00000000
00000100
00000000
00001000
00000000
00000001
00001000
,
00000100
00000000
00000000
00010000
00001000
00000000
01000000
00000000
00010000
00000000
00000000
01000000
10000000
00000000
01000000
00000000
,
00100000
10000000
00010000
01000000
00010000
00100000
01000000
10000000
,
00010000
10000000
01000000
00010000
00001000
00000100
00000010
00001000
,
00000001
00000000
00000000
00000001
00001000
00000000
00000000
00001000
00000010
00000000
00000000
00000010
00001000
00000000
00000000
00001000
,
00000100
00001000
00000001
00000010
00000100
00010000
00001000
01000000
,
00010000
00000000
00000000
00010000
01000000
00000000
00000000
01000000
00010000
00000000
00000000
00010000
00100000
00000000
00000000
00100000
,
00010000
00100000
01000000
00100000
00010000
10000000
00100000
01000000
,
00010000
00000000
00000000
00010000
00100000
00000000
00000000
00100000
00001000
00000000
00000000
00001000
00010000
00000000
00000000
00010000
,
00000010
00001000
00000001
00000100
00000001
00001000
00000010
00010000
,
00002000
00000000
00020000
00000000
00000010
00000000
00100000
00033000
,
00011000
00000000
00000000
00001000
00000100
00000000
00000001
00000000
00000100
00000000
00000000
00000001
00001000
00000000
00000100
00000000
,
00001000
00000000
00000000
00000010
00000100
00000000
00000001
00000000
00001000
00000000
00100000
00000000
00010000
00000000
00100000
00000000
,
10000000
00000000
00000000
01000000
10000000
00000000
01000000
00000000
00010000
00000000
00000000
01000000
00100000
00000000
00010000
00000000
,
01000000
00000000
00000000
00001000
00010000
00000000
00001000
00000000
00000100
00000000
00000001
00000000
00000100
00000000
00000010
00000000
,
00001000
00000000
00000000
00000100
00001000
00000000
00000001
00000000
00000100
00000000
00000000
00000010
00001000
00000000
00000001
00000000
,
00000010
00000000
00000000
00000100
00010000
00000000
00100000
00000000
10000000
00000000
01000000
00000000
10000000
00000000
00010000
00000000
,
01000000
00000000
00000000
00010000
00100000
00000000
10000000
00000000
00100000
00000000
00000000
01000000
10000000
00000000
00010000
00000000
,
01000000
00010000
10000000
00010000
00100000
00001000
00010000
00000100
,
00001000
00000100
00001000
00000000
00000001
00000000
00000100
00000000
00000010
00000100
00000010
00000000
00001000
00000000
00000001
00000000
,
00000100
00000100
00000001
00000001
00001000
00001000
00000010
00000010
,
00010000
00001000
00010000
00000000
00001000
00000000
00100000
00000000
00010000
10000000
00010000
00000000
10000000
00000000
01000000
00000000
,
01100000
00011000
00000110
00011000
,
10010000
00000000
00000000
00000000
02010000
00000000
00000000
00000000
00100000
00000000
00000000
00010000
00000000
00000000
00001000
00000000
,
03001000
00000000
00000000
00000000
00012000
00000000
00000000
00000000
01000000
00000000
00000000
00010000
00000000
00000000
00000010
00000000
,
00003010
00000000
00000000
00000000
00000210
00000000
00000000
00000000
00000001
00000000
00000000
00001000
00000000
00000000
00010000
00000000
,
00010300
00000000
00000000
00000000
00020100
00000000
00000000
00000000
00000010
00000000
00000000
00001000
00000000
00000000
00100000
00000000
,
00200000
00000000
00000000
00000000
00000000
00000000
00000000
00000000
00000000
00000000
00000000
00000000
00000000
00330000
00000000
00000000
,
00011000
00001000
00000100
00000001
00001000
00000100
00010000
00001000
,
01010000
00010000
10000000
01000000
00010000
00001000
00000100
00001000
,
00101000
00100000
00010000
01000000
00001000
00000100
00000001
00000010
,
00000110
01100000
11000000
00101000
,
00100010
00000010
00010000
00001000
10000000
01000000
00010000
01000000
,
01100000
00100000
00010000
01000000
00000100
00001000
00000001
00000010
,
00000011
00000001
00001000
00100000
10000000
00010000
00000100
00000001
,
00000011
00000110
00110000
11000000
,
10000000
00000000
00000000
10000000
00010000
00000000
00000000
00010000
01000000
00000000
00000000
01000000
00000100
00000000
00000000
00000100
,
00010000
00000100
00000010
00001000
00000010
00000001
00000100
00000010
,
00001000
00000000
00000000
00001000
00000001
00000000
00000000
00000001
00000010
00000000
00000000
00000010
00000100
00000000
00000000
00000100
,
00001000
00000010
00001000
00010000
01000000
10000000
01000000
00010000
,
01000000
00000000
00000000
01000000
00001000
00000000
00000000
00001000
00010000
00000000
00000000
00010000
00000001
00000000
00000000
00000001
,
00000100
00000010
00010000
01000000
00010000
00001000
00000100
00000001
,
00000010
00000000
00000000
00000010
00001000
00000000
00000000
00001000
01000000
00000000
00000000
01000000
00000010
00000000
00000000
00000010
,
00002000
00000002
00200000
00000020
,
00303033
00000000
00000000
00000000
;
