#TITLE:Cave Drips;
#SUBTITLE:;
#ARTIST:Adam Vox;
#TITLETRANSLIT:;
#SUBTITLETRANSLIT:;
#ARTISTTRANSLIT:;
#GENRE:;
#CREDIT:;
#BANNER:Cave Drips-bn.png;
#BACKGROUND:Cave Drips-bg.png;
#LYRICSPATH:;
#CDTITLE:;
#MUSIC:Cave Drips.ogg;
#OFFSET:-0.005;
#SAMPLESTART:67.820;
#SAMPLELENGTH:11.900;
#SELECTABLE:YES;
#BPMS:0.000=138.000;
#STOPS:;
#BGCHANGES:0.138=Cave Drips.mpg=1.000=1=0=0=StretchNoLoop==CrossFade==,
99999=-nosongbg-=1.000=0=0=0 // don't automatically add -songbackground-;
#KEYSOUNDS:;

//---------------dance-double - M. Emirzian----------------
#NOTES:
     dance-double:
     M. Emirzian:
     Easy:
     3:
     0.073,0.079,0.064,0.003,0.000,165.000,24.000,1.000,0.000,0.000,0.000,0.073,0.079,0.064,0.003,0.000,165.000,24.000,1.000,0.000,0.000,0.000:
00000000
00000000
00000000
00000000
,
00000000
00000000
00000000
00000000
,
00000000
00000000
00000000
00000000
,
00000000
00000000
00000000
00000000
,
00100000
00000000
00010000
00000000
,
01000000
00000000
00100000
00000000
,
00010000
00000000
01000000
00000000
,
10000000
00000000
00100000
00000000
,
00010000
01000000
00000000
00100000
,
00100000
00100000
00000000
00001000
,
00001000
00001000
00000000
00000001
,
00000001
00000001
00000000
00010000
,
00010000
00010000
00000000
00001000
,
00001000
00001000
00000000
00100000
,
00100000
00100000
00000000
10000000
,
10000000
10000000
00000000
01000000
,
00010000
10000000
01000000
00000000
,
00100000
00010000
01000000
00000000
,
10000000
00100000
00010000
00000000
,
00001000
00010000
00000100
00000000
,
00000010
00001000
00000100
00001100
,
00001000
00000100
00000010
00000011
,
00000010
00000100
00001000
00001100
,
00001000
00000100
00010000
00001000
,
01000000
00010000
01000000
00000000
,
00100000
00100000
00100000
00000000
,
10010000
00000000
01010000
00000000
,
00001000
00010000
00000100
00000000
,
00000010
00001010
00000100
00000000
,
00000010
00001100
00010000
00000000
,
00001000
00011000
01000000
00000000
,
00100000
10010000
01000000
00000000
,
00100000
00101000
00010000
00000000
,
00001000
00010100
00001000
00000000
,
00000010
00001100
00000001
00000000
,
00000010
00001000
00000100
00000010
,
00000001
00001000
00000010
00000100
,
00001000
00010000
00100000
01000000
,
00100000
10000000
01000000
00100000
,
00010000
00100000
00001000
01000000
,
10000000
00100000
00010000
01000000
,
00100000
00000000
10000000
01000000
,
11000000
01000000
00100000
00010000
,
00110000
00000000
00100000
00001000
,
00011000
00000000
00010000
00000100
,
00001100
00000000
00000010
00000100
,
00001001
00000000
00000000
00000010
,
00000100
00001000
00011000
00000000
,
00001000
00010000
01000000
01010000
,
00000000
10000000
00100000
01000000
,
01010000
00000000
00100000
10000000
,
01000000
11000000
00000000
00100000
,
00001000
00010000
00010100
00000000
,
00010000
00001000
00000100
00001100
,
00000000
00000010
00001000
00000100
,
00000011
00000000
00000010
00000000
,
00000010
00000000
00000000
00000000
,
00001000
00000000
00000000
00000000
,
00020000
00000000
00000000
00000000
,
00030000
00000000
00000000
00000000
;

//---------------dance-double - M. Emirzian----------------
#NOTES:
     dance-double:
     M. Emirzian:
     Medium:
     6:
     0.119,0.127,0.003,0.003,0.000,309.000,1.000,1.000,0.000,0.000,0.000,0.119,0.127,0.003,0.003,0.000,309.000,1.000,1.000,0.000,0.000,0.000:
00000000
00000000
00000000
00000000
,
00000000
00000000
00000000
00000000
,
00000000
00000000
00000000
00000000
,
00000000
00000000
00000000
00000000
,
00100000
10000000
00000000
01000000
00010000
00000000
00100000
00000000
,
01000000
00010000
00000000
10000000
00010000
00000000
01000000
00000000
,
00001000
00010000
00000100
00000000
00010000
00001000
00000010
00000000
,
00000100
00010000
00001000
00000000
00000100
00000010
00000000
00001000
,
00000001
00000100
00000010
00000000
00001000
00000100
00000010
00000001
,
00001000
00000010
00000100
00001000
,
00010000
00001000
01000000
00000000
00010000
00001000
01000000
00010000
,
10000000
00100000
10000000
01000000
,
10000000
00100000
01000000
00000000
00010000
01000000
00100000
10000000
,
01000000
00100000
00001000
00001000
,
00010000
00000100
00001000
00000000
00000100
00010000
00001000
00000100
,
00000001
00000010
00000100
00000100
,
00001000
00000000
00000001
00000100
00000000
00000100
00000010
00001000
,
00000100
00000000
00000010
00000100
00000000
00000100
00010000
00001000
,
01000000
00000000
00100000
10000000
00000000
01000000
00100000
00000000
,
10000000
00000000
00100000
00010000
00000000
01000000
00010000
00000000
,
00100000
00000000
00001000
00010000
00000000
00010000
00000010
00001000
,
00000100
00000000
00000010
00000100
00000000
00000100
00001000
00000010
,
00000100
00000000
00000001
00000100
00000000
00000010
00001000
00000000
,
00010000
00000000
00001000
01000000
00000000
00100000
01000000
00000000
,
00010000
00000000
01000000
10000000
00000000
10000000
01000000
00010000
,
00100000
00000000
01000000
10000000
00000000
10000000
00010000
01000000
,
00100000
00000000
01000000
00001000
00000000
00010000
00001000
00000000
,
00000100
00000000
00000001
00000010
00000000
00001000
00000100
00000000
,
00000010
00000001
00000100
00000000
00000010
00001000
00000010
00000000
,
00000100
00001000
00000100
00000000
00001000
00010000
00001000
00000000
,
00001000
01000000
00010000
00100000
01000000
10000000
00100000
00000000
,
10000000
01000000
00100000
00010000
10000000
01000000
00100000
00000000
,
00100000
00001000
00010000
00000000
00010000
00000100
00010000
00000000
,
00001000
00000010
00001000
00000000
00001000
00000100
00000010
00000000
,
00000001
00000100
00000010
00000100
00000010
00001000
00000100
00000000
,
00000010
00000001
00000010
00000001
00001000
00000100
00001000
00000100
,
00010000
00001000
00010000
00001000
01000000
00010000
01000000
00010000
,
10000000
01000000
10000000
01000000
00100000
00010000
00100000
00010000
,
01000000
00001000
01000000
00001000
00010000
00001000
00010000
00000010
,
00010000
00000010
00001000
00000100
00000010
00000000
00000001
00000100
,
00000010
00001000
00000000
00000100
00001000
00000000
00000100
00000000
,
00010000
00001000
01000000
00000000
00010000
00100000
00010000
00000000
,
01000000
00100000
10000000
01000000
00100000
00000000
01000000
00000000
,
10000000
01000000
00000000
00010000
01000000
00000000
10000000
00010000
,
01000000
00100000
00000000
01000000
00010000
00000000
00100000
00000000
,
00001000
00010000
00000010
00000000
00010000
00001000
00000100
00000000
,
00000001
00001000
00000100
00000010
00000001
00000000
00000100
00000000
,
00000010
00001000
00000000
00000001
00000100
00000000
00000010
00001000
,
00000100
00000010
00000000
00000010
00000001
00000000
00001000
00000000
,
00000010
00010000
00001000
00000000
01000000
00100000
01000000
00000000
,
00010000
01000000
00100000
10000000
01000000
00000000
00100000
00000000
,
00010000
10000000
00000000
01000000
00100000
00000000
00010000
01000000
,
00001000
00010000
00000000
00010000
00000010
00000000
00001000
00000000
,
00000100
00001000
00000010
00000000
00000100
00000001
00000010
00000000
,
00000100
00001000
00000001
00000100
00000010
00000000
00001000
00000000
,
00001001
00000000
00000100
00000000
,
00000010
00000000
01000000
00000000
,
00100000
00000000
10000000
00000000
,
00020000
00000000
00000000
00000000
,
00030000
00000000
00000000
00000000
;

//---------------dance-double - M. Emirzian----------------
#NOTES:
     dance-double:
     M. Emirzian:
     Hard:
     8:
     0.145,0.158,0.019,0.005,0.105,370.000,7.000,2.000,0.000,0.000,0.000,0.145,0.158,0.019,0.005,0.105,370.000,7.000,2.000,0.000,0.000,0.000:
00000000
00000000
00000000
00000000
,
00000000
00000000
00000000
00000000
,
01000000
00000000
00000000
01000000
00000000
00000000
01000000
00000000
00000000
00000000
00000000
00000000
00000000
00000000
00000000
00000000
,
00001000
00000000
00000000
00001000
00000000
00000000
00001000
00000000
00000000
00000000
00000000
00000000
00000000
00000000
00000000
00000000
,
00010000
00000000
00000000
00010000
00000000
00000000
00010000
00000000
00000000
00000000
00000000
00000000
00000000
00000000
00000000
00000000
,
00000100
00000000
00000000
00000100
00000000
00000000
00000100
00000000
00000000
00000000
00000000
00000000
00000000
00000000
00000000
00000000
,
00000001
00000000
00000000
00000001
00000000
00000000
00000001
00000000
00000000
00000000
00000000
00000000
00000000
00000000
00000000
00000000
,
00010000
00000000
00000000
00010000
00000000
00000000
00010000
00000000
00000000
00000000
00000000
00000000
00000000
00000000
00000000
00000000
,
00001000
00010000
00001000
00000000
01000000
00010000
01000000
00100000
,
10000000
00100000
01000000
00000000
00010000
01000000
00100000
10000000
,
01000000
00100000
00010000
00000000
00100000
00001000
00010000
00000100
,
00010000
00000010
00001000
00000000
00000100
00000010
00000001
00000010
,
00000100
00001000
00000100
00000000
00001000
00000100
00000010
00000001
,
00000100
00000010
00001000
00000000
00000100
00010000
00001000
00100000
,
00010000
01000000
00100000
00000000
10000000
01000000
00100000
00010000
,
00100000
01000000
10000000
00000000
10000000
01000000
00100000
00010000
,
01000000
00000000
00000000
00100000
00000000
00000000
01000000
00000000
00000000
00010000
00000000
00010000
00000000
00000000
00100000
00000000
,
01000000
00000000
00000000
00100000
00000000
00000000
00001000
00000000
00000000
00010000
00000000
00010000
00000000
00000000
00000010
00000000
,
00001000
00000100
00000010
00000001
00001000
00000010
00001000
00000000
,
00000100
00000000
00001000
00000000
00000010
00000000
00001000
00000000
00000100
00000000
00000000
00000100
00000000
00000000
00000100
00000000
,
00010000
00000000
00000000
00001000
00000000
00000000
01000000
00000000
00000000
00001000
00000000
00001000
00000000
00000000
00010000
00000000
,
01000000
00000000
00000000
10000000
00000000
00000000
00010000
00000000
00000000
01000000
00000000
01000000
00000000
00000000
00100000
00000000
,
10000000
01000000
00100000
00010000
01000000
00001000
00010000
00000000
,
00000100
00000000
00010000
00000000
00001000
00000000
00010000
00000000
00001000
00000000
00000000
00001000
00000000
00000000
00001000
00000000
,
00010000
00000000
00000000
00000010
00000000
00000000
00001000
00000000
00000000
00000100
00000000
00000100
00000000
00000000
00000010
00000000
,
00000100
00000000
00000000
00001000
00000000
00000000
00000100
00000000
00000000
00000001
00000000
00000001
00000000
00000000
00000100
00000000
,
00001000
00000010
00010000
00001000
01000000
00010000
01000000
00000000
,
00010000
00000000
00100000
00000000
01000000
00000000
10000000
00000000
01000000
00000000
00000000
01000000
00000000
00000000
01000000
00000000
,
00100000
00000000
00010000
00000000
01000000
00000000
00100000
10000000
00000000
00000000
00000000
00010000
01000000
00000000
00100000
00000000
,
10000000
00000000
01000000
00000000
00100000
00000000
00010000
01000000
00000000
00000000
00000000
00000100
00010000
00000000
00001000
00000000
,
00010000
00000000
00000010
00000000
00001000
00000000
00000100
00010000
00000000
00000000
00000000
00001000
00100000
00000000
00010000
00000000
,
01000000
00000000
10000000
00000000
01000000
00000000
00010000
10000000
00000000
00000000
00000000
00001000
00010000
00000000
00000100
00000000
,
00001000
00000000
00000010
00000000
00000100
00000000
00000001
00001000
00000000
00000000
00000000
00000100
00000010
00000000
00000100
00000000
,
00001000
00000000
00000001
00000000
00000100
00000000
00000010
00010000
00000000
00000000
00000000
00001000
01000000
00000000
00010000
00000000
,
01000000
00100000
10000000
01000000
00100000
01000000
00100000
00010000
,
00100000
01000000
11000000
10000000
01000000
00100000
00110000
00010000
,
01000000
00001000
01001000
00001000
00010000
00000010
00010010
00010000
,
00000010
00001000
00001100
00001000
00000100
00000010
00001001
00000010
,
00000100
00000000
00000001
00001000
00000001
00000000
00000010
00000000
00000100
00000000
00010000
00000100
00010000
00000000
00001000
00000000
,
00010000
00000000
00000000
00000010
00000000
00000000
00010000
00000000
00001000
00000000
00000000
01000000
00000000
00001000
00010000
00000000
,
00001000
00000000
00000000
01000000
00000000
00000000
00100000
00000000
01000000
00000000
00000000
00010000
00000000
01000000
00100000
00000000
,
10000000
01000000
00100000
00010000
01000000
00100000
10000000
01000000
,
00100000
00000000
00000000
00001000
00000000
00000000
00010000
00000000
00000000
00000100
00000000
00000100
00000000
00000000
00001000
00000000
,
00000010
00000000
00000000
00001000
00000000
00000000
00000010
00000000
00000000
00000001
00000000
00000001
00000000
00000000
00000010
00000000
,
00001000
00000000
00000100
00000000
00001000
00000000
00000010
00000000
00000100
00000010
00000000
00000010
00000000
00000000
00001000
00000000
,
00000100
00000000
00000000
00001000
00000000
00000000
00000010
00000000
00010000
00000000
00000000
00001000
00000000
00001000
00010000
00000000
,
00000100
00000000
00000000
00010000
00000000
00000000
00001000
00000000
01000000
00000000
00000000
00001000
00000000
01000000
00010000
00000000
,
01000000
00001000
00010000
00000010
00001000
00000100
00010000
00001000
,
01000000
00000000
00000000
00010000
00000000
00000000
00100000
00000000
00000000
10000000
00000000
01000000
00000000
00000000
00100000
00000000
,
00010000
00000000
00000000
01000000
00000000
00000000
10000000
00000000
00000000
00100000
00000000
00010000
00000000
00000000
01000000
00000000
,
00001000
00000000
00010000
00000000
00000100
00000000
00001000
00000000
00000010
00001000
00000000
00001000
00000000
00000000
00000100
00000000
,
00000010
00000000
00000000
00000001
00000000
00000000
00000100
00000000
00000010
00000000
00000000
00001000
00000000
00001000
00000100
00000000
,
00001000
00000000
00000000
00000010
00000000
00000000
00010000
00000000
00001000
00000000
00000000
00010000
00000000
00001000
00010000
00000000
,
00000100
00010000
00001000
01000000
00100000
10000000
01000000
00010000
,
00100000
00000000
00000000
10000000
00000000
00000000
01000000
00000000
00000000
00010000
00000000
00010000
00000000
00000000
00100000
00000000
,
11000000
00000000
00000000
01000000
00100000
00000000
00010000
00000000
,
00001000
00000000
00000010
00000100
00000000
00000000
00000001
00000000
,
00000100
00000010
00000000
00001000
00000000
00000100
00010000
00000000
,
00001000
02000000
00000000
00020000
00000000
00000000
00000000
00000000
,
03030000
00000000
00000000
00000000
;

//---------------dance-double - M. Emirzian----------------
#NOTES:
     dance-double:
     M. Emirzian:
     Challenge:
     9:
     0.183,0.190,0.107,0.005,0.172,436.000,40.000,2.000,0.000,0.000,0.000,0.183,0.190,0.107,0.005,0.172,436.000,40.000,2.000,0.000,0.000,0.000: // measure 1
00000000
00000000
00000000
00000000
,  // measure 2
00000000
00000000
00000000
00000000
,  // measure 3
01000000
00000000
00000000
01000000
00000000
00000000
01000000
00000000
00000000
01000000
00000000
00000000
01000000
00000000
00000000
00000000
,  // measure 4
00101000
00000000
00000000
00000000
00010010
00000000
00000000
00000000
00001000
00000100
00000000
00000010
00000100
00000000
00001000
00000000
,  // measure 5
00000100
00000000
00000000
00000100
00000000
00000000
00000100
00000000
00000000
00000100
00000000
00000000
00000100
00000000
00000000
00000000
,  // measure 6
00001010
00000000
00000000
00000000
00010100
00000000
00000000
00000000
00010000
00001000
00000000
00001000
01000000
00000000
00010000
00000000
,  // measure 7
10000000
00000000
00000000
10000000
00000000
00000000
10000000
00000000
00000000
10000000
00000000
00000000
10000000
00000000
00000000
00000000
,  // measure 8
00110000
00000000
00000000
00000000
01001000
00000000
00000000
00000000
00100000
00010000
00000000
00010000
01000000
00000000
00001000
00000000
,  // measure 9
00010000
00000000
00000010
00000000
00001000
00000000
00000000
00000000
00000001
00000100
00000000
00000010
00001000
00000000
00000100
00000000
,  // measure 10
00010000
00001000
01000000
00000000
00010000
01000000
00100000
10000000
,  // measure 11
01000000
00000000
00100000
00000000
00010000
00000000
00000000
00000000
01000000
00100000
00000000
00100000
00010000
00000000
01000000
00000000
,  // measure 12
00001000
00010000
00000100
00000000
00000010
00000100
00000001
00000100
,  // measure 13
00000010
00000000
00000001
00000000
00000100
00000000
00000000
00000000
00000010
00010000
00000000
00010000
00001000
00000000
01000000
00000000
,  // measure 14
00100000
10000000
01000000
00000000
00100000
00010000
10000000
01000000
,  // measure 15
00100000
00000000
00001000
00000000
00010000
00000000
00000000
00000000
00000100
00010000
00000000
00000010
00001000
00000000
00000100
00000000
,  // measure 16
00000001
00000100
00000010
00000000
00001000
00000100
00000010
00000001
,  // measure 17
00001000
00000000
00000000
00001010
00000000
00000000
00010100
00000000
00000000
00001000
00000000
00001000
00000000
00000000
00010000
00000000
,  // measure 18
00001000
00000000
00000000
01001000
00000000
00000000
00110000
00000000
00000000
01000000
00000000
01000000
00000000
00000000
00100000
00000000
,  // measure 19
10000000
00000000
01000000
00000000
00100000
00000000
00001000
00000000
00010000
00000010
00000000
00000010
00000000
00000000
00000100
00000000
,  // measure 20
00000010
00000000
00001000
00000000
00000010
00000000
00000100
00000000
00000001
00001000
00000000
00001000
00000000
00000000
00000010
00000000
,  // measure 21
00000100
00000000
00000000
00001100
00000000
00000000
00011000
00000000
00000000
01000000
00000000
01000000
00000000
00000000
10000000
00000000
,  // measure 22
00100000
00000000
00000000
00110000
00000000
00000000
00011000
00000000
00000000
00000010
00000000
00000010
00000000
00000000
00000001
00000000
,  // measure 23
00000100
00000000
00000010
00000000
00010000
00000000
00100000
00000000
10000000
01000000
00000000
01000000
00000000
00000000
00100000
00000000
,  // measure 24
00001000
00000000
00010000
00000000
00000100
00000000
00001000
00000000
00000010
00001000
00000000
00001000
00000000
00000000
00000100
00000000
,  // measure 25
00010000
00000000
00000000
00010010
00000000
00000000
00001100
00000000
00000000
00000010
00000000
00000010
00000000
00000000
00000001
00000000
,  // measure 26
00001000
00000000
00000000
00001100
00000000
00000000
00010100
00000000
00000000
00001000
00000000
00001000
00000000
00000000
00010000
00000000
,  // measure 27
00000100
00000000
00010000
00000000
00001000
00000000
01000000
00000000
00100000
01000000
00000000
01000000
00000000
00000000
00010000
00000000
,  // measure 28
10000000
00000000
01000000
00000000
00100000
00000000
00001000
00000000
00010000
00000100
00000000
00000100
00000000
00000000
00000010
00000000
,  // measure 29
00000001
00000000
00000100
00000000
00000010
00000000
00001000
00000100
00000000
00010000
00000000
00000100
00001000
00000000
00000010
00000000
,  // measure 30
00010000
00000000
00001000
00000000
01000000
00000000
00010000
00100000
00000000
00001000
00000000
00100000
00010000
00000000
10000000
00000000
,  // measure 31
01000000
00000000
00100000
00000000
00001000
00000000
00010000
00000010
00000000
00001000
00000000
00000010
00010000
00000000
00001000
00000000
,  // measure 32
00000100
00000000
00000001
00000000
00001000
00000000
00000100
00000010
00000000
00000100
00000000
00001000
00000100
00000000
00010000
00000000
,  // measure 33
01000000
00000000
10000000
00000000
00010000
00000000
01000000
00001000
00000000
00010000
00000000
01000000
00001000
00000000
00010000
00000000
,  // measure 34
00000100
00000000
00000010
00000000
00000001
00000000
00000100
00000010
00000000
00001000
00000000
00000010
00000100
00000000
00000001
00000000
,  // measure 35
00000100
00000000
00001000
00000000
01000000
00000000
00010000
10000000
00000000
01000000
00000000
10000000
00010000
00000000
00100000
00000000
,  // measure 36
01000000
10000000
10100000
10010000
00010000
00100000
00110000
00101000
,  // measure 37
00001000
01000000
01001000
00011000
00010000
00000100
00001100
00010100
,  // measure 38
00000100
00001000
00001010
00000110
00000001
00001000
00001100
00001001
,  // measure 39
00000010
00000000
00000100
00001000
00000010
00000000
00000100
00000001
00000010
00000000
00000100
00001000
00000001
00000010
00000100
00001000
,  // measure 40
00000010
00000000
00000000
00001100
00000000
00000000
00000010
00000000
00001000
00000100
00000000
00010000
00000000
00000010
00000100
00000000
,  // measure 41
00001000
00000000
00000000
00011000
00000000
00000000
00100000
00000000
10000000
01000000
00000000
00100000
00000000
00010000
01000000
00000000
,  // measure 42
00001000
00000000
00000000
00011000
00000000
00000000
00000010
00000000
00001000
00000100
00000000
00000010
00000000
00000001
00000100
00000000
,  // measure 43
00000010
00000000
00000000
00010100
00000000
00000000
00001000
00000000
01000000
00100000
00000000
01000000
00000000
00010000
01000000
00000000
,  // measure 44
00100000
00000000
00000000
10000000
00000000
00000000
01000000
00000000
00000000
00110000
00000000
10010000
00000000
00000000
00100000
00000000
,  // measure 45
01000000
00000000
00000000
00001000
00000000
00000000
00010000
00000000
00000000
00010100
00000000
00011000
00000000
00000000
00010000
00000000
,  // measure 46
00000010
00000000
00001000
00000000
00000100
00000000
00000010
00000000
00000001
00000000
00001000
00000010
00000000
00000000
00001000
00000000
,  // measure 47
00000100
00000000
00010000
00000000
00100000
00000000
10000000
00000000
01000000
00000000
00100000
00010000
00000000
00000000
01000000
00000000
,  // measure 48
00001000
00000000
00010000
00000000
00000010
00001000
00000001
00001000
00000100
00000000
00000010
00000100
00000000
00000000
00001000
00000000
,  // measure 49
00000001
00000000
00000100
00000000
00000010
00000000
00001000
00000000
00000100
00000000
00001000
00000010
00000000
00000000
00010000
00000000
,  // measure 50
00001000
00010000
00000100
00000000
00010000
00001000
01000000
00010000
01000000
00000000
00100000
00000000
10000000
00000000
00001000
00000000
,  // measure 51
00010000
00000000
00000000
01001000
00000000
00000000
00010000
00000000
00000010
00001000
00000000
00000001
00000000
00000010
00000100
00000000
,  // measure 52
00001000
00000000
00000000
00010010
00000000
00000000
00000100
00000000
00001000
00000010
00000000
00010000
00000000
00001000
01000000
00000000
,  // measure 53
00100000
00000000
01000000
00000000
00010000
10000000
01000000
00000000
00100000
00010000
01000000
00000000
00100000
10000000
00100000
01000000
,  // measure 54
00010000
00000000
00100000
00001000
00100000
00001000
00010000
00000000
00001000
00000000
00010000
00000100
00001000
00000000
00000010
00000000
,  // measure 55
00001000
00000100
00000000
00000010
00000000
00000000
00000001
00000000
00000100
00000010
00000000
00010000
00000000
00001000
01000000
00000000
,  // measure 56
00100000
00000000
10000000
00000000
00000000
00000000
00100000
00000000
01000000
00000000
00010000
01000000
00000000
00000000
00100000
00000000
,  // measure 57
01000000
00000100
00000000
00000010
00000000
00000000
00000001
00000000
,  // measure 58
00010000
00001000
00000000
01000000
00000000
00000000
00100000
00000000
,  // measure 59
10000000
01000000
00000000
00200000
00000000
00000000
02000000
00000000
,  // measure 60
03300000
00000000
00000000
00000000
;

//---------------dance-single - D. Renzetti----------------
#NOTES:
     dance-single:
     D. Renzetti:
     Challenge:
     10:
     0.751,0.000,0.810,0.267,1.000: // measure 1
0000
0000
0000
0000
,  // measure 2
0000
0000
0000
0000
,  // measure 3
0000
0000
0000
0000
,  // measure 4
0000
0000
0000
0000
,  // measure 5
0010
0000
0100
0000
0110
0000
0010
0000
01M0
0001
0000
0010
0001
0000
0100
0000
,  // measure 6
0010
0000
0100
0000
0110
0000
0010
0000
01M0
1000
0000
0100
0001
0000
0010
0000
,  // measure 7
0001
0000
0010
0000
0011
0000
0001
0000
001M
1000
0000
0001
0100
0000
1000
0000
,  // measure 8
0020
0000
0M00
0000
0100
0000
0M00
0000
0100
0000
0M00
0000
0130
0000
0000
0010
,  // measure 9
0000
0120
0000
0000
0130
0000
0000
0001
0000
0201
0000
0000
0301
0000
0000
0010
,  // measure 10
0000
0021
0000
0000
0031
0000
0000
1000
0000
1002
0000
0000
0103
0000
0010
1000
,  // measure 11
0000
1200
0000
0000
0301
0000
0100
1000
0000
1020
0000
0000
0130
0000
0001
0010
,  // measure 12
0000
0021
0000
0000
1030
0000
0010
0001
0000
0102
0000
0000
0103
0000
0010
0001
,  // measure 13
0000
0011
0000
0000
0110
0000
0010
1000
0000
1010
0000
0000
1100
0000
1000
0100
,  // measure 14
0000
0101
0000
0000
0110
0000
0010
0001
0000
1001
0000
0100
0010
1000
0010
0100
,  // measure 15
0000
1100
0000
0000
0110
0000
0010
1000
0000
1100
0000
0000
1010
0000
0010
0001
,  // measure 16
0000
0011
0000
0000
0110
0000
0100
0001
0000
1001
0000
1000
0010
0100
0001
0010
,  // measure 17
0200
0000
0000
0002
0300
0000
2000
0003
0M00
0010
3000
1020
0000
0030
M001
0000
,  // measure 18
0200
0000
00M0
2000
0300
0000
0002
3000
0M00
0010
0003
0021
M000
0000
0130
0000
,  // measure 19
0002
0000
0M00
2000
0003
0000
0200
3000
0000
0001
03M0
0201
0000
0300
1000
0000
,  // measure 20
0010
0100
0001
0010
0000
0010
0000
0010
0100
1000
0010
0100
0000
0100
0000
0100
,  // measure 21
0010
1000
0000
0100
0000
00M1
0000
0100
0000
1000
0000
0010
0M01
0000
1000
0000
,  // measure 22
0100
0001
0000
0010
0000
1000
0M00
0001
0000
0100
0000
1000
0010
0000
0100
0000
,  // measure 23
0001
0100
0000
10M0
0000
0001
0M00
0010
0000
1000
0000
0100
0010
0000
M001
0000
,  // measure 24
0100
0010
1000
0100
0000
1100
0000
1000
0010
0100
0001
0010
0000
0011
0000
0001
,  // measure 25
0100
1000
0000
0001
0M00
0010
0000
1000
00M0
0100
0000
0001
0100
0000
1000
0000
,  // measure 26
0010
1000
0000
0001
00M0
0100
0000
1000
0000
0001
0000
0010
1000
0000
0010
0000
,  // measure 27
1000
0100
0000
0001
00M0
1000
0000
0001
0000
0100
0000
0010
M001
0000
0100
0000
,  // measure 28
0010
1000
0100
1000
0000
1100
0000
1000
0010
0100
0001
0010
0000
0011
0000
0001
,  // measure 29
1000
0000
0100
0000
0010
0000
0100
0001
0000
0100
0000
1000
0010
0000
0100
0000
,  // measure 30
0001
0000
0010
0000
0100
0000
0010
1000
0000
0010
0000
0001
0100
0000
0010
0000
,  // measure 31
1000
0000
0100
0000
1000
0000
0100
0010
0000
0010
0000
0010
0001
0000
0100
0000
,  // measure 32
0001
0000
0010
0000
0001
0000
0010
0100
0000
0100
0000
0100
1000
0000
0010
0000
,  // measure 33
2000
00M0
01M1
00M0
,  // measure 34
3002
0M00
1M10
0M00
,  // measure 35
2003
000M
011M
000M
,  // measure 36
3011
0101
M100
001M
1010
1100
1000
00M1
,  // measure 37
0101
1010
1000
010M
0110
M011
0100
0010
,  // measure 38
1010
1001
00M1
0100
0110
1001
0100
0010
,  // measure 39
100M
0100
1000
0010
0100
0001
0010
0001
0100
0010
1000
0100
1000
0010
0100
0001
,  // measure 40
0010
0000
0000
0001
0000
0000
0101
0000
0000
0100
0000
1100
0000
0000
0100
0000
,  // measure 41
0001
0000
0000
0100
0000
0000
0110
0000
0000
0010
0000
0011
0000
0000
0010
0000
,  // measure 42
1000
0000
0000
0010
0000
0000
2010
0000
0000
3100
0000
0101
0000
0000
0100
0000
,  // measure 43
1000
0000
0000
0001
0000
0000
0011
0000
0000
0010
0000
1010
0000
0000
0010
0000
,  // measure 44
0001
0000
0000
0100
0000
0000
1100
0000
0000
0100
0000
0101
0000
0000
0001
0000
,  // measure 45
1000
0000
0000
0001
0000
0000
0101
0000
0000
0100
0000
1100
0000
0000
0100
0000
,  // measure 46
0001
0000
0000
0010
0000
0000
1010
0000
0000
1000
0000
1001
0000
0000
0001
0000
,  // measure 47
0100
0000
0000
1000
0000
0000
1010
0000
0000
0010
0000
0011
0000
0000
0010
0000
,  // measure 48
0100
0000
0000
0010
1000
0100
00M1
0100
1000
0010
0000
0110
0000
0000
0100
0000
,  // measure 49
0001
0000
0M00
0010
0000
0000
1010
0000
0000
0010
0000
0011
0000
0001
0100
1000
,  // measure 50
0100
0010
1000
0100
00M1
0100
1000
0010
0100
0001
0000
0101
0000
0000
0100
0000
,  // measure 51
0010
0000
M000
0001
0000
0000
0011
0000
0000
0010
0000
1010
0000
0000
1000
0000
,  // measure 52
0100
0000
0000
0001
00M0
0000
0101
0000
0000
0100
0000
0110
0000
0000
0010
0000
,  // measure 53
0001
0000
0M00
1000
0010
0001
0010
1000
0100
0010
0000
0110
0000
0010
0100
1000
,  // measure 54
0010
0100
0000
0101
0000
0100
0010
1000
0100
0010
0000
0011
0000
0001
0100
0010
,  // measure 55
1000
0100
0000
1100
0000
1000
0010
0100
0001
0010
0000
0011
0000
0010
0001
0100
,  // measure 56
0010
1000
0000
1100
0000
0000
1000
0010
0000
0110
0000
0000
1001
0000
0MM0
0000
,  // measure 57
1000
0010
0000
1010
0000
0000
0010
0100
0000
0101
0000
0000
0011
0000
MM00
0000
,  // measure 58
0001
0100
0000
0110
0000
0000
0010
1000
0000
1010
0000
0000
1001
0000
0MM0
0000
,  // measure 59
2000
0000
0000
3020
0000
0000
2030
0000
,  // measure 60
31MM
0000
0000
0000
;

//---------------dance-single - D. Renzetti + J. DeGarmo----------------
#NOTES:
     dance-single:
     D. Renzetti + J. DeGarmo:
     Edit:
     10:
     0.773,0.000,0.845,0.326,0.898: // measure 1
0000
0000
0000
0000
,  // measure 2
0000
0000
0000
0000
,  // measure 3
0000
0000
0000
0000
,  // measure 4
0000
0000
0000
0000
,  // measure 5
0010
0000
0100
0000
0110
0000
0010
0000
01M0
0001
0000
0010
0001
0000
0100
0000
,  // measure 6
0010
0000
0100
0000
0110
0000
0010
0000
01M0
1000
0000
0100
0001
0000
0010
0000
,  // measure 7
0001
0000
0010
0000
0011
0000
0001
0000
001M
1000
0000
0001
0100
0000
1000
0000
,  // measure 8
2002
0000
00M0
0000
0010
0000
00M0
0000
0010
0000
00M0
0000
3013
0000
0000
0010
,  // measure 9
0000
0120
0000
0000
0130
0000
0000
0001
0000
0201
0000
0000
0301
0000
0000
0010
,  // measure 10
0000
0021
0000
0000
0031
0000
0000
1000
0000
1002
0000
0000
0103
0000
0010
1000
,  // measure 11
0000
1200
0000
0000
0301
0000
0100
1000
0000
1020
0000
0000
0130
0000
0001
0010
,  // measure 12
0000
0021
0000
0000
0130
0000
0010
0001
0000
0102
0000
0000
1003
0000
1000
0001
,  // measure 13
0000
0011
0000
0000
0110
0000
0100
1000
0000
1010
0000
0000
1100
0000
1000
0010
,  // measure 14
0000
0101
0000
0000
0110
0000
0100
0001
0000
1001
0000
0100
0010
0000
1000
0100
,  // measure 15
0000
1100
0000
0000
0110
0000
0001
1000
0000
1100
0000
0000
1010
0000
0100
0001
,  // measure 16
0000
0011
0000
0000
0110
0000
0010
0001
0000
1001
0000
0000
1001
0000
0000
0000
,  // measure 17
0200
0000
0000
0002
0300
0000
2000
0003
0M00
0010
3000
1020
0000
0030
M001
0000
,  // measure 18
0200
0000
M000
0020
0300
0000
2000
0030
0M00
0001
3000
0021
M000
0000
0130
0000
,  // measure 19
0002
0000
0M00
2000
0003
0000
0020
3000
0000
0001
0030
0201
0000
0300
0100
0000
,  // measure 20
0010
0100
0001
0010
0000
0010
0000
0010
0100
1000
0010
0100
0000
0100
0000
0100
,  // measure 21
0010
0000
1000
0000
0100
0000
00M1
0000
0100
1000
0000
0010
1M00
0000
0001
0000
,  // measure 22
0100
0000
0001
0000
0010
0000
1M00
0000
0001
0100
0000
1000
0010
0000
0100
0000
,  // measure 23
0001
0000
0100
0000
10M0
0000
0001
0M00
0010
1000
0000
0100
0010
0000
M001
0000
,  // measure 24
0100
0010
1000
0100
0000
1100
0000
1000
0010
0100
0001
0010
0000
0011
0000
0001
,  // measure 25
0100
0000
1000
0000
0M01
0000
0010
0000
1000
01M0
0000
0001
0100
0000
1000
0000
,  // measure 26
0010
0000
1000
0000
0001
00M0
0100
0000
1000
0001
0000
0010
1000
0000
0010
0000
,  // measure 27
1000
0000
0100
0000
0001
00M0
1000
0000
0001
0100
0000
0010
M001
0000
0100
0000
,  // measure 28
0010
1000
0100
1000
0000
1100
0000
1000
0010
0100
0001
0010
0000
0011
0000
0001
,  // measure 29
1000
0000
0100
0000
0010
0000
0100
0001
0000
0100
0000
1000
0010
0000
0100
0000
,  // measure 30
0001
0000
0010
0000
0100
0000
0010
1000
0000
0010
0000
0001
0100
0000
0010
0000
,  // measure 31
1000
0000
0100
0000
1000
0000
0100
0010
0000
0010
0000
0010
0001
0000
0100
0000
,  // measure 32
0001
0000
0010
0000
0001
0000
0010
0100
0000
0100
0000
0100
1000
0000
0010
0000
,  // measure 33
2000
011M
01M1
0M11
,  // measure 34
3002
M110
1M10
11M0
,  // measure 35
2003
0000
0000
0000
01M1
0000
0000
0000
011M
0000
0000
0000
0M11
0000
0000
3000
,  // measure 36
0011
0101
M100
001M
1010
1100
1000
00M1
,  // measure 37
0101
1010
1000
010M
0110
M011
0100
0010
,  // measure 38
1010
1001
00M1
0100
0110
1001
0100
0010
,  // measure 39
100M
0100
1000
0010
0100
0001
0010
0001
0100
0010
1000
0100
1000
0010
0100
0001
,  // measure 40
0010
0000
0000
0001
0000
0000
0101
0000
0000
0100
0000
1100
0000
0000
0100
0000
,  // measure 41
0001
0000
0000
0100
0000
0000
0110
0000
0000
0010
0000
0011
0000
0000
0010
0000
,  // measure 42
1000
0000
0000
0010
0000
0000
2010
0000
0000
3100
0000
0101
0000
0000
0100
0000
,  // measure 43
1000
0000
0000
0001
0000
0000
0011
0000
0000
0010
0000
1010
0000
0000
0010
0000
,  // measure 44
0001
0000
0000
0100
0000
0000
1100
0000
0000
0100
0000
0101
0000
0000
0001
0000
,  // measure 45
1000
0000
0000
0001
0000
0000
0101
0000
0000
0100
0000
1100
0000
0000
0100
0000
,  // measure 46
0001
0000
0000
0010
0000
0000
1010
0000
0000
1000
0000
1001
0000
0000
0001
0000
,  // measure 47
0100
0000
0000
1000
0000
0000
1010
0000
0000
0010
0000
0011
0000
0000
0010
0000
,  // measure 48
0100
0000
0000
0000
1000
0100
00M1
0100
1000
0010
0000
0110
0000
0000
0100
0000
,  // measure 49
0001
0000
0M00
0010
0000
0000
1010
0000
0000
0010
0000
0011
0000
0001
0100
1000
,  // measure 50
0100
0010
1000
0100
00M1
0100
1000
0010
0100
0001
0000
0101
0000
0000
0100
0000
,  // measure 51
0010
0000
M000
0001
0000
0000
0011
0000
0000
0010
0000
1010
0000
0000
1000
0000
,  // measure 52
0100
0000
0000
0001
00M0
0000
0101
0000
0000
0100
0000
0110
0000
0000
0010
0000
,  // measure 53
0001
0000
0M00
1000
0010
0001
0010
1000
0100
0010
0000
0110
0000
0010
0100
1000
,  // measure 54
0010
0100
0000
0101
0000
0100
0010
1000
0100
0010
0000
0011
0000
0001
0100
0010
,  // measure 55
1000
0100
0000
1100
0000
1000
0010
0100
0001
0010
0000
0011
0000
0010
0001
0200
,  // measure 56
0002
0000
0000
1000
0010
0000
0000
0010
1000
0000
0000
1000
0313
0000
0000
0000
,  // measure 57
2200
0000
0000
0001
0010
0000
0000
0010
0001
0000
0000
0001
3310
0000
0000
0000
,  // measure 58
0202
0000
0000
0010
1000
0000
0000
1000
0010
0000
0000
0010
1303
0000
0000
0000
,  // measure 59
2002
0000
0000
0010
0000
0000
0010
0000
3003
1000
0000
0001
0000
0000
1111
0000
;

//---------------dance-single - J. DeGarmo----------------
#NOTES:
     dance-single:
     J. DeGarmo:
     Hard:
     9:
     0.597,0.000,0.317,0.182,0.595:
0000
0000
0000
0000
,
0000
0000
0000
0000
,
0000
0000
0000
0000
,
0000
0000
0000
0000
,
0010
0000
0000
0000
0010
0000
0000
0000
0010
0000
0000
0100
0001
0000
1000
0000
,
0001
0000
0000
0000
0001
0000
0000
0000
0001
0000
0000
0001
0100
0000
0010
0000
,
1000
0000
0000
0000
1000
0000
0000
0000
1000
0000
0000
1000
0100
0000
0010
0000
,
2002
0000
0000
0000
0000
0000
0000
0000
0010
0000
0000
0000
3003
0000
0000
1000
,
0000
0010
0000
0000
0100
0000
0000
0001
0000
0010
0000
0000
0100
0000
0000
1000
,
0000
0010
0000
0000
0100
0000
0000
0001
0000
0001
0000
0000
1000
0000
0000
0100
,
0000
1000
0000
0000
0010
0000
0000
0100
0000
1000
0000
0000
0100
0000
0000
0001
,
0000
0010
0000
0000
0100
0000
0000
1000
0000
1000
0000
0000
0001
0000
0000
0000
,
0000
0111
0000
1011
,
0000
1101
0000
1110
,
0000
1111
0000
0111
,
0000
1101
0000
1011
,
0001
0000
0000
0100
0000
0000
0010
0000
0000
1010
0000
1010
0000
0000
0100
0000
,
0001
0000
0000
0010
0000
0000
0100
0000
0000
0011
0000
0011
0000
0000
1000
0000
,
0010
0000
0000
0100
0000
0000
1000
0000
0000
0101
0000
0101
0000
0000
0010
0000
,
1000
0000
0000
0001
0000
0000
1000
0000
0000
1100
0000
1100
0000
0000
0010
0000
,
0001
0000
1000
0000
0010
0000
0001
0000
0000
0010
0000
1000
0100
0000
0100
0000
,
0010
0000
0001
0000
1000
0000
0100
0000
0000
0010
0000
0001
0010
0000
0010
0000
,
0100
0000
1000
0000
0010
0000
0100
0000
0000
1000
0000
0100
0001
0000
0001
0000
,
0010
0000
0001
0000
1000
0000
0010
0000
0000
0100
0000
0010
1000
0000
1000
0000
,
0001
0000
0010
0000
0001
0000
0100
0000
0010
1000
0000
1000
0100
0000
0010
0000
,
0100
0000
0001
0000
0100
0000
1000
0000
0001
0100
0000
0100
0010
0000
1000
0000
,
0001
0000
1000
0000
0010
0000
0100
0000
0001
1000
0000
1000
0010
0000
0100
0000
,
0001
0000
0010
0000
0100
0000
1000
0000
0100
0010
0000
0010
0001
0000
0100
0000
,
0001
0000
0010
0000
0001
0000
0010
0001
0000
0010
0000
0001
0010
0000
0001
0000
,
0100
0000
0010
0000
0100
0000
0010
0100
0000
0010
0000
0100
0010
0000
0100
0000
,
0001
0000
1000
0000
0001
0000
1000
0001
0000
1000
0000
0001
1000
0000
0001
0000
,
1000
0000
0100
0000
1000
0000
0100
1000
0000
0100
0000
1000
0100
0000
0000
0000
,
2000
0200
0000
0020
,
3000
0000
0001
0000
1331
0000
0002
0200
,
0000
2010
0010
3303
,
0001
0000
0100
0000
1000
0000
0100
0000
0001
0000
0010
0000
0100
0000
1000
0001
,
1000
0000
0010
0000
1000
0000
0100
0000
0001
0000
0100
0000
0010
0000
0001
0100
,
0001
0000
1000
0000
0010
0000
0100
0000
0001
0000
0100
0000
1000
0000
0100
0010
,
0100
0000
0001
0000
1000
0000
0010
0000
0100
0000
0001
0000
0010
0000
0100
1000
,
0100
0000
0000
0010
0000
0000
0001
0000
0000
0100
0000
0010
1000
0000
0001
0000
,
0100
0000
0000
0100
0000
0000
0010
0000
1000
0001
0000
0001
0000
0010
0100
0000
,
0010
0000
0000
0001
0000
0000
1000
0000
0000
0010
0000
1000
0100
0000
0001
0000
,
0100
0000
0000
0100
0000
0000
1000
0000
0010
0000
0000
0100
0000
0000
0001
1000
,
0100
0000
0000
1000
0000
0000
0010
0000
0000
0010
0000
0100
0001
0000
0100
0000
,
1000
0000
0000
0100
0000
0000
0010
0000
1000
0000
0000
0001
0000
0000
0010
0000
,
0100
0000
0000
1000
0000
1000
0010
0000
0000
0100
0000
0001
0000
1000
0100
0000
,
0010
0000
0000
0010
0000
0001
0100
0000
0010
1000
0000
1000
0000
0000
0110
0000
,
0110
0000
0000
0000
0001
0010
0001
0010
0100
0000
0100
0000
1000
0001
0100
0000
,
0010
0000
0000
0100
0001
0000
1000
0000
0001
0010
0000
0010
0000
0000
0100
1000
,
0001
0000
0000
0010
0100
0000
1000
0000
0010
0100
0000
0100
0000
0000
1000
0100
,
0001
0000
0000
0100
0010
0000
1000
0000
0010
0100
0000
0001
1000
0000
0100
0000
,
0011
0000
0000
0101
0000
0000
0110
0000
1010
0000
0000
1100
0000
0001
0100
0000
,
0110
0000
0000
0000
1000
0010
1000
0010
0100
0000
0001
1000
0001
1000
0001
0000
,
0100
0000
0010
0000
1000
0100
1000
0100
0010
0100
0010
0100
0010
0001
0010
0001
,
0010
0000
0000
0000
0100
0000
0000
0000
1001
0000
0000
1001
0000
0000
1001
0000
,
0002
0000
0000
0200
0000
0000
2000
0000
0300
0000
0003
0000
3020
0000
0000
0000
,
0200
0000
0000
0001
0000
0000
0331
0000
0000
0000
0000
0000
0202
0000
0000
0000
,
1020
0000
0000
1000
0000
0000
1333
0000
0000
0000
0000
0000
2000
0000
0000
0000
,
0200
0000
0000
0002
0000
0000
0010
0000
0000
0010
0000
0013
0000
0000
0011
0000
,
3300
0000
0000
0000
;

//---------------dance-single - J. DeGarmo----------------
#NOTES:
     dance-single:
     J. DeGarmo:
     Medium:
     7:
     0.394,0.000,0.154,0.336,0.000:
0000
0000
0000
0000
,
0000
0000
0000
0000
,
0000
0000
0000
0000
,
0000
0000
0000
0000
,
0001
0000
0000
0001
0000
0000
0000
0000
,
0010
0000
0000
0010
0000
0000
0000
0000
,
0100
0000
0000
0100
0000
0000
0000
0000
,
1000
0000
0000
1000
0000
0000
0000
0000
,
0001
0100
0010
1000
,
0001
0010
0100
1000
,
0100
0010
0001
0100
,
0010
1000
0100
1000
,
0000
0001
0000
1000
,
0000
0111
0000
0001
,
0000
1110
0000
0100
,
0000
1001
0000
0000
,
2000
0000
0001
0000
3100
0000
0010
0001
,
0020
0000
0001
0000
0130
0000
1000
0010
,
0200
0000
1000
0000
0310
0000
1000
0100
,
1000
1010
0100
0101
,
0001
1000
0100
0000
0010
0001
0100
0000
,
0010
1000
0001
0000
0100
0010
1000
0000
,
0100
0010
0100
0000
1000
0010
0100
0000
,
0001
0100
0010
0000
1000
0001
1000
0000
,
0020
1000
0230
0001
,
0320
0100
2030
0100
,
3002
0010
2003
0001
,
3200
0001
0320
0001
,
0130
1000
0001
0100
,
0100
0010
1000
0100
,
0100
0010
0001
0100
,
0100
0001
0010
0100
,
2002
0000
0010
0003
,
0020
0000
0200
0000
3331
0000
0000
0002
,
0200
1000
1010
0303
,
1000
0100
1000
0100
1000
0100
1000
0100
,
0010
0100
0010
0100
0010
0100
0010
0100
,
0010
0001
0010
0001
0010
0001
0010
0001
,
1000
0001
1000
0001
1000
0001
1000
0001
,
1000
0000
0100
0000
0001
0000
0100
0010
,
0001
0000
0100
0000
1000
0000
0100
0010
,
1000
0000
0001
0000
0010
0000
0001
0100
,
0010
1000
0001
0100
,
2021
3030
0000
0010
,
1202
0303
0000
0001
,
1220
0330
0000
1000
,
0221
0330
0000
1000
,
1100
0000
0010
0001
0000
0100
0010
1000
,
0100
0000
0010
0001
0000
1000
0010
0100
,
0001
0000
1000
0010
0000
0100
0001
1000
,
0100
0000
0010
0001
0000
1000
0100
0010
,
0002
0000
0100
0000
0013
0000
0100
1000
,
0200
0000
0010
0000
1300
0000
0001
0100
,
0010
1000
0100
0010
,
0001
0100
0010
1000
,
2200
0001
0010
3301
,
0202
0010
1000
0313
,
2002
0010
0100
3013
,
0220
0000
0000
0000
0000
0000
0000
1000
,
0330
0000
0000
0000
;

//---------------dance-single - J. DeGarmo----------------
#NOTES:
     dance-single:
     J. DeGarmo:
     Easy:
     6:
     0.244,0.000,0.173,0.211,0.000:
0000
0000
0000
0000
,
0000
0000
0000
0000
,
0000
0000
0000
0000
,
0000
0000
0000
0000
,
1000
0000
0000
0000
,
0010
0000
0000
0000
,
0100
0000
0000
0000
,
0001
0000
0000
0000
,
1000
0000
0000
0100
0000
0000
0000
0000
,
0001
0000
0000
0010
0000
0000
0000
0000
,
1000
0000
0000
0010
0000
0000
0000
0000
,
0001
0000
0000
0100
0000
0000
0000
0000
,
1110
0000
0000
0000
,
1101
0000
0000
0000
,
1011
0000
0000
0000
,
0111
0000
0000
0000
,
1000
0000
0010
0000
,
1000
0000
0001
0000
,
0010
0000
0001
0000
,
0100
0000
0010
0000
,
1000
0100
1000
0001
,
0010
0001
0100
0010
,
1000
0001
0100
1000
,
0100
0001
0010
1000
,
0010
0001
1000
0100
,
0001
0100
0010
0001
,
0100
1000
0100
0010
,
1000
0100
0010
0001
,
1001
0000
0000
0000
,
0110
0000
0000
0000
,
1010
0000
0000
0000
,
0101
0000
0000
0000
,
2200
0000
0001
3300
,
0202
0000
0010
0303
,
2002
0000
0010
3003
,
2000
0000
0000
0010
3000
0000
0000
0000
,
0200
0000
0000
0001
0300
0000
0000
0000
,
0020
0000
0000
0100
0030
0000
0000
0000
,
2000
0000
0000
0001
3000
0000
0000
0000
,
1000
0010
1000
0001
,
0100
0010
0100
1000
,
0100
0010
0100
0001
,
0010
0100
1000
0010
,
0200
0300
0002
0003
,
1000
0010
0100
0001
,
2000
3000
0020
0030
,
0100
0001
1000
0010
,
0100
2020
0000
3030
,
0001
0001
0100
0010
,
1010
0000
0110
0000
,
0101
0000
1000
1000
,
1000
0010
0100
0001
,
0010
0202
0000
0303
,
1000
0001
0100
0010
,
1000
0001
1000
0010
,
0202
0000
0010
0300
,
2000
0000
0010
0003
,
0200
0000
0010
0000
,
3300
0000
0000
0000
0000
0000
0000
1001
;

//---------------dance-single - J. DeGarmo----------------
#NOTES:
     dance-single:
     J. DeGarmo:
     Beginner:
     1:
     0.081,0.000,0.019,0.000,0.000:
0000
0000
0000
0000
,
0000
0000
0000
0000
,
0000
0000
0000
0000
,
0000
0000
0000
0000
,
0001
0000
0000
0000
,
0000
0000
0000
0000
,
1000
0000
0000
0000
,
0000
0000
0000
0000
,
0010
0000
0000
0000
,
1000
0000
0000
0000
,
0001
0000
0000
0000
,
0100
0000
0000
0000
,
0001
0000
0000
0000
,
0010
0000
0000
0000
,
0100
0000
0000
0000
,
1000
0000
0000
0000
,
0010
0000
0000
0000
,
0100
0000
0000
0000
,
0001
0000
0000
0000
,
0010
0000
0000
0000
,
0001
0000
0000
0000
,
0100
0000
0100
0000
,
0100
0000
0000
0000
,
0010
0000
0000
0000
,
1000
0000
0000
0000
,
0010
0000
0010
0000
,
0010
0000
0000
0000
,
0100
0000
0000
0000
,
0001
0000
0000
0000
,
0000
0000
0000
0000
,
1000
0000
0000
0000
,
0000
0000
0000
0000
,
1001
0000
0000
0000
,
0000
0000
0000
0000
,
0000
0000
0000
0000
,
1000
0000
0000
0000
,
0100
0000
0000
0000
,
0010
0000
0000
0000
,
0001
0000
0000
0000
,
1000
0000
0000
0000
,
1000
0000
0000
0000
,
0010
0000
0000
0000
,
0010
0000
0000
0000
,
0100
0000
0000
0000
,
0100
0000
0000
0000
,
0001
0000
0000
0000
,
0001
0000
0000
0000
,
1000
0000
0000
0010
,
0010
0000
0000
0000
,
0100
0000
0000
0001
,
0001
0000
0000
0000
,
1000
0000
0100
0000
,
1000
0000
0000
0000
,
0001
0000
0010
0000
,
0001
0000
1000
0000
,
0001
0000
0000
0000
,
0100
0000
0000
0000
,
0010
0000
0000
0000
,
1000
0000
0000
0000
,
1001
0000
0000
0000
;
