#TITLE:V³;
#SUBTITLE:(Hello World);
#ARTIST:ZiGZaG HACKER;
#TITLETRANSLIT:;
#SUBTITLETRANSLIT:;
#ARTISTTRANSLIT:;
#GENRE:;
#CREDIT:;
#MENUCOLOR:;
#BANNER:;
#BACKGROUND:;
#LYRICSPATH:;
#CDTITLE:;
#MUSIC:v^3.mp3;
#OFFSET:-0.037;
#SAMPLESTART:58.720;
#SAMPLELENGTH:12.000;
#SELECTABLE:YES;
#LISTSORT:;
#DISPLAYBPM:*;
#BPMS:0.000=230.002,16.000=57.500,524.000=459.997,1184.000=919.994,1188.000=459.997,1218.000=919.994,1220.000=459.997,1228.000=349.998,1244.000=359.998,1260.000=369.998,1276.000=379.998,1292.000=389.998,1300.000=399.998,1308.000=409.998,1316.000=419.998,1324.000=429.998,1332.000=449.998,1336.000=459.998,1340.000=469.998,1344.000=479.998,1348.000=489.997,1352.000=499.997,1356.000=509.997,1360.000=519.997,1364.000=529.998,1368.000=539.998,1452.000=134.999,3780.000=149.999,3798.000=159.999,3800.000=164.999,3802.000=169.999,3804.000=174.999,3806.000=179.999,3808.000=184.999,3810.000=189.999,3812.000=194.999,3814.000=209.999,3816.000=219.999,3818.000=229.999,3820.000=239.999,3822.000=249.999,3824.000=259.999,3826.000=269.999,3828.000=279.999,3830.000=289.999,3832.000=299.999,3834.000=309.999,3836.000=319.999,3838.000=329.999,3840.000=339.999,3842.000=349.999,3844.000=359.999,3846.000=369.999,3848.000=389.999,3850.000=419.999,3852.000=439.998,3854.000=459.998,3858.000=499.997,3860.000=519.997,3862.000=539.997,3864.000=559.997,3866.000=579.997,3868.000=599.997,3870.000=619.997,3874.000=639.996,3878.000=159.999,4004.000=579.999,4064.000=1159.998,4068.000=579.999,4102.000=1159.998,4106.000=579.999,4216.000=145.000,4223.000=888888.000,4229.000=145.000;
#STOPS:16.000=-12.522
,28.063=-12.522
,40.125=-12.522
,52.188=-12.522
,64.250=-12.522
,76.375=-12.522
,88.438=-12.522
,100.563=-12.522
,112.625=-12.522
,124.688=-12.522
,136.813=-12.522
,148.875=-12.522
,160.938=-12.522
,173.000=-12.522
,185.125=-12.522
,197.250=-12.522
,209.500=-12.522
,221.750=-12.522
,233.813=-12.522
,245.875=-12.522
,257.938=-12.522
,270.000=-12.522
,282.063=-12.522
,294.125=-12.522
,306.188=-12.522
,318.250=-12.522
,330.313=-12.522
,342.375=-12.522
,354.438=-12.522
,366.500=-12.522
,378.583=-12.522
,390.667=-12.522
,402.750=-12.522
,414.833=-12.522
,426.917=-12.522
,439.000=-12.522
,451.083=-12.522
,463.167=-12.522
,475.250=-12.522
,487.333=-12.522
,499.417=-12.522
,511.500=-12.522
,547.000=-1.565
,559.125=-1.565
,571.250=-1.565
,583.375=-1.565
,595.500=-1.565
,607.625=-1.565
,619.750=-1.565
,663.000=-1.565
,675.125=-1.565
,687.250=-1.565
,699.375=-1.565
,711.500=-1.565
,723.625=-1.565
,735.750=-1.565
,747.875=-1.565
,760.000=-1.565
,772.125=-1.565
,784.250=-1.565
,796.375=-1.565
,808.500=-1.565
,820.625=-1.565
,832.750=-1.565
,844.875=-1.565
,857.000=-1.565
,869.125=-1.565
,881.250=-1.565
,893.375=-1.565
,905.500=-1.565
,917.625=-1.565
,929.750=-1.565
,941.875=-1.565
,954.000=-1.565
,966.125=-1.565
,978.250=-1.565
,990.375=-1.565
,1002.500=-1.565
,1014.625=-1.565
,1026.750=-1.565
,1038.875=-1.565
,1051.000=-1.565
,1063.125=-1.565
,1075.250=-1.565
,1087.375=-1.565
,1099.500=-1.565
,1111.625=-1.565
,1123.750=-1.565
,1135.875=-1.565
,1148.000=-1.565
,1184.000=0.043
,1184.667=0.043
,1185.333=0.043
,1186.000=0.043
,1186.667=0.043
,1187.333=0.043
,1218.000=0.043
,1218.667=0.043
,1219.333=0.043
,1386.938=-1.333
,1399.938=-1.333
,1452.000=-5.333
,1464.063=-5.333
,1476.125=-5.333
,1488.188=-5.333
,1500.250=-5.333
,1512.313=-5.333
,1524.375=-5.333
,1536.438=-5.333
,1548.500=-5.333
,1560.563=-5.333
,1572.625=-5.333
,1584.688=-5.333
,1596.750=-5.333
,1608.813=-5.333
,1620.875=-5.333
,1632.938=-5.333
,1645.000=-5.333
,1657.063=-5.333
,1669.125=-5.333
,1681.188=-5.333
,1693.250=-5.333
,1705.313=-5.333
,1717.375=-5.333
,1729.438=-5.333
,1741.500=-5.333
,1753.563=-5.333
,1765.625=-5.333
,1777.688=-5.333
,1789.750=-5.333
,1801.813=-5.333
,1813.875=-5.333
,1825.938=-5.333
,1838.000=-5.333
,1850.063=-5.333
,1862.125=-5.333
,1874.188=-5.333
,1886.250=-5.333
,1898.313=-5.333
,1910.375=-5.333
,1922.438=-5.333
,1934.500=-5.333
,1946.563=-5.333
,1958.625=-5.333
,1970.688=-5.333
,1982.750=-5.333
,1994.813=-5.333
,2006.875=-5.333
,2018.938=-5.333
,2031.000=-5.333
,2043.063=-5.333
,2055.125=-5.333
,2067.188=-5.333
,2079.250=-5.333
,2091.313=-5.333
,2103.375=-5.333
,2115.438=-5.333
,2127.500=-5.333
,2139.563=-5.333
,2151.625=-5.333
,2163.688=-5.333
,2175.750=-5.333
,2187.813=-5.333
,2199.875=-5.333
,2211.938=-5.333
,2224.000=-5.333
,2236.063=-5.333
,2248.125=-5.333
,2260.188=-5.333
,2272.250=-5.333
,2284.313=-5.333
,2296.375=-5.333
,2308.438=-5.333
,2320.500=-5.333
,2332.563=-5.333
,2344.625=-5.333
,2356.688=-5.333
,2368.750=-5.333
,2380.813=-5.333
,2392.875=-5.333
,2404.938=-5.333
,2417.000=-5.333
,2429.063=-5.333
,2441.125=-5.333
,2453.188=-5.333
,2465.250=-5.333
,2477.313=-5.333
,2489.375=-5.333
,2501.438=-5.333
,2513.500=-5.333
,2525.563=-5.333
,2537.625=-5.333
,2549.688=-5.333
,2561.750=-5.333
,2573.813=-5.333
,2585.875=-5.333
,2597.938=-5.333
,2610.000=-5.333
,2622.063=-5.333
,2634.125=-5.333
,2646.188=-5.333
,2658.250=-5.333
,2670.313=-5.333
,2682.375=-5.333
,2694.438=-5.333
,2706.500=-5.333
,2718.563=-5.333
,2730.625=-5.333
,2742.688=-5.333
,2754.750=-5.333
,2766.813=-5.333
,2778.875=-5.333
,2790.938=-5.333
,2803.000=-5.333
,2815.063=-5.333
,2827.125=-5.333
,2839.188=-5.333
,2851.250=-5.333
,2863.313=-5.333
,2875.375=-5.333
,2887.438=-5.333
,2899.500=-5.333
,2911.563=-5.333
,2923.625=-5.333
,2935.688=-5.333
,2947.750=-5.333
,2959.813=-5.333
,2971.875=-5.333
,2983.938=-5.333
,2996.000=-5.333
,3008.063=-5.333
,3020.125=-5.333
,3032.188=-5.333
,3044.250=-5.333
,3056.313=-5.333
,3068.375=-5.333
,3080.438=-5.333
,3092.500=-5.333
,3104.563=-5.333
,3116.625=-5.333
,3128.688=-5.333
,3140.750=-5.333
,3152.813=-5.333
,3164.875=-5.333
,3176.938=-5.333
,3189.000=-5.333
,3201.063=-5.333
,3213.125=-5.333
,3225.188=-5.333
,3237.250=-5.333
,3249.313=-5.333
,3261.375=-5.333
,3273.438=-5.333
,3285.500=-5.333
,3297.563=-5.333
,3309.625=-5.333
,3321.688=-5.333
,3333.750=-5.333
,3345.813=-5.333
,3357.875=-5.333
,3369.938=-5.333
,3382.000=-5.333
,3394.063=-5.333
,3406.125=-5.333
,3418.188=-5.333
,3430.250=-5.333
,3442.313=-5.333
,3454.375=-5.333
,3466.438=-5.333
,3478.500=-5.333
,3490.563=-5.333
,3502.625=-5.333
,3514.688=-5.333
,3526.750=-5.333
,3538.813=-5.333
,3550.875=-5.333
,3562.938=-5.333
,3575.000=-5.333
,3587.063=-5.333
,3599.125=-5.333
,3611.188=-5.333
,3623.250=-5.333
,3635.313=-5.333
,3647.375=-5.333
,3659.438=-5.333
,3671.500=-5.333
,3683.563=-5.333
,3695.625=-5.333
,3707.688=-5.333
,3719.750=-5.333
,3731.813=-5.333
,3743.875=-5.333
,3755.938=-5.333
,3768.000=-5.333
,3878.000=1.500
,3881.125=-4.500
,3893.313=-4.500
,3905.500=-4.500
,3917.688=-4.500
,3929.875=-4.500
,3942.063=-4.500
,3954.250=-4.500
,3966.438=-4.500
,3978.625=-4.500
,3990.813=-4.500
,4002.813=0.375
,4064.000=0.052
,4065.000=0.052
,4066.000=0.052
,4067.000=0.052
,4073.938=-1.241
,4086.938=-1.241
,4102.000=0.034
,4102.667=0.034
,4103.333=0.034
,4104.000=0.035
,4104.667=0.034
,4105.333=0.034
,4105.938=-1.241
,4118.938=-1.241
,4141.938=-1.241
,4155.938=-1.241
,4169.938=-1.241
,4217.000=-0.414
,4219.000=-0.414
,4221.000=-0.414
,4222.000=0.207
,4223.000=0.414
,4224.000=0.414
,4225.000=0.414
,4226.000=0.414
,4227.000=0.414
,4228.000=0.414
;
#TICKCOUNT:0.000=2;
#BGCHANGES:;
#KEYSOUNDS:;
#ATTACKS:;

//---------------dance-single - ----------------
#NOTES:
     dance-single:
     :
     Hard:
     99:
     1.000,1.000,1.000,0.166,1.000: // measure 1
0000
0000
0000
0000
,  // measure 2
0000
0000
0000
0000
,  // measure 3
0000
0000
0000
0000
,  // measure 4
0000
0000
0000
0000
,  // measure 5
0000
0000
0000
0000
0000
0000
0000
M000
,  // measure 6
000M
0M00
000M
00M0
0M00
M000
000M
0000
,  // measure 7
0000
0000
0000
0000
,  // measure 8
0000
0000
0000
0000
0000
0000
0000
M000
,  // measure 9
0000
000M
0000
0M00
0000
000M
0000
00M0
,  // measure 10
0000
0M00
0000
M000
0000
000M
0000
0000
,  // measure 11
0000
0000
0000
0000
0000
0000
0000
M000
,  // measure 12
000M
0M00
000M
00M0
0M00
M000
000M
0000
,  // measure 13
0000
0000
0000
0000
,  // measure 14
0000
0000
0000
0000
0000
0000
0000
M000
,  // measure 15
0000
000M
0000
0M00
0000
000M
0000
00M0
,  // measure 16
0000
0M00
0000
M000
0000
000M
0000
0000
,  // measure 17
0000
0000
0000
0000
0000
0000
0000
M000
,  // measure 18
000M
0M00
000M
00M0
0M00
M000
000M
0000
,  // measure 19
0000
0000
0000
0000
,  // measure 20
0000
0000
0000
0000
0000
0000
0000
M000
,  // measure 21
0000
000M
0000
0M00
0000
000M
0000
00M0
,  // measure 22
0000
0M00
0000
M000
0000
000M
0000
0000
,  // measure 23
0000
0000
0000
0000
0000
0000
0000
M000
,  // measure 24
000M
0M00
000M
00M0
0M00
M000
000M
0000
,  // measure 25
0000
0000
0000
0000
,  // measure 26
0000
0000
0000
0000
0000
0000
0000
M000
,  // measure 27
0000
000M
0000
0M00
0000
000M
0000
00M0
,  // measure 28
0000
0M00
0000
M000
0000
000M
0000
0000
,  // measure 29
0000
0000
0000
0000
0000
0000
0000
M000
,  // measure 30
000M
0M00
000M
00M0
0M00
M000
000M
0000
,  // measure 31
0000
0000
0000
0000
,  // measure 32
0000
0000
0000
0000
0000
0000
0000
M000
,  // measure 33
0000
000M
0000
0M00
0000
000M
0000
00M0
,  // measure 34
0000
0M00
0000
M000
0000
000M
0000
0000
,  // measure 35
0000
0000
0000
0000
0000
0000
0000
M000
,  // measure 36
000M
0M00
000M
00M0
0M00
M000
000M
0000
,  // measure 37
0000
0000
0000
0000
,  // measure 38
0000
0000
0000
0000
0000
0000
0000
M000
,  // measure 39
0000
000M
0000
0M00
0000
000M
0000
00M0
,  // measure 40
0000
0M00
0000
M000
0000
000M
0000
0000
,  // measure 41
0000
0000
0000
0000
0000
0000
0000
M000
,  // measure 42
000M
0M00
000M
00M0
0M00
M000
000M
0000
,  // measure 43
0000
0000
0000
0000
,  // measure 44
0000
0000
0000
0000
0000
0000
0000
M000
,  // measure 45
0000
000M
0000
0M00
0000
000M
0000
00M0
,  // measure 46
0000
0M00
0000
M000
0000
000M
0000
0000
,  // measure 47
0000
0000
0000
0000
0000
0000
0000
000M
,  // measure 48
0000
M000
0000
00M0
0000
M000
0000
0M00
,  // measure 49
0000
00M0
0000
000M
0000
M000
0000
0000
,  // measure 50
0000
0000
0000
0000
0000
0000
0000
M000
,  // measure 51
0000
000M
0000
0M00
0000
000M
0000
00M0
,  // measure 52
0000
0M00
0000
M000
0000
000M
0000
0000
,  // measure 53
0000
0000
0000
0000
0000
0000
0000
000M
,  // measure 54
0000
M000
0000
00M0
0000
M000
0000
0M00
,  // measure 55
0000
00M0
0000
000M
0000
M000
0000
0000
,  // measure 56
0000
0000
0000
0000
0000
0000
0000
M000
,  // measure 57
0000
000M
0000
0M00
0000
000M
0000
00M0
,  // measure 58
0000
0M00
0000
M000
0000
000M
0000
0000
,  // measure 59
0000
0000
0000
0000
0000
0000
0000
0000
0000
0000
0000
0000
0000
0000
0000
0000
0000
0000
0000
0000
0000
0000
0000
0000
0000
0000
0000
0000
0000
M000
0000
0000
,  // measure 60
0000
0000
0000
0000
0000
000M
0000
0000
0000
0000
0000
0000
0000
0M00
0000
0000
0000
0000
0000
0000
0000
000M
0000
0000
0000
0000
0000
0000
0000
00M0
0000
0000
,  // measure 61
0000
0000
0000
0000
0000
0M00
0000
0000
0000
0000
0000
0000
0000
M000
0000
0000
0000
0000
0000
0000
0000
000M
0000
0000
0000
0000
0000
0000
0000
0000
0000
0000
,  // measure 62
0000
0000
0000
0000
0000
0000
0000
0000
0000
0000
0000
0000
0000
0000
0000
M000
,  // measure 63
0000
0000
0000
000M
0000
0000
0000
0M00
0000
0000
0000
000M
0000
0000
0000
00M0
,  // measure 64
0000
0000
0000
0M00
0000
0000
0000
M000
0000
0000
0000
000M
0000
0000
0000
0000
,  // measure 65
0000
0000
0000
0000
0000
0000
0000
0000
0000
0000
0000
0000
0000
0000
0000
0000
0000
0000
0000
0000
0000
0000
0000
0000
0000
0000
0000
0000
0000
0000
0000
M000
,  // measure 66
0000
0000
0000
0000
0000
0000
0000
000M
0000
0000
0000
0000
0000
0000
0000
0M00
0000
0000
0000
0000
0000
0000
0000
000M
0000
0000
0000
0000
0000
0000
0000
00M0
,  // measure 67
0000
0000
0000
0000
0000
0000
0000
0M00
0000
0000
0000
0000
0000
0000
0000
M000
0000
0000
0000
0000
0000
0000
0000
000M
0000
0000
0000
0000
0000
0000
0000
0000
,  // measure 68
0000
0000
0000
0000
,  // measure 69
M000
000M
0M00
000M
,  // measure 70
00M0
0M00
M000
000M
,  // measure 71
0000
0000
0000
0000
,  // measure 72
0000
M000
0000
0000
0000
0000
0000
0000
0000
000M
0000
0000
0000
0000
0000
0000
0000
0M00
0000
0000
0000
0000
0000
0000
0000
000M
0000
0000
0000
0000
0000
0000
,  // measure 73
0000
00M0
0000
0000
0000
0000
0000
0000
0000
0M00
0000
0000
0000
0000
0000
0000
0000
M000
0000
0000
0000
0000
0000
0000
0000
000M
0000
0000
0000
0000
0000
0000
,  // measure 74
0000
0000
0000
0000
,  // measure 75
0000
M000
0000
0000
0000
000M
0000
0000
0000
0M00
0000
0000
0000
000M
0000
0000
,  // measure 76
0000
00M0
0000
0000
0000
0M00
0000
0000
0000
M000
0000
0000
0000
000M
0000
0000
,  // measure 77
0000
0000
0000
0000
,  // measure 78
0000
0000
0000
M000
0000
0000
0000
0000
0000
0000
0000
000M
0000
0000
0000
0000
0000
0000
0000
0M00
0000
0000
0000
0000
0000
0000
0000
000M
0000
0000
0000
0000
,  // measure 79
0000
0000
0000
00M0
0000
0000
0000
0000
0000
0000
0000
0M00
0000
0000
0000
0000
0000
0000
0000
M000
0000
0000
0000
0000
0000
0000
0000
000M
0000
0000
0000
0000
,  // measure 80
0000
0000
0000
0000
,  // measure 81
0000
M000
0000
000M
0000
0M00
0000
000M
,  // measure 82
0000
00M0
0000
0M00
0000
M000
0000
000M
,  // measure 83
0000
0000
0000
0000
,  // measure 84
0000
0000
0000
M000
0000
0000
0000
0000
0000
0000
0000
000M
0000
0000
0000
0000
0000
0000
0000
0M00
0000
0000
0000
0000
0000
0000
0000
000M
0000
0000
0000
0000
,  // measure 85
0000
0000
0000
00M0
0000
0000
0000
0000
0000
0000
0000
0M00
0000
0000
0000
0000
0000
0000
0000
M000
0000
0000
0000
0000
0000
0000
0000
000M
0000
0000
0000
0000
,  // measure 86
0000
0000
0000
0000
,  // measure 87
0000
M000
0000
0000
0000
000M
0000
0000
0000
0M00
0000
0000
0000
000M
0000
0000
,  // measure 88
0000
00M0
0000
0000
0000
0M00
0000
0000
0000
M000
0000
0000
0000
000M
0000
0000
,  // measure 89
0000
0000
0000
0000
,  // measure 90
0000
M000
0000
0000
0000
0000
0000
0000
0000
000M
0000
0000
0000
0000
0000
0000
0000
0M00
0000
0000
0000
0000
0000
0000
0000
000M
0000
0000
0000
0000
0000
0000
,  // measure 91
0000
00M0
0000
0000
0000
0000
0000
0000
0000
0M00
0000
0000
0000
0000
0000
0000
0000
M000
0000
0000
0000
0000
0000
0000
0000
000M
0000
0000
0000
0000
0000
0000
,  // measure 92
0000
0000
0000
0000
,  // measure 93
M000
000M
0M00
000M
,  // measure 94
00M0
0M00
M000
000M
,  // measure 95
0000
0000
0000
0000
,  // measure 96
1000
0001
0100
0001
,  // measure 97
0010
0100
1000
0001
,  // measure 98
0000
0000
0000
0000
,  // measure 99
M000
000M
0M00
000M
,  // measure 100
00M0
0M00
M000
000M
,  // measure 101
0000
0000
0000
0000
,  // measure 102
1000
0001
0100
0001
,  // measure 103
0010
0100
1000
0001
,  // measure 104
0000
0000
0000
0000
,  // measure 105
M000
000M
0M00
000M
,  // measure 106
00M0
0M00
M000
000M
,  // measure 107
0000
0000
0000
0000
,  // measure 108
1000
0001
0100
0001
,  // measure 109
0010
0100
1000
0001
,  // measure 110
0000
0000
0000
0000
,  // measure 111
M000
000M
0M00
000M
,  // measure 112
00M0
0M00
M000
000M
,  // measure 113
0000
0000
0000
0000
,  // measure 114
1000
0001
0100
0001
,  // measure 115
0010
0100
1000
0001
,  // measure 116
0000
0000
0000
0000
,  // measure 117
M000
000M
0M00
000M
,  // measure 118
00M0
0M00
M000
000M
,  // measure 119
0000
0000
0000
0000
,  // measure 120
1000
0001
0100
0001
,  // measure 121
0010
0100
1000
0001
,  // measure 122
0000
0000
0000
0000
,  // measure 123
M000
000M
0M00
000M
,  // measure 124
00M0
0M00
M000
000M
,  // measure 125
0000
0000
0000
0000
,  // measure 126
1000
0001
0100
0001
,  // measure 127
0010
0100
1000
0001
,  // measure 128
0000
0000
0000
0000
,  // measure 129
M000
000M
0M00
000M
,  // measure 130
00M0
0M00
M000
000M
,  // measure 131
0000
0000
0000
0000
,  // measure 132
1000
0001
0100
0001
,  // measure 133
0010
0100
1000
0001
,  // measure 134
0100
0010
1000
1010
,  // measure 135
0000
0000
0100
0000
0001
1000
0001
1000
,  // measure 136
0001
0100
0010
0100
,  // measure 137
1000
0000
0000
0000
0100
0000
0000
0000
0001
0000
0000
0000
0000
1000
0000
0000
,  // measure 138
0000
1000
0000
0000
0000
0100
0000
0000
0000
0001
0000
0000
0000
0100
0000
0000
,  // measure 139
0000
0010
0000
0000
0000
0001
0000
0000
0000
0000
0000
0000
0000
0000
0000
0000
,  // measure 140
0000
0000
0000
0000
0000
0000
0000
1000
,  // measure 141
0000
1000
0000
0100
0000
0001
0000
0100
,  // measure 142
0000
0010
0000
0001
0000
0000
0000
0000
,  // measure 143
0000
0000
0000
0000
0000
0000
0000
0000
0000
0000
0000
0000
0000
0000
0000
1000
,  // measure 144
0000
0000
0000
1000
0000
0000
0000
0100
0000
0000
0000
0001
0000
0000
0000
0100
,  // measure 145
0000
0000
0000
0010
0000
0000
0000
0001
0000
0000
0000
0000
0000
0000
0000
0000
,  // measure 146
0000
0000
0000
0000
,  // measure 147
1000
1000
0100
0001
,  // measure 148
0100
0010
0001
0000
,  // measure 149
0000
0000
0000
0000
,  // measure 150
0000
1000
0000
0000
0000
1000
0000
0000
0000
0100
0000
0000
0000
0001
0000
0000
,  // measure 151
0000
0100
0000
0000
0000
0010
0000
0000
0000
0001
0000
0000
0000
0000
0000
0000
,  // measure 152
0000
0000
0000
0000
,  // measure 153
0000
1000
0000
1000
0000
0100
0000
0001
,  // measure 154
0000
0100
0000
0010
0000
0001
0000
0000
,  // measure 155
0000
0000
0000
0000
,  // measure 156
0000
0000
0000
1000
0000
0000
0000
1000
0000
0000
0000
0100
0000
0000
0000
0001
,  // measure 157
0000
0000
0000
0100
0000
0000
0000
0010
0000
0000
0000
0001
0000
0000
0000
0000
,  // measure 158
0000
0000
0000
0000
,  // measure 159
0000
1000
1000
0100
,  // measure 160
0001
0100
0010
0001
,  // measure 161
1000
0010
0100
0010
,  // measure 162
1000
0000
1000
0000
0100
0000
0010
0001
,  // measure 163
0010
0000
0100
1000
0010
0000
0100
0001
,  // measure 164
1010
1010
0110
0110
,  // measure 165
0001
1000
0001
1000
,  // measure 166
0010
0000
0000
0000
0100
0000
0000
0000
0010
0000
0000
0000
0000
0000
0000
00M0
,  // measure 167
0000
0000
0000
0M00
0000
M000
0000
0000
0000
000M
0000
00M0
0000
0000
0000
000M
,  // measure 168
0000
0000
0000
0M00
0000
0000
0000
0000
0000
0000
0000
0000
0000
0000
0000
0000
,  // measure 169
0000
0000
0000
0000
,  // measure 170
0010
0000
0100
1000
0000
0001
0010
0000
,  // measure 171
0001
0100
0000
0000
,  // measure 172
0000
0000
0000
0000
,  // measure 173
0000
00M0
0000
0000
0000
0M00
0000
M000
0000
0000
0000
000M
0000
00M0
0000
0000
,  // measure 174
0000
000M
0000
0000
0000
0M00
0000
0000
0000
0000
0000
0000
0000
0000
0000
0000
,  // measure 175
0000
0000
0000
0000
0000
0000
0000
0100
,  // measure 176
0000
0010
0000
0100
1000
0000
0001
0010
,  // measure 177
0000
0001
0000
0100
0000
0000
0000
0000
,  // measure 178
0000
0000
0000
0000
0000
0000
0000
0000
0000
0000
0000
0000
0000
0000
0000
0M00
,  // measure 179
0000
0000
0000
00M0
0000
0000
0000
0M00
0000
M000
0000
0000
0000
000M
0000
00M0
,  // measure 180
0000
0000
0000
000M
0000
0000
0000
0M00
0000
0000
0000
0000
0000
0000
0000
0000
,  // measure 181
0000
0000
0000
0000
,  // measure 182
0100
0000
0010
0000
0100
1000
0000
0001
,  // measure 183
0010
0001
0100
0000
,  // measure 184
0000
0000
0000
0000
,  // measure 185
0000
0M00
0000
0000
0000
00M0
0000
0000
0000
0M00
0000
M000
0000
0000
0000
000M
,  // measure 186
0000
00M0
0000
0000
0000
000M
0000
0000
0000
0M00
0000
0000
0000
0000
0000
0000
,  // measure 187
0000
0000
0000
0000
,  // measure 188
0000
0100
0000
0010
0000
0100
1000
0000
,  // measure 189
0001
0010
0000
0001
0000
0100
0000
0000
,  // measure 190
0000
0000
0000
0000
,  // measure 191
0000
0000
0000
0M00
0000
0000
0000
00M0
0000
0000
0000
0M00
0000
M000
0000
0000
,  // measure 192
0000
000M
0000
00M0
0000
0000
0000
000M
0000
0000
0000
0M00
0000
0000
0000
0000
,  // measure 193
0000
0000
0000
0000
,  // measure 194
0000
0000
0100
0000
0010
0000
0100
1000
,  // measure 195
0000
0001
0010
0000
0001
0000
0100
0000
,  // measure 196
0000
0000
0000
0000
,  // measure 197
0000
M000
0000
0000
0000
0M00
0000
0000
0000
00M0
0000
0000
0000
0M00
0000
M000
,  // measure 198
0000
0000
0000
000M
0000
00M0
0000
0000
0000
000M
0000
0000
0000
0M00
0000
0000
,  // measure 199
0000
0000
0000
0000
,  // measure 200
0000
1000
0000
0100
0000
0010
0000
0100
,  // measure 201
1000
0000
0001
0010
0000
0001
0000
0100
,  // measure 202
0000
0000
0000
0000
,  // measure 203
0000
0000
0000
M000
0000
0000
0000
0M00
0000
0000
0000
00M0
0000
0000
0000
0M00
,  // measure 204
0000
M000
0000
0000
0000
000M
0000
00M0
0000
0000
0000
000M
0000
0000
0000
0M00
,  // measure 205
0000
0000
0000
0000
,  // measure 206
0000
1000
0100
0010
,  // measure 207
0100
1000
0000
0001
0010
0000
0001
0000
,  // measure 208
0100
0000
0000
0000
,  // measure 209
0000
0000
0000
0000
0000
M000
0000
0000
0000
0M00
0000
0000
0000
00M0
0000
0000
,  // measure 210
0000
0M00
0000
M000
0000
0000
0000
000M
0000
00M0
0000
0000
0000
000M
0000
0000
,  // measure 211
0000
0M00
0000
0000
0000
0000
0000
0000
0000
0000
0000
0000
0000
0000
0000
0000
,  // measure 212
0000
0000
0000
1000
0000
0100
0000
0010
,  // measure 213
0000
0100
1000
0000
0001
0010
0000
0001
,  // measure 214
0000
0100
0000
0000
0000
0000
0000
0000
,  // measure 215
0000
0000
0000
0000
0000
0000
0000
M000
0000
0000
0000
0M00
0000
0000
0000
00M0
,  // measure 216
0000
0000
0000
0M00
0000
M000
0000
0000
0000
000M
0000
00M0
0000
0000
0000
000M
,  // measure 217
0000
0000
0000
0M00
0000
0000
0000
0000
0000
0000
0000
0000
0000
0000
0000
0000
,  // measure 218
0000
0000
1000
0100
,  // measure 219
0010
0000
0100
1000
0000
0001
0010
0000
,  // measure 220
0001
0100
0000
0000
,  // measure 221
0000
0000
0000
0000
0000
0000
0000
0000
0000
M000
0000
0000
0000
0M00
0000
0000
,  // measure 222
0000
00M0
0000
0000
0000
0M00
0000
M000
0000
0000
0000
000M
0000
00M0
0000
0000
,  // measure 223
0000
000M
0000
0000
0000
0M00
0000
0000
0000
0000
0000
0000
0000
0000
0000
0000
,  // measure 224
0000
0000
0000
0000
0000
1000
0000
0100
,  // measure 225
0000
0010
0000
0100
1000
0000
0001
0010
,  // measure 226
0000
0001
0000
0100
0000
0000
0000
0000
,  // measure 227
0000
0000
0000
0000
0000
0000
0000
0000
0000
0000
0000
M000
0000
0000
0000
0M00
,  // measure 228
0000
0000
0000
00M0
0000
0000
0000
0M00
0000
M000
0000
0000
0000
000M
0000
00M0
,  // measure 229
0000
0000
0000
000M
0000
0000
0000
0M00
0000
0000
0000
0000
0000
0000
0000
0000
,  // measure 230
0000
0000
0000
1000
,  // measure 231
0100
0000
0010
0000
0100
1000
0000
0001
,  // measure 232
0010
0001
0100
0000
,  // measure 233
0000
0000
0000
0000
0000
0000
0000
0000
0000
0000
0000
0000
0000
M000
0000
0000
,  // measure 234
0000
0M00
0000
0000
0000
00M0
0000
0000
0000
0M00
0000
M000
0000
0000
0000
000M
,  // measure 235
0000
00M0
0000
0000
0000
000M
0000
0000
0000
0M00
0000
0000
0000
0000
0000
0000
,  // measure 236
0000
0000
0000
0000
0000
0000
0000
1000
,  // measure 237
0000
0100
0000
0010
0000
0100
1000
0000
,  // measure 238
0001
0010
0000
0001
0000
0100
0000
0000
,  // measure 239
0000
0000
0000
0000
0000
0000
0000
0000
0000
0000
0000
0000
0000
0000
0000
M000
,  // measure 240
0000
0000
0000
0M00
0000
0000
0000
00M0
0000
0000
0000
0M00
0000
M000
0000
0000
,  // measure 241
0000
000M
0000
00M0
0000
0000
0000
000M
0000
0000
0000
0M00
0000
0000
0000
0000
,  // measure 242
0000
0000
0000
0000
,  // measure 243
1000
0000
0100
0000
0010
0000
0100
1000
,  // measure 244
0000
0001
0010
0000
0001
0000
0100
0000
,  // measure 245
0000
0000
0000
0000
,  // measure 246
0000
M000
0000
0000
0000
0M00
0000
0000
0000
00M0
0000
0000
0000
0M00
0000
M000
,  // measure 247
0000
0000
0000
000M
0000
00M0
0000
0000
0000
000M
0000
0000
0000
0M00
0000
0000
,  // measure 248
0000
0000
0000
0000
,  // measure 249
0000
1000
0000
0100
0000
0010
0000
0100
,  // measure 250
1000
0000
0001
0010
0000
0001
0000
0100
,  // measure 251
0000
0000
0000
0000
,  // measure 252
0000
0000
0000
M000
0000
0000
0000
0M00
0000
0000
0000
00M0
0000
0000
0000
0M00
,  // measure 253
0000
M000
0000
0000
0000
000M
0000
00M0
0000
0000
0000
000M
0000
0000
0000
0M00
,  // measure 254
0000
0000
0000
0000
,  // measure 255
0000
1000
0100
0010
,  // measure 256
0100
1000
0000
0001
0010
0000
0001
0000
,  // measure 257
0100
0000
0000
0000
,  // measure 258
0000
0000
0000
0000
0000
M000
0000
0000
0000
0M00
0000
0000
0000
00M0
0000
0000
,  // measure 259
0000
0M00
0000
M000
0000
0000
0000
000M
0000
00M0
0000
0000
0000
000M
0000
0000
,  // measure 260
0000
0M00
0000
0000
0000
0000
0000
0000
0000
0000
0000
0000
0000
0000
0000
0000
,  // measure 261
0000
0000
0000
1000
0000
0100
0000
0010
,  // measure 262
0000
0100
1000
0000
0001
0010
0000
0001
,  // measure 263
0000
0100
0000
0000
0000
0000
0000
0000
,  // measure 264
0000
0000
0000
0000
0000
0000
0000
M000
0000
0000
0000
0M00
0000
0000
0000
00M0
,  // measure 265
0000
0000
0000
0M00
0000
M000
0000
0000
0000
000M
0000
00M0
0000
0000
0000
000M
,  // measure 266
0000
0000
0000
0M00
0000
0000
0000
0000
0000
0000
0000
0000
0000
0000
0000
0000
,  // measure 267
0000
0000
1000
0100
,  // measure 268
0010
0000
0100
1000
0000
0001
0010
0000
,  // measure 269
0001
0100
0000
0000
,  // measure 270
0000
0000
0000
0000
0000
0000
0000
0000
0000
M000
0000
0000
0000
0M00
0000
0000
,  // measure 271
0000
00M0
0000
0000
0000
0M00
0000
M000
0000
0000
0000
000M
0000
00M0
0000
0000
,  // measure 272
0000
000M
0000
0000
0000
0M00
0000
0000
0000
0000
0000
0000
0000
0000
0000
0000
,  // measure 273
0000
0000
0000
0000
0000
1000
0000
0100
,  // measure 274
0000
0010
0000
0100
1000
0000
0001
0010
,  // measure 275
0000
0001
0000
0100
0000
0000
0000
0000
,  // measure 276
0000
0000
0000
0000
0000
0000
0000
0000
0000
0000
0000
M000
0000
0000
0000
0M00
,  // measure 277
0000
0000
0000
00M0
0000
0000
0000
0M00
0000
M000
0000
0000
0000
000M
0000
00M0
,  // measure 278
0000
0000
0000
000M
0000
0000
0000
0M00
0000
0000
0000
0000
0000
0000
0000
0000
,  // measure 279
0000
0000
0000
1000
,  // measure 280
0100
0000
0010
0000
0100
1000
0000
0001
,  // measure 281
0010
0001
0100
0000
,  // measure 282
0000
0000
0000
0000
0000
0000
0000
0000
0000
0000
0000
0000
0000
M000
0000
0000
,  // measure 283
0000
0M00
0000
0000
0000
00M0
0000
0000
0000
0M00
0000
M000
0000
0000
0000
000M
,  // measure 284
0000
00M0
0000
0000
0000
000M
0000
0000
0000
0M00
0000
0000
0000
0000
0000
0000
,  // measure 285
0000
0000
0000
0000
0000
0000
0000
1000
,  // measure 286
0000
0100
0000
0010
0000
0100
1000
0000
,  // measure 287
0001
0010
0000
0001
0000
0100
0000
0000
,  // measure 288
0000
0000
0000
0000
0000
0000
0000
0000
0000
0000
0000
0000
0000
0000
0000
M000
,  // measure 289
0000
0000
0000
0M00
0000
0000
0000
00M0
0000
0000
0000
0M00
0000
M000
0000
0000
,  // measure 290
0000
000M
0000
00M0
0000
0000
0000
000M
0000
0000
0000
0M00
0000
0000
0000
0000
,  // measure 291
0000
0000
0000
0000
,  // measure 292
1000
0000
0100
0000
0010
0000
0100
1000
,  // measure 293
0000
0001
0010
0000
0001
0000
0100
0000
,  // measure 294
0001
0010
0000
0100
,  // measure 295
0010
0000
0000
0000
0001
0100
0000
0100
,  // measure 296
0010
1000
0000
0100
0000
0010
0001
0010
,  // measure 297
0100
0000
1000
0000
0100
0000
1000
0000
0100
0000
1000
0000
,  // measure 298
0011
0010
1000
0011
,  // measure 299
0010
1000
0011
0010
,  // measure 300
1000
0000
0100
0000
1000
0000
0010
0100
,  // measure 301
0001
0100
0000
0010
1000
0100
0000
0010
,  // measure 302
0001
0001
0000
0001
,  // measure 303
0001
0000
0100
0000
0010
1000
0010
1000
,  // measure 304
0100
0000
0010
0001
0010
0000
0100
0000
,  // measure 305
0000
0000
0000
1000
0000
0000
0010
0000
0100
0000
0010
0000
,  // measure 306
1001
0000
0000
0000
,  // measure 307
1001
0000
0000
0000
,  // measure 308
1000
0000
0100
0010
0100
0000
1000
0000
,  // measure 309
0001
0010
0000
0001
0010
0000
0100
1000
,  // measure 310
0001
0000
0100
0010
0100
0000
0001
0000
,  // measure 311
1000
0010
0000
1000
0010
0000
0100
0001
,  // measure 312
1000
0000
0001
0100
0001
0000
1000
0000
,  // measure 313
0010
0100
0000
0010
0100
0000
0010
1000
,  // measure 314
0001
0000
1000
0100
1000
0000
0001
0000
,  // measure 315
0010
0100
0000
0010
0100
1000
0100
1000
,  // measure 316
MM11
0000
0100
1000
0001
0000
0010
0000
,  // measure 317
0001
1000
0000
0001
1000
0000
0010
1000
,  // measure 318
0001
0000
0100
0001
1000
0000
0010
0000
,  // measure 319
1000
0001
0000
1000
0001
0000
0010
0100
,  // measure 320
1000
0000
0100
0010
0001
0000
0010
0000
,  // measure 321
0100
1000
0000
0100
1000
0000
0010
0100
,  // measure 322
0001
0000
0100
0010
1000
0000
0010
0000
,  // measure 323
0100
0001
0000
0100
0001
1000
0001
1000
,  // measure 324
M11M
0000
1000
0100
0010
0000
0001
0000
,  // measure 325
1000
0100
0000
1000
0100
0000
0010
0001
,  // measure 326
1000
0000
0010
0100
0010
0000
1000
0000
,  // measure 327
0001
0100
0000
0001
0100
0010
0100
0010
,  // measure 328
M1M1
0000
1000
0010
1000
0000
0001
0000
,  // measure 329
0100
0010
0000
0100
0010
0000
0100
0001
,  // measure 330
1000
0000
0001
0010
0001
0000
1000
0000
,  // measure 331
0100
0010
0000
0100
0010
0001
0010
0001
,  // measure 332
11MM
0000
0001
0010
0001
0000
0100
0000
,  // measure 333
0001
0000
1000
0010
1000
0000
0100
0000
,  // measure 334
1MM1
0000
0100
0010
0100
0000
1000
0000
,  // measure 335
0001
0000
0100
0010
1000
0000
0100
0000
,  // measure 336
1000
0000
0100
0010
0100
0000
0010
0001
,  // measure 337
0010
0000
0001
1000
0001
0000
1000
0010
,  // measure 338
1000
0000
0010
0100
0010
0000
0100
0001
,  // measure 339
0100
0000
0001
0010
0001
0000
1000
0100
,  // measure 340
1000
0000
0010
1000
0010
0000
0100
0001
,  // measure 341
1000
0000
0010
1000
0001
0000
0100
0010
,  // measure 342
1000
0000
0100
0010
0001
0000
0100
0010
,  // measure 343
1000
0001
0100
0001
,  // measure 344
0010
0001
0100
0010
,  // measure 345
1000
0100
1000
0001
,  // measure 346
0100
0010
1000
1000
,  // measure 347
0000
0100
0000
0000
0010
0000
0002
0000
,  // measure 348
1003
0001
0100
0100
,  // measure 349
0100
0010
1000
1000
,  // measure 350
0000
0000
0000
0000
0000
0000
MMM2
0MM0
,  // measure 351
1MM3
0MM0
MMM1
M0M0
M1MM
M0MM
M1MM
M0MM
,  // measure 352
M1MM
M00M
MM1M
0M0M
1MMM
0MMM
1MMM
0000
,  // measure 353
0000
0000
0000
0000
,  // measure 354
1000
0001
0100
0100
,  // measure 355
0100
0010
1000
1000
,  // measure 356
1000
0010
1000
0010
,  // measure 357
0100
0000
0000
0000
0001
1000
0001
1000
,  // measure 358
0001
0100
0010
1000
,  // measure 359
0001
0000
0000
0010
0000
0000
0001
0000
1000
0000
0001
0000
,  // measure 360
1000
0000
0100
0010
0100
0000
1000
0000
,  // measure 361
0001
0000
0100
0010
0100
0000
0001
0000
,  // measure 362
1000
0000
0010
0100
0010
0000
1000
0000
,  // measure 363
0001
0100
0001
0100
0010
1000
0010
1000
,  // measure 364
0000
0000
0000
0000
0000
0000
0000
1001
0000
0000
0000
0000
0000
0000
0000
1010
0000
0000
0000
1000
0000
0010
0000
0000
0000
0010
0000
0100
0000
0000
0000
0101
,  // measure 365
0000
0000
0000
0010
0000
0000
0000
1001
0000
0000
0000
0010
0000
0000
0000
0000
0000
0000
0000
0000
0000
0000
0000
0000
0000
0000
0000
0000
0000
0000
0000
0000
,  // measure 366
0000
0000
0000
0000
,  // measure 367
0000
0000
0000
0000
1001
0000
0000
0000
1010
0000
1000
0010
0000
0010
0100
0000
,  // measure 368
0101
0010
1001
0010
0000
0000
0000
0000
,  // measure 369
0000
0000
0000
0000
,  // measure 370
0000
0000
0000
0000
0000
0000
0000
0000
0000
1001
0000
0000
0000
0000
0000
0000
0000
1010
0000
0000
0000
1000
0000
0010
0000
0000
0000
0010
0000
0100
0000
0000
,  // measure 371
0000
0101
0000
0000
0000
0010
0000
0000
0000
1001
0000
0000
0000
0010
0000
0000
0000
0000
0000
0000
0000
0000
0000
0000
0000
0000
0000
0000
0000
0000
0000
0000
,  // measure 372
0000
0000
0000
0000
,  // measure 373
0000
0000
0000
0000
0000
1001
0000
0000
0000
1010
0000
1000
0010
0000
0010
0100
,  // measure 374
0000
0101
0000
0010
0000
1001
0000
0010
0000
0000
0000
0000
0000
0000
0000
0000
,  // measure 375
0000
0000
0000
0000
,  // measure 376
0000
0000
0000
0110
0000
0000
0000
0000
0000
0000
0000
1001
0000
0000
0000
0000
0000
0000
0000
1010
0000
0000
0000
1000
0000
0010
0000
0000
0000
0010
0000
0100
,  // measure 377
0000
0000
0000
0101
0000
0000
0000
0010
0000
0000
0000
1001
0000
0000
0000
0010
0000
0000
0000
0000
0000
0000
0000
0000
0000
0000
0000
0000
0000
0000
0000
0000
,  // measure 378
0000
0000
0000
0000
,  // measure 379
0000
0000
0110
0000
0000
0000
1001
0000
0000
0000
1010
0000
1000
0010
0000
0010
,  // measure 380
0100
0101
0010
1001
0010
0000
0000
0000
,  // measure 381
0000
0000
0000
0000
,  // measure 382
0000
0000
0000
0000
0000
0110
0000
0000
0000
0000
0000
0000
0000
1001
0000
0000
0000
0000
0000
0000
0000
1010
0000
0000
0000
1000
0000
0010
0000
0000
0000
0010
,  // measure 383
0000
0100
0000
0000
0000
0101
0000
0000
0000
0010
0000
0000
0000
1001
0000
0000
0000
0010
0000
0000
0000
0000
0000
0000
0000
0000
0000
0000
0000
0000
0000
0000
,  // measure 384
0000
0000
0000
0000
,  // measure 385
0000
0000
0000
0110
0000
0000
0000
1001
0000
0000
0000
1010
0000
1000
0010
0000
,  // measure 386
0010
0100
0000
0101
0000
0010
0000
1001
0000
0010
0000
0000
0000
0000
0000
0000
,  // measure 387
0000
0000
0000
0000
,  // measure 388
0000
0000
0000
0000
0000
0000
0000
0110
0000
0000
0000
0000
0000
0000
0000
1001
0000
0000
0000
0000
0000
0000
0000
1010
0000
0000
0000
1000
0000
0010
0000
0000
,  // measure 389
0000
0010
0000
0100
0000
0000
0000
0101
0000
0000
0000
0010
0000
0000
0000
1001
0000
0000
0000
0010
0000
0000
0000
0000
0000
0000
0000
0000
0000
0000
0000
0000
,  // measure 390
0000
0000
0000
0000
,  // measure 391
0000
0000
0000
0000
0110
0000
0000
0000
1001
0000
0000
0000
1010
0000
1000
0010
,  // measure 392
0000
0010
0100
0000
0101
0000
0010
0000
1001
0000
0010
0000
0000
0000
0000
0000
,  // measure 393
0000
0000
0000
0000
,  // measure 394
0000
0000
0000
0000
0000
0000
0000
0000
0000
0110
0000
0000
0000
0000
0000
0000
0000
1001
0000
0000
0000
0000
0000
0000
0000
1010
0000
0000
0000
1000
0000
0010
,  // measure 395
0000
0000
0000
0010
0000
0100
0000
0000
0000
0101
0000
0000
0000
0010
0000
0000
0000
1001
0000
0000
0000
0010
0000
0000
0000
0000
0000
0000
0000
0000
0000
0000
,  // measure 396
0000
0000
0000
0000
,  // measure 397
0000
0000
0000
0000
0000
0110
0000
0000
0000
1001
0000
0000
0000
1010
0000
1000
,  // measure 398
0010
0000
0010
0100
0000
0101
0000
0010
0000
1001
0000
0010
0000
0000
0000
0000
,  // measure 399
0000
0000
0000
0000
,  // measure 400
0000
0000
0000
0000
0000
0000
0000
0100
0000
0000
0000
0110
0000
0000
0000
0000
0000
0000
0000
1001
0000
0000
0000
0000
0000
0000
0000
1010
0000
0000
0000
1000
,  // measure 401
0000
0010
0000
0000
0000
0010
0000
0100
0000
0000
0000
0101
0000
0000
0000
0010
0000
0000
0000
1001
0000
0000
0000
0010
0000
0000
0000
0000
0000
0000
0000
0000
,  // measure 402
0000
0000
0000
0000
,  // measure 403
0000
0000
0100
0110
0000
1001
0000
1010
,  // measure 404
1000
0010
0000
0010
0100
0000
0101
0000
0010
0000
1001
0000
0010
0000
0000
0000
,  // measure 405
0000
0000
0000
0000
,  // measure 406
0000
0000
0000
0000
0000
0000
0000
0000
0000
0100
0000
0000
0000
0110
0000
0000
0000
0000
0000
0000
0000
1001
0000
0000
0000
0000
0000
0000
0000
1010
0000
0000
,  // measure 407
0000
1000
0000
0010
0000
0000
0000
0010
0000
0100
0000
0000
0000
0101
0000
0000
0000
0010
0000
0000
0000
1001
0000
0000
0000
0010
0000
0000
0000
0000
0000
0000
,  // measure 408
0000
0000
0000
0000
,  // measure 409
0000
0000
0000
0000
0000
0100
0000
0110
0000
0000
0000
1001
0000
0000
0000
1010
,  // measure 410
0000
1000
0010
0000
0010
0100
0000
0101
0000
0010
0000
1001
0000
0010
0000
0000
,  // measure 411
0000
0000
0000
0000
,  // measure 412
0000
0000
0000
0000
0000
0000
0000
0000
0000
0010
0000
0100
0000
0000
0000
0110
0000
0000
0000
0000
0000
0000
0000
1001
0000
0000
0000
0000
0000
0000
0000
1010
,  // measure 413
0000
0000
0000
1000
0000
0010
0000
0000
0000
0010
0000
0100
0000
0000
0000
0101
0000
0000
0000
0010
0000
0000
0000
1001
0000
0000
0000
0010
0000
0000
0000
0000
,  // measure 414
0000
0000
0000
0000
,  // measure 415
0000
0000
0000
0000
0000
0010
0100
0000
0110
0000
0000
0000
1001
0000
0000
0000
,  // measure 416
1010
0000
1000
0010
0000
0010
0100
0000
0101
0000
0010
0000
1001
0000
0010
0000
,  // measure 417
0000
0000
0000
0000
,  // measure 418
0000
0000
0000
0000
0000
0000
0000
0000
0000
0000
0000
0010
0000
0100
0000
0000
0000
0110
0000
0000
0000
0000
0000
0000
0000
1001
0000
0000
0000
0000
0000
0000
,  // measure 419
0000
1010
0000
0000
0000
1000
0000
0010
0000
0000
0000
0010
0000
0100
0000
0000
0000
0101
0000
0000
0000
0010
0000
0000
0000
1001
0000
0000
0000
0010
0000
0000
,  // measure 420
0000
0000
0000
0000
,  // measure 421
0000
0000
0000
0000
0000
0000
0010
0100
0000
0110
0000
0000
0000
1001
0000
0000
,  // measure 422
0000
1010
0000
1000
0010
0000
0010
0100
0000
0101
0000
0010
0000
1001
0000
0010
,  // measure 423
0000
0000
0000
0000
,  // measure 424
0000
0000
0000
0000
0000
0000
0000
0000
0000
0000
0000
0000
0000
0010
0000
0100
0000
0000
0000
0110
0000
0000
0000
0000
0000
0000
0000
1001
0000
0000
0000
0000
,  // measure 425
0000
0000
0000
1010
0000
0000
0000
1000
0000
0010
0000
0000
0000
0010
0000
0100
0000
0000
0000
0101
0000
0000
0000
0010
0000
0000
0000
1001
0000
0000
0000
0010
,  // measure 426
0000
0000
0000
0000
,  // measure 427
0000
0000
0000
0000
0000
0000
0000
0010
0100
0000
0110
0000
0000
0000
1001
0000
,  // measure 428
0000
0000
1010
0000
1000
0010
0000
0010
0100
0000
0101
0000
0010
0000
1001
0000
,  // measure 429
0010
0000
0000
0000
,  // measure 430
0000
0000
0000
0000
0000
0000
0000
0000
0000
0000
0000
0000
0000
0000
0000
0010
0000
0100
0000
0000
0000
0110
0000
0000
0000
0000
0000
0000
0000
1001
0000
0000
,  // measure 431
0000
0000
0000
0000
0000
1010
0000
0000
0000
1000
0000
0010
0000
0000
0000
0010
0000
0100
0000
0000
0000
0101
0000
0000
0000
0010
0000
0000
0000
1001
0000
0000
,  // measure 432
0000
0010
0000
0000
0000
0000
0000
0000
0000
0000
0000
0000
0000
0000
0000
0000
0000
0000
0000
0000
0000
0000
0000
0000
0000
0000
0000
0000
0000
0000
0000
0000
,  // measure 433
0000
0000
0000
0000
0000
0000
0000
0000
0010
0100
0000
0110
0000
0000
0000
1001
,  // measure 434
0000
0000
0000
1010
0000
1000
0010
0000
0010
0100
0000
0101
0000
0010
0000
1001
,  // measure 435
0000
0010
0000
0000
0000
0000
0000
0000
0000
0000
0000
0000
0000
0000
0000
0000
,  // measure 436
0000
0000
0000
0000
0000
0000
0000
0000
0000
0000
0000
0000
0000
0010
0000
0000
0000
0010
0000
0100
0000
0000
0000
0110
0000
0000
0000
0000
0000
0000
0000
1001
,  // measure 437
0000
0000
0000
0000
0000
0000
0000
1010
0000
0000
0000
1000
0000
0010
0000
0000
0000
0010
0000
0100
0000
0000
0000
0101
0000
0000
0000
0010
0000
0000
0000
1001
,  // measure 438
0000
0000
0000
0010
0000
0000
0000
0000
0000
0000
0000
0000
0000
0000
0000
0000
0000
0000
0000
0000
0000
0000
0000
0000
0000
0000
0000
0000
0000
0000
0000
0000
,  // measure 439
0000
0000
0000
0000
0000
0000
0000
0010
0000
0010
0100
0000
0110
0000
0000
0000
,  // measure 440
1001
0000
0000
0000
1010
0000
1000
0010
0000
0010
0100
0000
0101
0000
0010
0000
,  // measure 441
1001
0010
0000
0000
0000
0000
0000
0000
,  // measure 442
0000
0000
0000
0000
0000
0000
0000
0000
0000
0000
0000
0000
0000
0000
0000
0010
0000
0000
0000
0010
0000
0100
0000
0000
0000
0110
0000
0000
0000
0000
0000
0000
,  // measure 443
0000
1001
0000
0000
0000
0000
0000
0000
0000
1010
0000
0000
0000
1000
0000
0010
0000
0000
0000
0010
0000
0100
0000
0000
0000
0101
0000
0000
0000
0010
0000
0000
,  // measure 444
0000
1001
0000
0000
0000
0010
0000
0000
0000
0000
0000
0000
0000
0000
0000
0000
0000
0000
0000
0000
0000
0000
0000
0000
0000
0000
0000
0000
0000
0000
0000
0000
,  // measure 445
0000
0000
0000
0000
0000
0000
0000
0000
0010
0000
0010
0100
0000
0110
0000
0000
,  // measure 446
0000
1001
0000
0000
0000
1010
0000
1000
0010
0000
0010
0100
0000
0101
0000
0010
,  // measure 447
0000
1001
0000
0010
0000
0000
0000
0000
0000
0000
0000
0000
0000
0000
0000
0000
,  // measure 448
0000
0000
0000
0000
0000
0000
0000
0000
0000
0000
0000
0000
0000
0000
0000
0001
0000
0010
0000
0000
0000
0010
0000
0100
0000
0000
0000
0110
0000
0000
0000
0000
,  // measure 449
0000
0000
0000
1001
0000
0000
0000
0000
0000
0000
0000
1010
0000
0000
0000
1000
0000
0010
0000
0000
0000
0010
0000
0100
0000
0000
0000
0101
0000
0000
0000
0010
,  // measure 450
0000
0000
0000
1001
0000
0000
0000
0010
0000
0000
0000
0000
0000
0000
0000
0000
0000
0000
0000
0000
0000
0000
0000
0000
0000
0000
0000
0000
0000
0000
0000
0000
,  // measure 451
0000
0000
0000
0000
0000
0000
0000
0000
0001
0010
0000
0010
0100
0000
0110
0000
,  // measure 452
0000
0000
1001
0000
0000
0000
1010
0000
1000
0010
0000
0010
0100
0000
0101
0000
,  // measure 453
0010
1001
0010
0000
0000
0000
0000
0000
,  // measure 454
0000
0000
0000
0000
0000
0000
0000
0000
0000
0000
0000
0000
0000
0000
0000
0000
0000
0001
0000
0010
0000
0000
0000
0010
0000
0100
0000
0000
0000
0110
0000
0000
,  // measure 455
0000
0000
0000
0000
0000
1001
0000
0000
0000
0000
0000
0000
0000
1010
0000
0000
0000
1000
0000
0010
0000
0000
0000
0010
0000
0100
0000
0000
0000
0101
0000
0000
,  // measure 456
0000
0010
0000
0000
0000
1001
0000
0000
0000
0010
0000
0000
0000
0000
0000
0000
0000
0000
0000
0000
0000
0000
0000
0000
0000
0000
0000
0000
0000
0000
0000
0000
,  // measure 457
0000
0000
0000
0000
0000
0000
0000
0000
0000
0001
0010
0000
0010
0100
0000
0110
,  // measure 458
0000
0000
0000
1001
0000
0000
0000
1010
0000
1000
0010
0000
0010
0100
0000
0101
,  // measure 459
0000
0010
0000
1001
0000
0010
0000
0000
0000
0000
0000
0000
0000
0000
0000
0000
,  // measure 460
0000
0000
0000
0000
0000
0000
0000
0000
0000
0000
0000
0000
0000
0000
0000
0000
0000
0000
0000
0001
0000
0010
0000
0000
0000
0010
0000
0100
0000
0000
0000
0110
,  // measure 461
0000
0000
0000
0000
0000
0000
0000
1001
0000
0000
0000
0000
0000
0000
0000
1010
0000
0000
0000
1000
0000
0010
0000
0000
0000
0010
0000
0100
0000
0000
0000
0101
,  // measure 462
0000
0000
0000
0010
0000
0000
0000
1001
0000
0000
0000
0010
0000
0000
0000
0000
0000
0000
0000
0000
0000
0000
0000
0000
0000
0000
0000
0000
0000
0000
0000
0000
,  // measure 463
0000
0000
0000
0000
0000
0000
0000
0000
0000
0000
0001
0010
0000
0010
0100
0000
,  // measure 464
0110
0000
0000
0000
1001
0000
0000
0000
1010
0000
1000
0010
0000
0010
0100
0000
,  // measure 465
0101
0010
1001
0010
0000
0000
0000
0000
,  // measure 466
0000
0000
0000
0000
0000
0000
0000
0000
0000
0000
0000
0000
0000
0000
0000
0000
0000
0000
0000
0000
0000
0001
0000
0010
0000
0000
0000
0010
0000
0100
0000
0000
,  // measure 467
0000
0110
0000
0000
0000
0000
0000
0000
0000
1001
0000
0000
0000
0000
0000
0000
0000
1010
0000
0000
0000
1000
0000
0010
0000
0000
0000
0010
0000
0100
0000
0000
,  // measure 468
0000
0101
0000
0000
0000
0010
0000
0000
0000
1001
0000
0000
0000
0010
0000
0000
0000
0000
0000
0000
0000
0000
0000
0000
0000
0000
0000
0000
0000
0000
0000
0000
,  // measure 469
0000
0000
0000
0000
0000
0000
0000
0000
0000
0000
0000
0001
0010
0000
0010
0100
,  // measure 470
0000
0110
0000
0000
0000
1001
0000
0000
0000
1010
0000
1000
0010
0000
0010
0100
,  // measure 471
0000
0101
0000
0010
0000
1001
0000
0010
0000
0000
0000
0000
0000
0000
0000
0000
,  // measure 472
0000
0000
0000
0000
0000
0000
0000
0000
0000
0000
0000
0000
0000
0000
0000
0000
0000
0000
0000
0011
0000
0000
0000
0001
0000
0010
0000
0000
0000
0010
0000
0100
,  // measure 473
0000
0000
0000
0110
0000
0000
0000
0000
0000
0000
0000
1001
0000
0000
0000
0000
0000
0000
0000
1010
0000
0000
0000
1000
0000
0010
0000
0000
0000
0010
0000
0100
,  // measure 474
0000
0000
0000
0101
0000
0000
0000
0000
0000
0000
0000
0000
0000
0000
0000
0000
0000
0000
0000
0000
0000
0000
0000
0000
0000
0000
0000
0000
0000
0000
0000
0000
,  // measure 475
0000
0000
0000
0000
0000
0000
0000
0000
0000
0000
0011
0000
0001
0010
0000
0010
,  // measure 476
0100
0000
0110
0000
0000
0000
1001
0000
0000
0000
1010
0000
1000
0010
0000
0010
,  // measure 477
0100
0101
0000
0000
0000
0000
0000
0000
,  // measure 478
0000
0000
0000
0000
0000
0000
0000
0000
0000
0000
0000
0000
0000
0000
0000
0000
0000
0000
0000
0000
0000
0011
0000
0000
0000
0001
0000
0010
0000
0000
0000
0010
,  // measure 479
0000
0100
0000
0000
0000
0110
0000
0000
0000
0000
0000
0000
0000
1001
0000
0000
0000
0000
0000
0000
0000
1010
0000
0000
0000
1000
0000
0010
0000
0000
0000
0010
,  // measure 480
0000
0100
0000
0000
0000
0101
0000
0000
0000
0000
0000
0000
0000
0000
0000
0000
0000
0000
0000
0000
0000
0000
0000
0000
0000
0000
0000
0000
0000
0000
0000
0000
,  // measure 481
0000
0000
0000
0000
0000
0000
0000
0000
0000
0000
0000
0011
0000
0001
0010
0000
,  // measure 482
0010
0100
0000
0110
0000
0000
0000
1001
0000
0000
0000
1010
0000
1000
0010
0000
,  // measure 483
0010
0100
0000
0101
0000
0000
0000
0000
0000
0000
0000
0000
0000
0000
0000
0000
,  // measure 484
0000
0000
0000
0000
0000
0000
0000
0000
0000
0000
0000
0000
0000
0000
0000
0000
0000
0000
0000
0000
0000
0000
0000
0011
0000
0000
0000
0001
0000
0010
0000
0000
,  // measure 485
0000
0010
0000
0100
0000
0000
0000
0110
0000
0000
0000
0000
0000
0000
0000
1001
0000
0000
0000
0000
0000
0000
0000
1010
0000
0000
0000
1000
0000
0010
0000
0000
,  // measure 486
0000
0010
0000
0100
0000
0000
0000
0101
0000
0000
0000
0000
0000
0000
0000
0000
0000
0000
0000
0000
0000
0000
0000
0000
0000
0000
0000
0000
0000
0000
0000
0000
,  // measure 487
0000
0000
0000
0000
0000
0000
0000
0000
0000
0000
0000
0000
0011
0000
0001
0010
,  // measure 488
0000
0010
0100
0000
0110
0000
0000
0000
1001
0000
0000
0000
1010
0000
1000
0010
,  // measure 489
0000
0010
0100
0000
0101
0000
0000
0000
0000
0000
0000
0000
0000
0000
0000
0000
,  // measure 490
0000
0000
0000
0000
0000
0000
0000
0000
0000
0000
0000
0000
0000
0000
0000
0000
0000
0000
0000
0000
0000
0000
0000
0000
0000
0011
0000
0000
0000
0001
0000
0010
,  // measure 491
0000
0000
0000
0010
0000
0100
0000
0000
0000
0110
0000
0000
0000
0000
0000
0000
0000
1001
0000
0000
0000
0000
0000
0000
0000
1010
0000
0000
0000
1000
0000
0010
,  // measure 492
0000
0000
0000
0010
0000
0100
0000
0000
0000
0101
0000
0000
0000
0000
0000
0000
0000
0000
0000
0000
0000
0000
0000
0000
0000
0000
0000
0000
0000
0000
0000
0000
,  // measure 493
0000
0000
0000
0000
0000
0000
0000
0000
0000
0000
0000
0000
0000
0011
0000
0001
,  // measure 494
0010
0000
0010
0100
0000
0110
0000
0000
0000
1001
0000
0000
0000
1010
0000
1000
,  // measure 495
0010
0000
0010
0100
0000
0101
0000
0000
0000
0000
0000
0000
0000
0000
0000
0000
,  // measure 496
0000
0000
0000
0000
0000
0000
0000
0000
0000
0000
0000
0000
0000
0000
0000
0000
0000
0000
0000
0000
0000
0000
0000
0000
0000
0000
0000
0011
0000
0000
0000
0001
,  // measure 497
0000
0010
0000
0000
0000
0010
0000
0100
0000
0000
0000
0110
0000
0000
0000
0000
0000
0000
0000
1001
0000
0000
0000
0000
0000
0000
0000
1010
0000
0000
0000
1000
,  // measure 498
0000
0010
0000
0000
0000
0010
0000
0100
0000
0000
0000
0101
0000
0000
0000
0000
0000
0000
0000
0000
0000
0000
0000
0000
0000
0000
0000
0000
0000
0000
0000
0000
,  // measure 499
0000
0000
0000
0000
0000
0000
0000
0011
,  // measure 500
0001
0010
0000
0010
0100
0000
0110
0000
0000
0000
1001
0000
0000
0000
1010
0000
,  // measure 501
1000
0010
0000
0010
0100
0000
0101
0000
0000
0000
0000
0000
0000
0000
0000
0000
,  // measure 502
0000
0000
0000
0000
0000
0000
0000
0000
0000
0000
0000
0000
0000
0000
0000
0000
0000
0000
0000
0000
0000
0000
0000
0000
0000
0000
0000
0000
0000
0011
0000
0000
,  // measure 503
0000
0001
0000
0010
0000
0000
0000
0010
0000
0100
0000
0000
0000
0110
0000
0000
0000
0000
0000
0000
0000
1001
0000
0000
0000
0000
0000
0000
0000
1010
0000
0000
,  // measure 504
0000
1000
0000
0010
0000
0000
0000
0010
0000
0100
0000
0000
0000
0101
0000
0000
0000
0000
0000
0000
0000
0000
0000
0000
0000
0000
0000
0000
0000
0000
0000
0000
,  // measure 505
0000
0000
0000
0000
0000
0000
0000
0000
0000
0000
0000
0000
0000
0000
0000
0011
,  // measure 506
0000
0001
0010
0000
0010
0100
0000
0110
0000
0000
0000
1001
0000
0000
0000
1010
,  // measure 507
0000
1000
0010
0000
0010
0100
0000
0101
0000
0000
0000
0000
0000
0000
0000
0000
,  // measure 508
0000
0000
0000
0000
0000
0000
0000
0000
0000
0000
0000
0000
0000
0000
0000
0000
0000
0000
0000
0000
0000
0000
0000
0000
0000
0000
0000
0000
0000
0000
0000
0011
,  // measure 509
0000
0000
0000
0001
0000
0010
0000
0000
0000
0010
0000
0100
0000
0000
0000
0110
0000
0000
0000
0000
0000
0000
0000
1001
0000
0000
0000
0000
0000
0000
0000
1010
,  // measure 510
0000
0000
0000
1000
0000
0010
0000
0000
0000
0010
0000
0100
0000
0000
0000
0101
0000
0000
0000
0000
0000
0000
0000
0000
0000
0000
0000
0000
0000
0000
0000
0000
,  // measure 511
0000
0000
0000
0000
,  // measure 512
0011
0000
0001
0010
0000
0010
0100
0000
0110
0000
0000
0000
1001
0000
0000
0000
,  // measure 513
1010
0000
1000
0010
0000
0010
0100
0000
0101
0000
0000
0000
0000
0000
0000
0000
,  // measure 514
0000
0000
0000
0000
,  // measure 515
0000
0011
0000
0000
0000
0001
0000
0010
0000
0000
0000
0010
0000
0100
0000
0000
0000
0110
0000
0000
0000
0000
0000
0000
0000
1001
0000
0000
0000
0000
0000
0000
,  // measure 516
0000
1010
0000
0000
0000
1000
0000
0010
0000
0000
0000
0010
0000
0100
0000
0000
0000
0101
0000
0000
0000
0000
0000
0000
0000
0000
0000
0000
0000
0000
0000
0000
,  // measure 517
0000
0000
0000
0000
,  // measure 518
0000
0011
0000
0001
0010
0000
0010
0100
0000
0110
0000
0000
0000
1001
0000
0000
,  // measure 519
0000
1010
0000
1000
0010
0000
0010
0100
0000
0101
0000
0000
0000
0000
0000
0000
,  // measure 520
0000
0000
0000
0000
0000
0000
0000
0000
0000
0000
0000
0000
0000
0000
0000
0000
0000
0000
0000
0000
0000
0000
0000
0000
0000
0000
0000
0101
0000
0000
0000
0000
,  // measure 521
0000
0000
0000
0011
0000
0000
0000
0001
0000
0010
0000
0000
0000
0010
0000
0100
0000
0000
0000
0110
0000
0000
0000
0000
0000
0000
0000
1001
0000
0000
0000
0000
,  // measure 522
0000
0000
0000
1010
0000
0000
0000
1000
0000
0010
0000
0000
0000
0010
0000
0100
0000
0000
0000
0101
0000
0000
0000
0000
0000
0000
0000
0000
0000
0000
0000
0000
,  // measure 523
0000
0000
0000
0000
0000
0000
0000
0101
,  // measure 524
0000
0000
0011
0000
0001
0010
0000
0010
0100
0000
0110
0000
0000
0000
1001
0000
,  // measure 525
0000
0000
1010
0000
1000
0010
0000
0010
0100
0000
0101
0000
0000
0000
0000
0000
,  // measure 526
0000
0000
0000
0000
0000
0000
0000
0000
0000
0000
0000
0000
0000
0000
0000
0000
0000
0000
0000
0000
0000
0000
0000
0000
0000
0000
0000
0000
0000
0101
0000
0000
,  // measure 527
0000
0000
0000
0000
0000
0011
0000
0000
0000
0001
0000
0010
0000
0000
0000
0010
0000
0100
0000
0000
0000
0110
0000
0000
0000
0000
0000
0000
0000
1001
0000
0000
,  // measure 528
0000
0000
0000
0000
0000
1010
0000
0000
0000
1000
0000
0010
0000
0000
0000
0010
0000
0100
0000
0000
0000
0101
0000
0000
0000
0000
0000
0000
0000
0000
0000
0000
,  // measure 529
0000
0000
0000
0000
0000
0000
0000
0000
0000
0000
0000
0000
0000
0000
0000
0101
,  // measure 530
0000
0000
0000
0011
0000
0001
0010
0000
0010
0100
0000
0110
0000
0000
0000
1001
,  // measure 531
0000
0000
0000
1010
0000
1000
0010
0000
0010
0100
0000
0101
0000
0000
0000
0000
,  // measure 532
0000
0000
0000
0000
0000
0000
0000
0000
0000
0000
0000
0000
0000
0000
0000
0000
0000
0000
0000
0000
0000
0000
0000
0000
0000
0000
0000
0000
0000
0000
0000
0101
,  // measure 533
0000
0000
0000
0000
0000
0000
0000
0011
0000
0000
0000
0001
0000
0010
0000
0000
0000
0010
0000
0100
0000
0000
0000
0110
0000
0000
0000
0000
0000
0000
0000
1001
,  // measure 534
0000
0000
0000
0000
0000
0000
0000
1010
0000
0000
0000
1000
0000
0010
0000
0000
0000
0010
0000
0100
0000
0000
0000
0101
0000
0000
0000
0000
0000
0000
0000
0000
,  // measure 535
0000
0000
0000
0000
,  // measure 536
0101
0000
0000
0000
0011
0000
0001
0010
0000
0010
0100
0000
0110
0000
0000
0000
,  // measure 537
1001
0000
0000
0000
1010
0000
1000
0010
0000
0010
0100
0000
0101
0000
0000
0000
,  // measure 538
0000
0000
0000
0000
,  // measure 539
0000
0101
0000
0000
0000
0000
0000
0000
0000
0011
0000
0000
0000
0001
0000
0010
0000
0000
0000
0010
0000
0100
0000
0000
0000
0110
0000
0000
0000
0000
0000
0000
,  // measure 540
0000
1001
0000
0000
0000
0000
0000
0000
0000
1010
0000
0000
0000
1000
0000
0010
0000
0000
0000
0010
0000
0100
0000
0000
0000
0101
0000
0000
0000
0000
0000
0000
,  // measure 541
0000
0000
0000
0000
,  // measure 542
0000
0101
0000
0000
0000
0011
0000
0001
0010
0000
0010
0100
0000
0110
0000
0000
,  // measure 543
0000
1001
0000
0000
0000
1010
0000
1000
0010
0000
0010
0100
0000
0101
0000
0000
,  // measure 544
0000
0000
0000
0000
0000
0000
0000
0000
0000
0000
0000
0000
0000
0000
0000
0000
0000
0000
0000
0000
0000
0000
0000
0000
0000
0000
0000
0000
0000
0000
0000
1000
,  // measure 545
0000
0000
0000
0101
0000
0000
0000
0000
0000
0000
0000
0011
0000
0000
0000
0001
0000
0010
0000
0000
0000
0010
0000
0100
0000
0000
0000
0110
0000
0000
0000
0000
,  // measure 546
0000
0000
0000
1001
0000
0000
0000
0000
0000
0000
0000
1010
0000
0000
0000
1000
0000
0010
0000
0000
0000
0010
0000
0100
0000
0000
0000
0101
0000
0000
0000
0000
,  // measure 547
0000
0000
0000
0000
,  // measure 548
1000
0000
0101
0000
0000
0000
0011
0000
0001
0010
0000
0010
0100
0000
0110
0000
,  // measure 549
0000
0000
1001
0000
0000
0000
1010
0000
1000
0010
0000
0010
0100
0000
0101
0000
,  // measure 550
0000
0000
0000
0000
,  // measure 551
0000
1000
0000
0000
0000
0101
0000
0000
0000
0000
0000
0000
0000
0011
0000
0000
0000
0001
0000
0010
0000
0000
0000
0010
0000
0100
0000
0000
0000
0110
0000
0000
,  // measure 552
0000
0000
0000
0000
0000
1001
0000
0000
0000
0000
0000
0000
0000
1010
0000
0000
0000
1000
0000
0010
0000
0000
0000
0010
0000
0100
0000
0000
0000
0101
0000
0000
,  // measure 553
0000
0000
0000
0000
,  // measure 554
0000
1000
0000
0101
0000
0000
0000
0011
0000
0001
0010
0000
0010
0100
0000
0110
,  // measure 555
0000
0000
0000
1001
0000
0000
0000
1010
0000
1000
0010
0000
0010
0100
0000
0101
,  // measure 556
0000
0000
0000
0000
,  // measure 557
0000
0000
0000
1000
0000
0000
0000
0101
0000
0000
0000
0000
0000
0000
0000
0011
0000
0000
0000
0001
0000
0010
0000
0000
0000
0010
0000
0100
0000
0000
0000
0110
,  // measure 558
0000
0000
0000
0000
0000
0000
0000
1001
0000
0000
0000
0000
0000
0000
0000
1010
0000
0000
0000
1000
0000
0010
0000
0000
0000
0010
0000
0100
0000
0000
0000
0101
,  // measure 559
0000
0000
0000
0000
,  // measure 560
0000
0000
1000
0000
0101
0000
0000
0000
0011
0000
0001
0010
0000
0010
0100
0000
,  // measure 561
0110
0000
0000
0000
1001
0000
0000
0000
1010
0000
1000
0010
0000
0010
0100
0000
,  // measure 562
0101
0000
0000
0000
,  // measure 563
0000
0000
0000
0000
0000
1000
0000
0000
0000
0101
0000
0000
0000
0000
0000
0000
0000
0011
0000
0000
0000
0001
0000
0010
0000
0000
0000
0010
0000
0100
0000
0000
,  // measure 564
0000
0110
0000
0000
0000
0000
0000
0000
0000
1001
0000
0000
0000
0000
0000
0000
0000
1010
0000
0000
0000
1000
0000
0010
0000
0000
0000
0010
0000
0100
0000
0000
,  // measure 565
0000
0101
0000
0000
0000
0000
0000
0000
0000
0000
0000
0000
0000
0000
0000
0000
0000
0000
0000
0000
0000
0000
0000
0000
0000
0000
0000
0000
0000
0000
0000
0000
,  // measure 566
0000
0000
0000
1000
0000
0101
0000
0000
0000
0011
0000
0001
0010
0000
0010
0100
,  // measure 567
0000
0110
0000
0000
0000
1001
0000
0000
0000
1010
0000
1000
0010
0000
0010
0100
,  // measure 568
0000
0101
0000
0000
0000
0000
0000
0000
0000
0000
0000
0000
0000
0000
0000
0000
,  // measure 569
0000
0000
0000
0000
0000
0000
0000
1000
0000
0000
0000
0101
0000
0000
0000
0000
0000
0000
0000
0011
0000
0000
0000
0001
0000
0010
0000
0000
0000
0010
0000
0100
,  // measure 570
0000
0000
0000
0110
0000
0000
0000
0000
0000
0000
0000
1001
0000
0000
0000
0000
0000
0000
0000
1010
0000
0000
0000
1000
0000
0010
0000
0000
0000
0010
0000
0100
,  // measure 571
0000
0000
0000
0101
0000
0000
0000
0000
0000
0000
0000
0000
0000
0000
0000
0000
0000
0000
0000
0000
0000
0000
0000
0000
0000
0000
0000
0000
0000
0000
0000
0000
,  // measure 572
0000
0000
0101
0000
1000
0000
0101
0000
0000
0000
0011
0000
0001
0010
0000
0010
,  // measure 573
0100
0000
0110
0000
0000
0000
1001
0000
0000
0000
1010
0000
1000
0010
0000
0010
,  // measure 574
0100
0101
0000
0000
0000
0000
0000
0000
,  // measure 575
0000
0000
0000
0000
0000
0101
0000
0000
0000
1000
0000
0000
0000
0101
0000
0000
0000
0000
0000
0000
0000
0011
0000
0000
0000
0001
0000
0010
0000
0000
0000
0010
,  // measure 576
0000
0100
0000
0000
0000
0110
0000
0000
0000
0000
0000
0000
0000
1001
0000
0000
0000
0000
0000
0000
0000
1010
0000
0000
0000
1000
0000
0010
0000
0000
0000
0010
,  // measure 577
0000
0100
0000
0000
0000
0101
0000
0000
0000
0000
0000
0000
0000
0000
0000
0000
0000
0000
0000
0000
0000
0000
0000
0000
0000
0000
0000
0000
0000
0000
0000
0000
,  // measure 578
0000
0000
0000
0101
0000
1000
0000
0101
0000
0000
0000
0011
0000
0001
0010
0000
,  // measure 579
0010
0100
0000
0110
0000
0000
0000
1001
0000
0000
0000
1010
0000
1000
0010
0000
,  // measure 580
0010
0100
0000
0101
0000
0000
0000
0000
0000
0000
0000
0000
0000
0000
0000
0000
,  // measure 581
0000
0000
0000
0000
0000
0000
0000
0101
0000
0000
0000
1000
0000
0000
0000
0101
0000
0000
0000
0000
0000
0000
0000
0011
0000
0000
0000
0001
0000
0010
0000
0000
,  // measure 582
0000
0010
0000
0100
0000
0000
0000
0110
0000
0000
0000
0000
0000
0000
0000
1001
0000
0000
0000
0000
0000
0000
0000
1010
0000
0000
0000
1000
0000
0010
0000
0000
,  // measure 583
0000
0010
0000
0100
0000
0000
0000
0101
0000
0000
0000
0000
0000
0000
0000
0000
0000
0000
0000
0000
0000
0000
0000
0000
0000
0000
0000
0000
0000
0000
0000
0000
,  // measure 584
0000
0000
0000
0000
0101
0000
1000
0000
0101
0000
0000
0000
0011
0000
0001
0010
,  // measure 585
0000
0010
0100
0000
0110
0000
0000
0000
1001
0000
0000
0000
1010
0000
1000
0010
,  // measure 586
0000
0010
0100
0000
0101
0000
0000
0000
0000
0000
0000
0000
0000
0000
0000
0000
,  // measure 587
0000
0000
0000
0000
0000
0000
0000
0000
0000
0101
0000
0000
0000
1000
0000
0000
0000
0101
0000
0000
0000
0000
0000
0000
0000
0011
0000
0000
0000
0001
0000
0010
,  // measure 588
0000
0000
0000
0010
0000
0100
0000
0000
0000
0110
0000
0000
0000
0000
0000
0000
0000
1001
0000
0000
0000
0000
0000
0000
0000
1010
0000
0000
0000
1000
0000
0010
,  // measure 589
0000
0000
0000
0010
0000
0100
0000
0000
0000
0101
0000
0000
0000
0000
0000
0000
0000
0000
0000
0000
0000
0000
0000
0000
0000
0000
0000
0000
0000
0000
0000
0000
,  // measure 590
0000
0000
0000
0000
0000
0101
0000
1000
0000
0101
0000
0000
0000
0011
0000
0001
,  // measure 591
0010
0000
0010
0100
0000
0110
0000
0000
0000
1001
0000
0000
0000
1010
0000
1000
,  // measure 592
0010
0000
0010
0100
0000
0101
0000
0000
0000
0000
0000
0000
0000
0000
0000
0000
,  // measure 593
0000
0000
0000
0000
0000
0000
0000
0010
0000
0000
0000
0101
0000
0000
0000
1000
0000
0000
0000
0101
0000
0000
0000
0000
0000
0000
0000
0011
0000
0000
0000
0001
,  // measure 594
0000
0010
0000
0000
0000
0010
0000
0100
0000
0000
0000
0110
0000
0000
0000
0000
0000
0000
0000
1001
0000
0000
0000
0000
0000
0000
0000
1010
0000
0000
0000
1000
,  // measure 595
0000
0010
0000
0000
0000
0010
0000
0100
0000
0000
0000
0101
0000
0000
0000
0000
0000
0000
0000
0000
0000
0000
0000
0000
0000
0000
0000
0000
0000
0000
0000
0000
,  // measure 596
0000
0000
0010
0101
1000
0101
0000
0011
,  // measure 597
0001
0010
0000
0010
0100
0000
0110
0000
0000
0000
1001
0000
0000
0000
1010
0000
,  // measure 598
1000
0010
0000
0010
0100
0000
0101
0000
0000
0000
0000
0000
0000
0000
0000
0000
,  // measure 599
0000
0000
0000
0000
0000
0000
0000
0000
0000
0010
0000
0000
0000
0101
0000
0000
0000
1000
0000
0000
0000
0101
0000
0000
0000
0000
0000
0000
0000
0011
0000
0000
,  // measure 600
0000
0001
0000
0010
0000
0000
0000
0010
0000
0100
0000
0000
0000
0110
0000
0000
0000
0000
0000
0000
0000
1001
0000
0000
0000
0000
0000
0000
0000
1010
0000
0000
,  // measure 601
0000
1000
0000
0010
0000
0000
0000
0010
0000
0100
0000
0000
0000
0101
0000
0000
0000
0000
0000
0000
0000
0000
0000
0000
0000
0000
0000
0000
0000
0000
0000
0000
,  // measure 602
0000
0000
0000
0000
0000
0010
0000
0101
0000
1000
0000
0101
0000
0000
0000
0011
,  // measure 603
0000
0001
0010
0000
0010
0100
0000
0110
0000
0000
0000
1001
0000
0000
0000
1010
,  // measure 604
0000
1000
0010
0000
0010
0100
0000
0101
0000
0000
0000
0000
0000
0000
0000
0000
,  // measure 605
0000
0000
0000
0000
0000
0000
0000
0000
0000
0100
0000
0010
0000
0000
0000
0101
0000
0000
0000
1000
0000
0000
0000
0101
0000
0000
0000
0000
0000
0000
0000
0011
,  // measure 606
0000
0000
0000
0001
0000
0010
0000
0000
0000
0010
0000
0100
0000
0000
0000
0110
0000
0000
0000
0000
0000
0000
0000
1001
0000
0000
0000
0000
0000
0000
0000
1010
,  // measure 607
0000
0000
0000
1000
0000
0010
0000
0000
0000
0010
0000
0100
0000
0000
0000
0101
0000
0000
0000
0000
0000
0000
0000
0000
0000
0000
0000
0000
0000
0000
0000
0000
,  // measure 608
0000
0000
0000
0000
0000
0100
0010
0000
0101
0000
1000
0000
0101
0000
0000
0000
,  // measure 609
0011
0000
0001
0010
0000
0010
0100
0000
0110
0000
0000
0000
1001
0000
0000
0000
,  // measure 610
1010
0000
1000
0010
0000
0010
0100
0000
0101
0000
0000
0000
0000
0000
0000
0000
,  // measure 611
0000
0000
0000
0000
0000
0000
0000
0000
0000
0000
0000
0100
0000
0010
0000
0000
0000
0101
0000
0000
0000
1000
0000
0000
0000
0101
0000
0000
0000
0000
0000
0000
,  // measure 612
0000
0011
0000
0000
0000
0001
0000
0010
0000
0000
0000
0010
0000
0100
0000
0000
0000
0110
0000
0000
0000
0000
0000
0000
0000
1001
0000
0000
0000
0000
0000
0000
,  // measure 613
0000
1010
0000
0000
0000
1000
0000
0010
0000
0000
0000
0010
0000
0100
0000
0000
0000
0101
0000
0000
0000
0000
0000
0000
0000
0000
0000
0000
0000
0000
0000
0000
,  // measure 614
0000
0000
0000
0000
0000
0000
0100
0010
0000
0101
0000
1000
0000
0101
0000
0000
,  // measure 615
0000
0011
0000
0001
0010
0000
0010
0100
0000
0110
0000
0000
0000
1001
0000
0000
,  // measure 616
0000
1010
0000
1000
0010
0000
0010
0100
0000
0101
0000
0000
0000
0000
0000
0000
,  // measure 617
0000
0000
0000
0000
0000
0000
0000
0000
0000
0000
0000
0000
0000
0100
0000
0010
0000
0000
0000
0101
0000
0000
0000
1000
0000
0000
0000
0101
0000
0000
0000
0000
,  // measure 618
0000
0000
0000
0011
0000
0000
0000
0001
0000
0010
0000
0000
0000
0010
0000
0100
0000
0000
0000
0110
0000
0000
0000
0000
0000
0000
0000
1001
0000
0000
0000
0000
,  // measure 619
0000
0000
0000
1010
0000
0000
0000
1000
0000
0010
0000
0000
0000
0010
0000
0100
0000
0000
0000
0101
0000
0000
0000
0000
0000
0000
0000
0000
0000
0000
0000
0000
,  // measure 620
0000
0000
0000
0000
0000
0000
0000
0100
0010
0000
0101
0000
1000
0000
0101
0000
,  // measure 621
0000
0000
0011
0000
0001
0010
0000
0010
0100
0000
0110
0000
0000
0000
1001
0000
,  // measure 622
0000
0000
1010
0000
1000
0010
0000
0010
0100
0000
0101
0000
0000
0000
0000
0000
,  // measure 623
0000
0000
0000
0000
0000
0000
0000
0000
0000
0000
0000
0000
0000
0000
0000
0100
0000
0010
0000
0000
0000
0101
0000
0000
0000
1000
0000
0000
0000
0101
0000
0000
,  // measure 624
0000
0000
0000
0000
0000
0011
0000
0000
0000
0001
0000
0010
0000
0000
0000
0010
0000
0100
0000
0000
0000
0110
0000
0000
0000
0000
0000
0000
0000
1001
0000
0000
,  // measure 625
0000
0000
0000
0000
0000
1010
0000
0000
0000
1000
0000
0010
0000
0000
0000
0010
0000
0100
0000
0000
0000
0101
0000
0000
0000
0000
0000
0000
0000
0000
0000
0000
,  // measure 626
0000
0000
0000
0000
0000
0000
0000
0000
0100
0010
0000
0101
0000
1000
0000
0101
,  // measure 627
0000
0000
0000
0011
0000
0001
0010
0000
0010
0100
0000
0110
0000
0000
0000
1001
,  // measure 628
0000
0000
0000
1010
0000
1000
0010
0000
0010
0100
0000
0101
0000
0000
0000
0000
,  // measure 629
0000
0000
0000
0000
0000
0000
0000
0000
0000
0000
0000
0000
0000
0100
0000
0000
0000
0100
0000
0010
0000
0000
0000
0101
0000
0000
0000
1000
0000
0000
0000
0101
,  // measure 630
0000
0000
0000
0000
0000
0000
0000
0011
0000
0000
0000
0001
0000
0010
0000
0000
0000
0010
0000
0100
0000
0000
0000
0110
0000
0000
0000
0000
0000
0000
0000
1001
,  // measure 631
0000
0000
0000
0000
,  // measure 632
0000
0000
0000
0000
0000
0000
0000
0100
0000
0100
0010
0000
0101
0000
1000
0000
,  // measure 633
0101
0000
0000
0000
0011
0000
0001
0010
0000
0010
0100
0000
0110
0000
0000
0000
,  // measure 634
1001
0000
0000
0000
,  // measure 635
0000
0000
0000
0000
0000
0000
0000
0000
0000
0000
0000
0000
0000
0000
0000
0100
0000
0000
0000
0100
0000
0010
0000
0000
0000
0101
0000
0000
0000
1000
0000
0000
,  // measure 636
0000
0101
0000
0000
0000
0000
0000
0000
0000
0011
0000
0000
0000
0001
0000
0010
0000
0000
0000
0010
0000
0100
0000
0000
0000
0110
0000
0000
0000
0000
0000
0000
,  // measure 637
0000
1001
0000
0000
0000
0000
0000
0000
0000
0000
0000
0000
0000
0000
0000
0000
0000
0000
0000
0000
0000
0000
0000
0000
0000
0000
0000
0000
0000
0000
0000
0000
,  // measure 638
0000
0000
0000
0000
0000
0000
0000
0000
0100
0000
0100
0010
0000
0101
0000
1000
,  // measure 639
0000
0101
0000
0000
0000
0011
0000
0001
0010
0000
0010
0100
0000
0110
0000
0000
,  // measure 640
0000
1001
0000
0000
0000
0000
0000
0000
0000
0000
0000
0000
0000
0000
0000
0000
,  // measure 641
0000
0000
0000
0000
0000
0000
0000
0000
0000
0000
0000
0000
0000
0000
0000
0000
0000
0100
0000
0000
0000
0100
0000
0010
0000
0000
0000
0101
0000
0000
0000
1000
,  // measure 642
0000
0000
0000
0101
0000
0000
0000
0000
0000
0000
0000
0011
0000
0000
0000
0001
0000
0010
0000
0000
0000
0010
0000
0100
0000
0000
0000
0110
0000
0000
0000
0000
,  // measure 643
0000
0000
0000
1001
0000
0000
0000
0000
0000
0000
0000
0000
0000
0000
0000
0000
0000
0000
0000
0000
0000
0000
0000
0000
0000
0000
0000
0000
0000
0000
0000
0000
,  // measure 644
0000
0000
0000
0000
0000
0000
0000
0000
1000
0100
0000
0100
0010
0000
0101
0000
,  // measure 645
1000
0000
0101
0000
0000
0000
0011
0000
0001
0010
0000
0010
0100
0000
0110
0000
,  // measure 646
0000
1001
0000
0000
0000
0000
0000
0000
,  // measure 647
0000
0000
0000
0000
0000
0000
0000
0000
0000
0000
0000
0000
0000
0000
0000
0000
0000
1000
0000
0100
0000
0000
0000
0100
0000
0010
0000
0000
0000
0101
0000
0000
,  // measure 648
0000
1000
0000
0000
0000
0101
0000
0000
0000
0000
0000
0000
0000
0011
0000
0000
0000
0001
0000
0010
0000
0000
0000
0010
0000
0100
0000
0000
0000
0110
0000
0000
,  // measure 649
0000
0000
0000
0000
0000
1001
0000
0000
0000
0000
0000
0000
0000
0000
0000
0000
0000
0000
0000
0000
0000
0000
0000
0000
0000
0000
0000
0000
0000
0000
0000
0000
,  // measure 650
0000
0000
0000
0000
0000
0000
0000
0000
0000
1000
0100
0000
0100
0010
0000
0101
,  // measure 651
0000
1000
0000
0101
0000
0000
0000
0011
0000
0001
0010
0000
0010
0100
0000
0110
,  // measure 652
0000
0000
0000
1001
0000
0000
0000
0000
0000
0000
0000
0000
0000
0000
0000
0000
,  // measure 653
0000
0000
0000
0000
0000
0000
0000
0000
0000
0000
0000
0000
0000
0000
0000
0000
0000
0000
0000
1000
0000
0100
0000
0000
0000
0100
0000
0010
0000
0000
0000
0101
,  // measure 654
0000
0000
0000
1000
0000
0000
0000
0101
0000
0000
0000
0000
0000
0000
0000
0011
0000
0000
0000
0001
0000
0010
0000
0000
0000
0010
0000
0100
0000
0000
0000
0110
,  // measure 655
0000
0000
0000
0000
0000
0000
0000
1001
0000
0000
0000
0000
0000
0000
0000
0000
0000
0000
0000
0000
0000
0000
0000
0000
0000
0000
0000
0000
0000
0000
0000
0000
,  // measure 656
0000
0000
0000
0000
0000
0000
0000
0000
0000
0000
1000
0100
0000
0100
0010
0000
,  // measure 657
0101
0000
1000
0000
0101
0000
0000
0000
0011
0000
0001
0010
0000
0010
0100
0000
,  // measure 658
0110
1001
0000
0000
,  // measure 659
0000
0000
0000
0000
0000
0000
0000
0000
0000
0000
0000
0000
0000
0000
0000
0000
0000
0000
0000
0000
0000
1000
0000
0100
0000
0000
0000
0100
0000
0010
0000
0000
,  // measure 660
0000
0101
0000
0000
0000
1000
0000
0000
0000
0101
0000
0000
0000
0000
0000
0000
0000
0011
0000
0000
0000
0001
0000
0010
0000
0000
0000
0010
0000
0100
0000
0000
,  // measure 661
0000
0110
0000
0000
0000
0000
0000
0000
0000
1001
0000
0000
0000
0000
0000
0000
0000
0000
0000
0000
0000
0000
0000
0000
0000
0000
0000
0000
0000
0000
0000
0000
,  // measure 662
0000
0000
0000
0000
0000
0000
0000
0000
0000
0000
0000
1000
0100
0000
0100
0010
,  // measure 663
0000
0101
0000
1000
0000
0101
0000
0000
0000
0011
0000
0001
0010
0000
0010
0100
,  // measure 664
0000
0110
0000
0000
0000
1001
0000
0000
0000
0000
0000
0000
0000
0000
0000
0000
,  // measure 665
0000
0000
0000
0000
0000
0000
0000
0000
0000
0000
0000
0000
0000
0000
0000
0000
0000
0000
0000
0000
0000
0000
0000
1000
0000
0100
0000
0000
0000
0100
0000
0010
,  // measure 666
0000
0000
0000
0101
0000
0000
0000
1000
0000
0000
0000
0101
0000
0000
0000
0000
0000
0000
0000
0011
0000
0000
0000
0001
0000
0010
0000
0000
0000
0010
0000
0100
,  // measure 667
0000
0000
0000
0110
0000
0000
0000
0000
0000
0000
0000
1001
0000
0000
0000
0000
0000
0000
0000
0000
0000
0000
0000
0000
0000
0000
0000
0000
0000
0000
0000
0000
,  // measure 668
0000
0000
0000
0000
0000
0000
0000
0000
0000
0000
1001
0000
1000
0100
0000
0100
,  // measure 669
0010
0000
0101
0000
1000
0000
0101
0000
0000
0000
0011
0000
0001
0010
0000
0010
,  // measure 670
0100
0110
0000
1001
0000
0000
0000
0000
,  // measure 671
0000
0000
0000
0000
0000
0000
0000
0000
0000
0000
0000
0000
0000
0000
0000
0000
0000
0000
0000
0000
0000
1001
0000
0000
0000
1000
0000
0100
0000
0000
0000
0100
,  // measure 672
0000
0010
0000
0000
0000
0101
0000
0000
0000
1000
0000
0000
0000
0101
0000
0000
0000
0000
0000
0000
0000
0011
0000
0000
0000
0001
0000
0010
0000
0000
0000
0010
,  // measure 673
0000
0100
0000
0000
0000
0110
0000
0000
0000
0000
0000
0000
0000
1001
0000
0000
0000
0000
0000
0000
0000
0000
0000
0000
0000
0000
0000
0000
0000
0000
0000
0000
,  // measure 674
0000
0000
0000
0000
0000
0000
0000
0000
0000
0000
0000
1001
0000
1000
0100
0000
,  // measure 675
0100
0010
0000
0101
0000
1000
0000
0101
0000
0000
0000
0011
0000
0001
0010
0000
,  // measure 676
0010
0100
0000
0110
0000
0000
0000
1001
0000
0000
0000
0000
0000
0000
0000
0000
,  // measure 677
0000
0000
0000
0000
0000
0000
0000
0000
0000
0000
0000
0000
0000
0000
0000
0000
0000
0000
0000
0000
0000
0000
0000
1001
0000
0000
0000
1000
0000
0100
0000
0000
,  // measure 678
0000
0100
0000
0010
0000
0000
0000
0101
0000
0000
0000
1000
0000
0000
0000
0101
0000
0000
0000
0000
0000
0000
0000
0011
0000
0000
0000
0001
0000
0010
0000
0000
,  // measure 679
0000
0010
0000
0100
0000
0000
0000
0110
0000
0000
0000
0000
0000
0000
0000
1001
0000
0000
0000
0000
0000
0000
0000
0000
0000
0000
0000
0000
0000
0000
0000
0000
,  // measure 680
0000
0000
0000
0000
0000
0000
0000
0000
0000
0000
0000
0000
1001
0000
1000
0100
,  // measure 681
0000
0100
0010
0000
0101
0000
1000
0000
0101
0000
0000
0000
0011
0000
0001
0010
,  // measure 682
0000
0010
0100
0000
0110
0000
0000
0000
1001
0000
0000
0000
0000
0000
0000
0000
,  // measure 683
0000
0000
0000
0000
0000
0000
0000
0000
0000
0000
0000
0000
0000
0000
0000
0000
0000
0000
0000
0000
0000
0000
0000
0000
0000
1001
0000
0000
0000
1000
0000
0100
,  // measure 684
0000
0000
0000
0100
0000
0010
0000
0000
0000
0101
0000
0000
0000
1000
0000
0000
0000
0101
0000
0000
0000
0000
0000
0000
0000
0011
0000
0000
0000
0001
0000
0010
,  // measure 685
0000
0000
0000
0010
0000
0100
0000
0000
0000
0110
0000
0000
0000
0000
0000
0000
0000
1001
0000
0000
0000
0000
0000
0000
0000
0000
0000
0000
0000
0000
0000
0000
,  // measure 686
0000
0000
0000
0000
0000
0000
0000
0000
0000
0000
0000
0000
0000
1001
0000
1000
,  // measure 687
0100
0000
0100
0010
0000
0101
0000
1000
0000
0101
0000
0000
0000
0011
0000
0001
,  // measure 688
0010
0000
0010
0100
0000
0110
0000
0000
0000
1001
0000
0000
0000
0000
0000
0000
,  // measure 689
0000
0000
0000
0000
0000
0000
0000
0000
0000
0000
0000
0000
0000
0000
0000
0000
0000
0000
0000
0000
0000
0000
0000
0000
0000
0000
0000
1001
0000
0000
0000
1000
,  // measure 690
0000
0100
0000
0000
0000
0100
0000
0010
0000
0000
0000
0101
0000
0000
0000
1000
0000
0000
0000
0101
0000
0000
0000
0000
0000
0000
0000
0011
0000
0000
0000
0001
,  // measure 691
0000
0010
0000
0000
0000
0010
0000
0100
0000
0000
0000
0110
0000
0000
0000
0000
0000
0000
0000
1001
0000
0000
0000
0000
0000
0000
0000
0000
0000
0000
0000
0000
,  // measure 692
0000
0000
0000
0000
0000
0000
0000
1001
,  // measure 693
1000
0100
0000
0100
0010
0000
0101
0000
1000
0000
0101
0000
0000
0000
0011
0000
,  // measure 694
0001
0010
0000
0010
0100
0000
0110
0000
0000
0000
1001
0000
0000
0000
0000
0000
,  // measure 695
0000
0000
0000
0000
0000
0000
0000
0000
0000
0000
0000
0000
0000
0000
0000
0000
0000
0000
0000
0000
0000
0000
0000
0000
0000
0000
0000
0000
0000
1001
0000
0000
,  // measure 696
0000
1000
0000
0100
0000
0000
0000
0100
0000
0010
0000
0000
0000
0101
0000
0000
0000
1000
0000
0000
0000
0101
0000
0000
0000
0000
0000
0000
0000
0011
0000
0000
,  // measure 697
0000
0001
0000
0010
0000
0000
0000
0010
0000
0100
0000
0000
0000
0110
0000
0000
0000
0000
0000
0000
0000
1001
0000
0000
0000
0000
0000
0000
0000
0000
0000
0000
,  // measure 698
0000
0000
0000
0000
0000
0000
0000
0000
0000
0000
0000
0000
0000
0000
0000
1001
,  // measure 699
0000
1000
0100
0000
0100
0010
0000
0101
0000
1000
0000
0101
0000
0000
0000
0011
,  // measure 700
0000
0001
0010
0000
0010
0100
0000
0110
0000
0000
0000
1001
0000
0000
0000
0000
,  // measure 701
0000
0000
0000
0000
0000
0000
0000
0000
0000
0000
0000
0000
0000
0000
0000
0000
0000
0000
0000
0000
0000
0000
0000
0000
0000
0000
0000
0000
0000
0000
0000
1001
,  // measure 702
0000
0000
0000
1000
0000
0100
0000
0000
0000
0100
0000
0010
0000
0000
0000
0101
0000
0000
0000
1000
0000
0000
0000
0101
0000
0000
0000
0000
0000
0000
0000
0011
,  // measure 703
0000
0000
0000
0001
0000
0010
0000
0000
0000
0010
0000
0100
0000
0000
0000
0110
0000
0000
0000
0000
0000
0000
0000
1001
0000
0000
0000
0000
0000
0000
0000
0000
,  // measure 704
0000
0000
0000
0000
,  // measure 705
1001
0000
1000
0100
0000
0100
0010
0000
0101
0000
1000
0000
0101
0000
0000
0000
,  // measure 706
0011
0000
0001
0010
0000
0010
0100
0000
0110
0000
0000
0000
1001
0000
0000
0000
,  // measure 707
0000
0000
0000
0000
,  // measure 708
0000
1001
0000
0000
0000
1000
0000
0100
0000
0000
0000
0100
0000
0010
0000
0000
0000
0101
0000
0000
0000
1000
0000
0000
0000
0101
0000
0000
0000
0000
0000
0000
,  // measure 709
0000
0011
0000
0000
0000
0001
0000
0010
0000
0000
0000
0010
0000
0100
0000
0000
0000
0110
0000
0000
0000
0000
0000
0000
0000
1001
0000
0000
0000
0000
0000
0000
,  // measure 710
0000
0000
0000
0000
,  // measure 711
0000
1001
0000
1000
0100
0000
0100
0010
0000
0101
0000
1000
0000
0101
0000
0000
,  // measure 712
0000
0011
0000
0001
0010
0000
0010
0100
0000
0110
0000
0000
0000
1001
0000
0000
,  // measure 713
0000
0000
0000
0000
0000
0000
0000
0000
0000
0000
0000
0000
0000
0000
0000
0000
0000
0000
0000
0000
0000
0000
0000
0000
0000
0000
0000
1100
0000
0000
0000
0000
,  // measure 714
0000
0000
0000
1001
0000
0000
0000
1000
0000
0100
0000
0000
0000
0100
0000
0010
0000
0000
0000
0101
0000
0000
0000
1000
0000
0000
0000
0101
0000
0000
0000
0000
,  // measure 715
0000
0000
0000
0011
0000
0000
0000
0001
0000
0010
0000
0000
0000
0010
0000
0100
0000
0000
0000
0110
0000
0000
0000
0000
0000
0000
0000
1001
0000
0000
0000
0000
,  // measure 716
0000
0000
0000
0000
0000
0000
0000
1100
,  // measure 717
0000
0000
1001
0000
1000
0100
0000
0100
0010
0000
0101
0000
1000
0000
0101
0000
,  // measure 718
0000
0000
0011
0000
0001
0010
0000
0010
0100
0000
0110
0000
0000
0000
1001
0000
,  // measure 719
0000
0000
0000
0000
0000
0000
0000
0000
0000
0000
0000
0000
0000
0000
0000
0000
0000
0000
0000
0000
0000
0000
0000
0000
0000
0000
0000
0000
0000
1100
0000
0000
,  // measure 720
0000
0000
0000
0000
0000
1001
0000
0000
0000
1000
0000
0100
0000
0000
0000
0100
0000
0010
0000
0000
0000
0101
0000
0000
0000
1000
0000
0000
0000
0101
0000
0000
,  // measure 721
0000
0000
0000
0000
0000
0011
0000
0000
0000
0001
0000
0010
0000
0000
0000
0010
0000
0100
0000
0000
0000
0110
0000
0000
0000
0000
0000
0000
0000
1001
0000
0000
,  // measure 722
0000
0000
0000
0000
0000
0000
0000
0000
0000
0000
0000
0000
0000
0000
0000
1100
,  // measure 723
0000
0000
0000
1001
0000
1000
0100
0000
0100
0010
0000
0101
0000
1000
0000
0101
,  // measure 724
0000
0000
0000
0011
0000
0001
0010
0000
0010
0100
0000
0110
0000
0000
0000
1001
,  // measure 725
0000
0000
0000
0000
0000
0000
0000
0000
0000
0000
0000
0000
0000
0000
0000
0000
0000
0000
0000
0000
0000
0000
0000
0000
0000
0000
0000
0000
0000
0000
0000
1100
,  // measure 726
0000
0000
0000
0000
0000
0000
0000
1001
0000
0000
0000
1000
0000
0100
0000
0000
0000
0100
0000
0010
0000
0000
0000
0101
0000
0000
0000
1000
0000
0000
0000
0101
,  // measure 727
0000
0000
0000
0000
0000
0000
0000
0011
0000
0000
0000
0001
0000
0010
0000
0000
0000
0010
0000
0100
0000
0000
0000
0110
0000
0000
0000
0000
0000
0000
0000
1001
,  // measure 728
0000
0000
0000
0000
,  // measure 729
1100
0000
0000
0000
1001
0000
1000
0100
0000
0100
0010
0000
0101
0000
1000
0000
,  // measure 730
0101
0000
0000
0000
0011
0000
0001
0010
0000
0010
0100
0000
0110
0000
0000
0000
,  // measure 731
1001
0000
0000
0000
,  // measure 732
0000
1100
0000
0000
0000
0000
0000
0000
0000
1001
0000
0000
0000
1000
0000
0100
0000
0000
0000
0100
0000
0010
0000
0000
0000
0101
0000
0000
0000
1000
0000
0000
,  // measure 733
0000
0101
0000
0000
0000
0000
0000
0000
0000
0011
0000
0000
0000
0001
0000
0010
0000
0000
0000
0010
0000
0100
0000
0000
0000
0110
0000
0000
0000
0000
0000
0000
,  // measure 734
0000
1001
0000
0000
0000
0000
0000
0000
0000
0000
0000
0000
0000
0000
0000
0000
0000
0000
0000
0000
0000
0000
0000
0000
0000
0000
0000
0000
0000
0000
0000
0000
,  // measure 735
0000
1100
0000
0000
0000
1001
0000
1000
0100
0000
0100
0010
0000
0101
0000
1000
,  // measure 736
0000
0101
0000
0000
0000
0011
0000
0001
0010
0000
0010
0100
0000
0110
0000
0000
,  // measure 737
0000
1001
0000
0000
0000
0000
0000
0000
0000
0000
0000
0000
0000
0000
0000
0000
,  // measure 738
0000
0000
0000
1100
0000
0000
0000
0000
0000
0000
0000
1001
0000
0000
0000
1000
0000
0100
0000
0000
0000
0100
0000
0010
0000
0000
0000
0101
0000
0000
0000
1000
,  // measure 739
0000
0000
0000
0101
0000
0000
0000
0000
0000
0000
0000
0011
0000
0000
0000
0001
0000
0010
0000
0000
0000
0010
0000
0100
0000
0000
0000
0110
0000
0000
0000
0000
,  // measure 740
0000
0000
0000
1001
0000
0000
0000
0000
0000
0000
0000
0000
0000
0000
0000
0000
0000
0000
0000
0000
0000
0000
0000
0000
0000
0000
0000
0000
0000
0000
0000
0000
,  // measure 741
0000
0000
1100
0000
0000
0000
1001
0000
1000
0100
0000
0100
0010
0000
0101
0000
,  // measure 742
1000
0000
0101
0000
0000
0000
0011
0000
0001
0010
0000
0010
0100
0000
0110
0000
,  // measure 743
0000
1001
0000
0000
0000
0000
0000
0000
,  // measure 744
0000
0000
0000
0000
0000
1100
0000
0000
0000
0000
0000
0000
0000
1001
0000
0000
0000
1000
0000
0100
0000
0000
0000
0100
0000
0010
0000
0000
0000
0101
0000
0000
,  // measure 745
0000
1000
0000
0000
0000
0101
0000
0000
0000
0000
0000
0000
0000
0011
0000
0000
0000
0001
0000
0010
0000
0000
0000
0010
0000
0100
0000
0000
0000
0110
0000
0000
,  // measure 746
0000
0000
0000
0000
0000
1001
0000
0000
0000
0000
0000
0000
0000
0000
0000
0000
0000
0000
0000
0000
0000
0000
0000
0000
0000
0000
0000
0000
0000
0000
0000
0000
,  // measure 747
0000
0000
0000
1100
0000
0000
0000
1001
0000
1000
0100
0000
0100
0010
0000
0101
,  // measure 748
0000
1000
0000
0101
0000
0000
0000
0011
0000
0001
0010
0000
0010
0100
0000
0110
,  // measure 749
0000
0000
0000
1001
0000
0000
0000
0000
0000
0000
0000
0000
0000
0000
0000
0000
,  // measure 750
0000
0000
0000
0000
0000
0000
0000
1100
0000
0000
0000
0000
0000
0000
0000
1001
0000
0000
0000
1000
0000
0100
0000
0000
0000
0100
0000
0010
0000
0000
0000
0101
,  // measure 751
0000
0000
0000
1000
0000
0000
0000
0101
0000
0000
0000
0000
0000
0000
0000
0011
0000
0000
0000
0001
0000
0010
0000
0000
0000
0010
0000
0100
0000
0000
0000
0110
,  // measure 752
0000
0000
0000
0000
0000
0000
0000
1001
0000
0000
0000
0000
0000
0000
0000
0000
0000
0000
0000
0000
0000
0000
0000
0000
0000
0000
0000
0000
0000
0000
0000
0000
,  // measure 753
0000
0000
0000
0000
1100
0000
0000
0000
1001
0000
1000
0100
0000
0100
0010
0000
,  // measure 754
0101
0000
1000
0000
0101
0000
0000
0000
0011
0000
0001
0010
0000
0010
0100
0000
,  // measure 755
0110
1001
0000
0000
,  // measure 756
0000
0000
0000
0000
0000
0000
0000
0000
0000
1100
0000
0000
0000
0000
0000
0000
0000
1001
0000
0000
0000
1000
0000
0100
0000
0000
0000
0100
0000
0010
0000
0000
,  // measure 757
0000
0101
0000
0000
0000
1000
0000
0000
0000
0101
0000
0000
0000
0000
0000
0000
0000
0011
0000
0000
0000
0000
0000
0000
0000
0000
0000
0000
0000
0000
0000
0000
,  // measure 758
0000
0000
0000
0000
,  // measure 759
0000
0000
0000
0000
0000
1100
0000
0000
0000
1001
0000
1000
0100
0000
0100
0010
,  // measure 760
0000
0101
0000
1000
0000
0101
0000
0000
0000
0011
0000
0000
0000
0000
0000
0000
,  // measure 761
0000
0000
0000
0000
,  // measure 762
0000
0000
0000
1100
0000
0000
0000
0000
0000
0000
0000
1100
0000
0000
0000
0000
0000
0000
0000
1001
0000
0000
0000
1000
0000
0100
0000
0000
0000
0100
0000
0010
,  // measure 763
0000
0000
0000
0101
0000
0000
0000
1000
0000
0000
0000
0101
0000
0000
0000
0000
0000
0000
0000
0011
0000
0000
0000
0000
0000
0000
0000
0000
0000
0000
0000
0000
,  // measure 764
0000
0000
0000
0000
,  // measure 765
0000
0000
1100
0000
0000
0000
1100
0000
0000
0000
1001
0000
1000
0100
0000
0100
,  // measure 766
0010
0101
1000
0101
0000
0011
0000
0000
,  // measure 767
0000
0000
0000
0000
,  // measure 768
0000
0000
0000
0000
0000
1100
0000
0000
0000
0000
0000
0000
0000
1100
0000
0000
0000
0000
0000
0000
0000
1001
0000
0000
0000
1000
0000
0100
0000
0000
0000
0100
,  // measure 769
0000
0010
0000
0000
0000
0101
0000
0000
0000
1000
0000
0000
0000
0101
0000
0000
0000
0000
0000
0000
0000
0011
0000
0000
0000
0000
0000
0000
0000
0000
0000
0000
,  // measure 770
0000
0000
0000
0000
,  // measure 771
0000
0000
0000
1100
0000
0000
0000
1100
0000
0000
0000
1001
0000
1000
0100
0000
,  // measure 772
0100
0010
0000
0101
0000
1000
0000
0101
0000
0000
0000
0011
0000
0000
0000
0000
,  // measure 773
0000
0000
0000
0000
,  // measure 774
0000
0000
0000
0000
0000
0000
0000
1100
0000
0000
0000
0000
0000
0000
0000
1100
0000
0000
0000
0000
0000
0000
0000
1001
0000
0000
0000
1000
0000
0100
0000
0000
,  // measure 775
0000
0100
0000
0010
0000
0000
0000
0101
0000
0000
0000
1000
0000
0000
0000
0101
0000
0000
0000
0000
0000
0000
0000
0011
0000
0000
0000
0000
0000
0000
0000
0000
,  // measure 776
0000
0000
0000
0000
,  // measure 777
0000
0000
0000
0000
1100
0000
0000
0000
1100
0000
0000
0000
1001
0000
1000
0100
,  // measure 778
0000
0100
0010
0000
0101
0000
1000
0000
0101
0000
0000
0000
0011
0000
0000
0000
,  // measure 779
0000
0000
0000
0000
,  // measure 780
0000
0000
0000
0000
0000
0000
0000
0000
0000
1100
0000
0000
0000
0000
0000
0000
0000
1100
0000
0000
0000
0000
0000
0000
0000
1001
0000
0000
0000
1000
0000
0100
,  // measure 781
0000
0000
0000
0100
0000
0010
0000
0000
0000
0101
0000
0000
0000
1000
0000
0000
0000
0101
0000
0000
0000
0000
0000
0000
0000
0011
0000
0000
0000
0000
0000
0000
,  // measure 782
0000
0000
0000
0000
,  // measure 783
0000
0000
0000
0000
0000
1100
0000
0000
0000
1100
0000
0000
0000
1001
0000
1000
,  // measure 784
0100
0000
0100
0010
0000
0101
0000
1000
0000
0101
0000
0000
0000
0011
0000
0000
,  // measure 785
0000
0000
0000
0000
,  // measure 786
0000
0000
0000
0000
0000
0000
0000
0000
0000
0000
0000
1100
0000
0000
0000
0000
0000
0000
0000
1100
0000
0000
0000
0000
0000
0000
0000
1001
0000
0000
0000
1000
,  // measure 787
0000
0100
0000
0000
0000
0100
0000
0010
0000
0000
0000
0101
0000
0000
0000
1000
0000
0000
0000
0101
0000
0000
0000
0000
0000
0000
0000
0011
0000
0000
0000
0000
,  // measure 788
0000
0000
0000
0000
,  // measure 789
0000
0000
0010
1100
0000
1100
0000
1001
,  // measure 790
1000
0100
0000
0100
0010
0000
0101
0000
1000
0000
0101
0000
0000
0000
0011
0000
,  // measure 791
0000
0000
0000
0000
,  // measure 792
0000
0000
0000
0000
0000
0000
0000
0000
0000
0010
0000
0000
0000
1100
0000
0000
0000
0000
0000
0000
0000
1100
0000
0000
0000
0000
0000
0000
0000
1001
0000
0000
,  // measure 793
0000
1000
0000
0100
0000
0000
0000
0100
0000
0010
0000
0000
0000
0101
0000
0000
0000
1000
0000
0000
0000
0101
0000
0000
0000
0000
0000
0000
0000
0011
0000
0000
,  // measure 794
0000
0000
0000
0000
,  // measure 795
0000
0000
0000
0000
0000
0010
0000
1100
0000
0000
0000
1100
0000
0000
0000
1001
,  // measure 796
0000
1000
0100
0000
0100
0010
0000
0101
0000
1000
0000
0101
0000
0000
0000
0011
,  // measure 797
0000
0000
0000
0000
,  // measure 798
0000
0000
0000
0000
0000
0000
0000
0000
0000
0100
0000
0010
0000
0000
0000
1100
0000
0000
0000
0000
0000
0000
0000
1100
0000
0000
0000
0000
0000
0000
0000
1001
,  // measure 799
0000
0000
0000
1000
0000
0100
0000
0000
0000
0100
0000
0010
0000
0000
0000
0101
0000
0000
0000
1000
0000
0000
0000
0101
0000
0000
0000
0000
0000
0000
0000
0011
,  // measure 800
0000
0000
0000
0000
,  // measure 801
0000
0000
0000
0000
0000
0100
0010
0000
1100
0000
0000
0000
1100
0000
0000
0000
,  // measure 802
1001
0000
1000
0100
0000
0100
0010
0000
0101
0000
1000
0000
0101
0000
0000
0000
,  // measure 803
0011
0000
0000
0000
,  // measure 804
0000
0000
0000
0000
0000
0000
0000
0000
0000
0000
0000
0100
0000
0010
0000
0000
0000
1100
0000
0000
0000
0000
0000
0000
0000
1100
0000
0000
0000
0000
0000
0000
,  // measure 805
0000
1001
0000
0000
0000
1000
0000
0100
0000
0000
0000
0100
0000
0010
0000
0000
0000
0101
0000
0000
0000
1000
0000
0000
0000
0101
0000
0000
0000
0000
0000
0000
,  // measure 806
0000
0011
0000
0000
0000
0000
0000
0000
0000
0000
0000
0000
0000
0000
0000
0000
0000
0000
0000
0000
0000
0000
0000
0000
0000
0000
0000
0000
0000
0000
0000
0000
,  // measure 807
0000
0000
0000
0000
0000
0000
0100
0010
0000
1100
0000
0000
0000
1100
0000
0000
,  // measure 808
0000
1001
0000
1000
0100
0000
0100
0010
0000
0101
0000
1000
0000
0101
0000
0000
,  // measure 809
0000
0011
0000
0000
0000
0000
0000
0000
0000
0000
0000
0000
0000
0000
0000
0000
,  // measure 810
0000
0000
0000
0000
0000
0000
0000
0000
0000
0000
0000
0000
0000
0100
0000
0010
0000
0000
0000
1100
0000
0000
0000
0000
0000
0000
0000
1100
0000
0000
0000
0000
,  // measure 811
0000
0000
0000
1001
0000
0000
0000
1000
0000
0100
0000
0000
0000
0100
0000
0010
0000
0000
0000
0101
0000
0000
0000
1000
0000
0000
0000
0101
0000
0000
0000
0000
,  // measure 812
0000
0000
0000
0011
0000
0000
0000
0000
0000
0000
0000
0000
0000
0000
0000
0000
0000
0000
0000
0000
0000
0000
0000
0000
0000
0000
0000
0000
0000
0000
0000
0000
,  // measure 813
0000
0000
0000
0000
0000
0000
0000
0100
0010
0000
1100
0000
0000
0000
1100
0000
,  // measure 814
0000
0000
1001
0000
1000
0100
0000
0100
0010
0000
0101
0000
1000
0000
0101
0000
,  // measure 815
0000
0011
0000
0000
0000
0000
0000
0000
,  // measure 816
0000
0000
0000
0000
0000
0000
0000
0000
0000
0000
0000
0000
0000
0000
0000
0100
0000
0010
0000
0000
0000
1100
0000
0000
0000
0000
0000
0000
0000
1100
0000
0000
,  // measure 817
0000
0000
0000
0000
0000
1001
0000
0000
0000
1000
0000
0100
0000
0000
0000
0100
0000
0010
0000
0000
0000
0101
0000
0000
0000
1000
0000
0000
0000
0101
0000
0000
,  // measure 818
0000
0000
0000
0000
0000
0011
0000
0000
0000
0000
0000
0000
0000
0000
0000
0000
0000
0000
0000
0000
0000
0000
0000
0000
0000
0000
0000
0000
0000
0000
0000
0000
,  // measure 819
0000
0000
0000
0000
0000
0000
0000
0000
0100
0010
0000
1100
0000
0000
0000
1100
,  // measure 820
0000
0000
0000
1001
0000
1000
0100
0000
0100
0010
0000
0101
0000
1000
0000
0101
,  // measure 821
0000
0000
0000
0011
0000
0000
0000
0000
0000
0000
0000
0000
0000
0000
0000
0000
,  // measure 822
0000
0000
0000
0000
0000
0000
0000
0000
0000
0000
0000
0000
0000
0100
0000
0000
0000
0100
0000
0010
0000
0000
0000
1100
0000
0000
0000
0000
0000
0000
0000
1100
,  // measure 823
0000
0000
0000
0000
0000
0000
0000
1001
0000
0000
0000
1000
0000
0100
0000
0000
0000
0100
0000
0010
0000
0000
0000
0101
0000
0000
0000
1000
0000
0000
0000
0101
,  // measure 824
0000
0000
0000
0000
0000
0000
0000
0011
0000
0000
0000
0000
0000
0000
0000
0000
0000
0000
0000
0000
0000
0000
0000
0000
0000
0000
0000
0000
0000
0000
0000
0000
,  // measure 825
0000
0000
0000
0000
0000
0000
0000
0100
0000
0100
0010
0000
1100
0000
0000
0000
,  // measure 826
1100
0000
0000
0000
1001
0000
1000
0100
0000
0100
0010
0000
0101
0000
1000
0000
,  // measure 827
0101
0011
0000
0000
,  // measure 828
0000
0000
0000
0000
0000
0000
0000
0000
0000
0000
0000
0000
0000
0000
0000
0100
0000
0000
0000
0100
0000
0010
0000
0000
0000
1100
0000
0000
0000
0000
0000
0000
,  // measure 829
0000
1100
0000
0000
0000
0000
0000
0000
0000
1001
0000
0000
0000
1000
0000
0100
0000
0000
0000
0100
0000
0010
0000
0000
0000
0101
0000
0000
0000
1000
0000
0000
,  // measure 830
0000
0101
0000
0000
0000
0000
0000
0000
0000
0011
0000
0000
0000
0000
0000
0000
0000
0000
0000
0000
0000
0000
0000
0000
0000
0000
0000
0000
0000
0000
0000
0000
,  // measure 831
0000
0000
0000
0000
0000
0000
0000
0000
0100
0000
0100
0010
0000
1100
0000
0000
,  // measure 832
0000
1100
0000
0000
0000
1001
0000
1000
0100
0000
0100
0010
0000
0101
0000
1000
,  // measure 833
0000
0101
0000
0000
0000
0011
0000
0000
0000
0000
0000
0000
0000
0000
0000
0000
,  // measure 834
0000
0000
0000
0000
0000
0000
0000
0000
0000
0000
0000
0000
0000
0000
0000
0001
0000
0100
0000
0000
0000
0100
0000
0010
0000
0000
0000
1100
0000
0000
0000
0000
,  // measure 835
0000
0000
0000
1100
0000
0000
0000
0000
0000
0000
0000
1001
0000
0000
0000
1000
0000
0100
0000
0000
0000
0100
0000
0010
0000
0000
0000
0101
0000
0000
0000
1000
,  // measure 836
0000
0000
0000
0101
0000
0000
0000
0000
0000
0000
0000
0011
0000
0000
0000
0000
0000
0000
0000
0000
0000
0000
0000
0000
0000
0000
0000
0000
0000
0000
0000
0000
,  // measure 837
0000
0000
0000
0000
0000
0000
0000
0000
0001
0100
0000
0100
0010
0000
1100
0000
,  // measure 838
0000
0000
1100
0000
0000
0000
1001
0000
1000
0100
0000
0100
0010
0000
0101
0000
,  // measure 839
1000
0101
0000
0011
0000
0000
0000
0000
,  // measure 840
0000
0000
0000
0000
0000
0000
0000
0000
0000
0000
0000
0000
0000
0000
0000
0000
0000
0001
0000
0100
0000
0000
0000
0100
0000
0010
0000
0000
0000
1100
0000
0000
,  // measure 841
0000
0000
0000
0000
0000
1100
0000
0000
0000
0000
0000
0000
0000
1001
0000
0000
0000
1000
0000
0100
0000
0000
0000
0100
0000
0010
0000
0000
0000
0101
0000
0000
,  // measure 842
0000
1000
0000
0000
0000
0101
0000
0000
0000
0000
0000
0000
0000
0011
0000
0000
0000
0000
0000
0000
0000
0000
0000
0000
0000
0000
0000
0000
0000
0000
0000
0000
,  // measure 843
0000
0000
0000
0000
0000
0000
0000
0000
0000
0001
0100
0000
0100
0010
0000
1100
,  // measure 844
0000
0000
0000
1100
0000
0000
0000
1001
0000
1000
0100
0000
0100
0010
0000
0101
,  // measure 845
0000
1000
0000
0101
0000
0000
0000
0011
0000
0000
0000
0000
0000
0000
0000
0000
,  // measure 846
0000
0000
0000
0000
0000
0000
0000
0000
0000
0000
0000
0000
0000
0000
0000
0000
0000
0000
0000
0001
0000
0100
0000
0000
0000
0100
0000
0010
0000
0000
0000
1100
,  // measure 847
0000
0000
0000
0000
0000
0000
0000
1100
0000
0000
0000
0000
0000
0000
0000
1001
0000
0000
0000
1000
0000
0100
0000
0000
0000
0100
0000
0010
0000
0000
0000
0101
,  // measure 848
0000
0000
0000
1000
0000
0000
0000
0101
0000
0000
0000
0000
0000
0000
0000
0011
0000
0000
0000
0000
0000
0000
0000
0000
0000
0000
0000
0000
0000
0000
0000
0000
,  // measure 849
0000
0000
0000
0000
0000
0000
0000
0000
0000
0000
0001
0100
0000
0100
0010
0000
,  // measure 850
1100
0000
0000
0000
1100
0000
0000
0000
1001
0000
1000
0100
0000
0100
0010
0000
,  // measure 851
0101
1000
0101
0000
0011
0000
0000
0000
,  // measure 852
0000
0000
0000
0000
0000
0000
0000
0000
0000
0000
0000
0000
0000
0000
0000
0000
0000
0000
0000
0000
0000
0001
0000
0100
0000
0000
0000
0100
0000
0010
0000
0000
,  // measure 853
0000
1100
0000
0000
0000
0000
0000
0000
0000
1100
0000
0000
0000
0000
0000
0000
0000
1001
0000
0000
0000
1000
0000
0100
0000
0000
0000
0100
0000
0010
0000
0000
,  // measure 854
0000
0101
0000
0000
0000
0000
0000
0000
0000
0000
0000
0000
0000
0000
0000
0000
0000
0000
0000
0000
0000
0000
0000
0000
0000
0000
0000
0000
0000
0000
0000
0000
,  // measure 855
0000
0000
0000
0000
0000
0000
0000
0000
0000
0000
0000
0001
0100
0000
0100
0010
,  // measure 856
0000
1100
0000
0000
0000
1100
0000
0000
0000
1001
0000
1000
0100
0000
0100
0010
,  // measure 857
0000
0101
0000
0000
0000
0000
0000
0000
0000
0000
0000
0000
0000
0000
0000
0000
,  // measure 858
0000
0000
0000
0000
0000
0000
0000
0000
0000
0000
0000
0000
0000
0000
0000
0000
0000
0000
0000
1001
0000
0000
0000
0001
0000
0100
0000
0000
0000
0100
0000
0010
,  // measure 859
0000
0000
0000
1100
0000
0000
0000
0000
0000
0000
0000
1100
0000
0000
0000
0000
0000
0000
0000
1001
0000
0000
0000
1000
0000
0100
0000
0000
0000
0100
0000
0010
,  // measure 860
0000
0000
0000
0101
0000
0000
0000
0000
0000
0000
0000
0000
0000
0000
0000
0000
0000
0000
0000
0000
0000
0000
0000
0000
0000
0000
0000
0000
0000
0000
0000
0000
,  // measure 861
0000
0000
0000
0000
0000
0000
0000
0000
0000
0000
1001
0000
0001
0100
0000
0100
,  // measure 862
0010
0000
1100
0000
0000
0000
1100
0000
0000
0000
1001
0000
1000
0100
0000
0100
,  // measure 863
0010
0101
0000
0000
0000
0000
0000
0000
,  // measure 864
0000
0000
0000
0000
0000
0000
0000
0000
0000
0000
0000
0000
0000
0000
0000
0000
0000
0000
0000
0000
0000
1001
0000
0000
0000
0001
0000
0100
0000
0000
0000
0100
,  // measure 865
0000
0010
0000
0000
0000
1100
0000
0000
0000
0000
0000
0000
0000
1100
0000
0000
0000
0000
0000
0000
0000
1001
0000
0000
0000
1000
0000
0100
0000
0000
0000
0100
,  // measure 866
0000
0010
0000
0000
0000
0101
0000
0000
0000
0000
0000
0000
0000
0000
0000
0000
0000
0000
0000
0000
0000
0000
0000
0000
0000
0000
0000
0000
0000
0000
0000
0000
,  // measure 867
0000
0000
0000
0000
0000
0000
0000
0000
0000
0000
0000
1001
0000
0001
0100
0000
,  // measure 868
0100
0010
0000
1100
0000
0000
0000
1100
0000
0000
0000
1001
0000
1000
0100
0000
,  // measure 869
0100
0010
0000
0101
0000
0000
0000
0000
0000
0000
0000
0000
0000
0000
0000
0000
,  // measure 870
0000
0000
0000
0000
0000
0000
0000
0000
0000
0000
0000
0000
0000
0000
0000
0000
0000
0000
0000
0000
0000
0000
0000
1001
0000
0000
0000
0001
0000
0100
0000
0000
,  // measure 871
0000
0100
0000
0010
0000
0000
0000
1100
0000
0000
0000
0000
0000
0000
0000
1100
0000
0000
0000
0000
0000
0000
0000
1001
0000
0000
0000
1000
0000
0100
0000
0000
,  // measure 872
0000
0100
0000
0010
0000
0000
0000
0101
0000
0000
0000
0000
0000
0000
0000
0000
0000
0000
0000
0000
0000
0000
0000
0000
0000
0000
0000
0000
0000
0000
0000
0000
,  // measure 873
0000
0000
0000
0000
0000
0000
0000
0000
0000
0000
0000
0000
1001
0000
0001
0100
,  // measure 874
0000
0100
0010
0000
1100
0000
0000
0000
1100
0000
0000
0000
1001
0000
1000
0100
,  // measure 875
0000
0100
0010
0000
0101
0000
0000
0000
0000
0000
0000
0000
0000
0000
0000
0000
,  // measure 876
0000
0000
0000
0000
0000
0000
0000
0000
0000
0000
0000
0000
0000
0000
0000
0000
0000
0000
0000
0000
0000
0000
0000
0000
0000
1001
0000
0000
0000
0001
0000
0100
,  // measure 877
0000
0000
0000
0100
0000
0010
0000
0000
0000
1100
0000
0000
0000
0000
0000
0000
0000
1100
0000
0000
0000
0000
0000
0000
0000
1001
0000
0000
0000
1000
0000
0100
,  // measure 878
0000
0000
0000
0100
0000
0010
0000
0000
0000
0101
0000
0000
0000
0000
0000
0000
0000
0000
0000
0000
0000
0000
0000
0000
0000
0000
0000
0000
0000
0000
0000
0000
,  // measure 879
0000
0000
0000
0000
0000
0000
0000
0000
0000
0000
0000
0000
0000
1001
0000
0001
,  // measure 880
0100
0000
0100
0010
0000
1100
0000
0000
0000
1100
0000
0000
0000
1001
0000
1000
,  // measure 881
0100
0000
0100
0010
0000
0101
0000
0000
0000
0000
0000
0000
0000
0000
0000
0000
,  // measure 882
0000
0000
0000
0000
0000
0000
0000
0000
0000
0000
0000
0000
0000
0000
0000
0000
0000
0000
0000
0000
0000
0000
0000
0000
0000
0000
0000
1001
0000
0000
0000
0001
,  // measure 883
0000
0100
0000
0000
0000
0100
0000
0010
0000
0000
0000
1100
0000
0000
0000
0000
0000
0000
0000
1100
0000
0000
0000
0000
0000
0000
0000
1001
0000
0000
0000
1000
,  // measure 884
0000
0100
0000
0000
0000
0100
0000
0010
0000
0000
0000
0101
0000
0000
0000
0000
0000
0000
0000
0000
0000
0000
0000
0000
0000
0000
0000
0000
0000
0000
0000
0000
,  // measure 885
0000
0000
0000
0000
0000
0000
0000
1001
,  // measure 886
0001
0100
0000
0100
0010
0000
1100
0000
0000
0000
1100
0000
0000
0000
1001
0000
,  // measure 887
1000
0100
0000
0100
0010
0000
0101
0000
0000
0000
0000
0000
0000
0000
0000
0000
,  // measure 888
0000
0000
0000
0000
0000
0000
0000
0000
0000
0000
0000
0000
0000
0000
0000
0000
0000
0000
0000
0000
0000
0000
0000
0000
0000
0000
0000
0000
0000
1001
0000
0000
,  // measure 889
0000
0001
0000
0100
0000
0000
0000
0100
0000
0010
0000
0000
0000
1100
0000
0000
0000
0000
0000
0000
0000
1100
0000
0000
0000
0000
0000
0000
0000
1001
0000
0000
,  // measure 890
0000
1000
0000
0100
0000
0000
0000
0100
0000
0010
0000
0000
0000
0101
0000
0000
0000
0000
0000
0000
0000
0000
0000
0000
0000
0000
0000
0000
0000
0000
0000
0000
,  // measure 891
0000
0000
0000
0000
0000
0000
0000
0000
0000
0000
0000
0000
0000
0000
0000
1001
,  // measure 892
0000
0001
0100
0000
0100
0010
0000
1100
0000
0000
0000
1100
0000
0000
0000
1001
,  // measure 893
0000
1000
0100
0000
0100
0010
0000
0101
0000
0000
0000
0000
0000
0000
0000
0000
,  // measure 894
0000
0000
0000
0000
0000
0000
0000
0000
0000
0000
0000
0000
0000
0000
0000
0000
0000
0000
0000
0000
0000
0000
0000
0000
0000
0000
0000
0000
0000
0000
0000
1001
,  // measure 895
0000
0000
0000
0001
0000
0100
0000
0000
0000
0100
0000
0010
0000
0000
0000
1100
0000
0000
0000
0000
0000
0000
0000
1100
0000
0000
0000
0000
0000
0000
0000
1001
,  // measure 896
0000
0000
0000
1000
0000
0100
0000
0000
0000
0100
0000
0010
0000
0000
0000
0101
0000
0000
0000
0000
0000
0000
0000
0000
0000
0000
0000
0000
0000
0000
0000
0000
,  // measure 897
0000
0000
0000
0000
,  // measure 898
1001
0000
0001
0100
0000
0100
0010
0000
1100
0000
0000
0000
1100
0000
0000
0000
,  // measure 899
1001
0000
1000
0100
0000
0100
0010
0000
0101
0000
0000
0000
0000
0000
0000
0000
,  // measure 900
0000
0000
0000
0000
,  // measure 901
0000
1001
0000
0000
0000
0001
0000
0100
0000
0000
0000
0100
0000
0010
0000
0000
0000
1100
0000
0000
0000
0000
0000
0000
0000
1100
0000
0000
0000
0000
0000
0000
,  // measure 902
0000
1001
0000
0000
0000
1000
0000
0100
0000
0000
0000
0100
0000
0010
0000
0000
0000
0101
0000
0000
0000
0000
0000
0000
0000
0000
0000
0000
0000
0000
0000
0000
,  // measure 903
0000
0000
0000
0000
,  // measure 904
0000
1001
0000
0001
0100
0000
0100
0010
0000
1100
0000
0000
0000
1100
0000
0000
,  // measure 905
0000
1001
0000
1000
0100
0000
0100
0010
0000
0101
0000
0000
0000
0000
0000
0000
,  // measure 906
0000
0000
0000
0000
,  // measure 907
0000
0000
0000
1001
0000
0000
0000
0001
0000
0100
0000
0000
0000
0100
0000
0010
0000
0000
0000
1100
0000
0000
0000
0000
0000
0000
0000
1100
0000
0000
0000
0000
,  // measure 908
0000
0000
0000
1001
0000
0000
0000
1000
0000
0100
0000
0000
0000
0100
0000
0010
0000
0000
0000
0101
0000
0000
0000
0000
0000
0000
0000
0000
0000
0000
0000
0000
,  // measure 909
0000
0000
0000
0000
,  // measure 910
0000
0000
1001
0000
0001
0100
0000
0100
0010
0000
1100
0000
0000
0000
1100
0000
,  // measure 911
0000
0000
1001
0000
1000
0100
0000
0100
0010
0000
0101
0000
0000
0000
0000
0000
,  // measure 912
0000
0000
0000
0000
,  // measure 913
0000
0000
0000
0000
0000
1001
0000
0000
0000
0001
0000
0100
0000
0000
0000
0100
0000
0010
0000
0000
0000
1100
0000
0000
0000
0000
0000
0000
0000
1100
0000
0000
,  // measure 914
0000
0000
0000
0000
0000
1001
0000
0000
0000
1000
0000
0100
0000
0000
0000
0100
0000
0010
0000
0000
0000
0101
0000
0000
0000
0000
0000
0000
0000
0000
0000
0000
,  // measure 915
0000
0000
0000
0000
,  // measure 916
0000
0000
0000
1001
0000
0001
0100
0000
0100
0010
0000
1100
0000
0000
0000
1100
,  // measure 917
0000
0000
0000
1001
0000
1000
0100
0000
0100
0010
0000
0101
0000
0000
0000
0000
,  // measure 918
0000
0000
0000
0000
,  // measure 919
0000
0000
0000
0000
0000
0000
0000
1001
0000
0000
0000
0001
0000
0100
0000
0000
0000
0100
0000
0010
0000
0000
0000
1100
0000
0000
0000
0000
0000
0000
0000
1100
,  // measure 920
0000
0000
0000
0000
0000
0000
0000
1001
0000
0000
0000
1000
0000
0100
0000
0000
0000
0100
0000
0010
0000
0000
0000
0101
0000
0000
0000
0000
0000
0000
0000
0000
,  // measure 921
0000
0000
0000
0000
,  // measure 922
0000
0000
0000
0000
1001
0000
0001
0100
0000
0100
0010
0000
1100
0000
0000
0000
,  // measure 923
1100
0000
0000
0000
1001
0000
1000
0100
0000
0100
0010
0000
0101
0000
0000
0000
,  // measure 924
0000
0000
0000
0000
,  // measure 925
0000
0000
0000
0000
0000
0000
0000
0000
0000
1001
0000
0000
0000
0001
0000
0100
0000
0000
0000
0100
0000
0010
0000
0000
0000
1100
0000
0000
0000
0000
0000
0000
,  // measure 926
0000
1100
0000
0000
0000
0000
0000
0000
0000
1001
0000
0000
0000
1000
0000
0100
0000
0000
0000
0100
0000
0010
0000
0000
0000
0101
0000
0000
0000
0000
0000
0000
,  // measure 927
0000
0000
0000
0000
,  // measure 928
0000
0000
0000
0000
0000
1001
0000
0001
0100
0000
0100
0010
0000
1100
0000
0000
,  // measure 929
0000
1100
0000
0000
0000
1001
0000
1000
0100
0000
0100
0010
0000
0101
0000
0000
,  // measure 930
0000
0000
0000
0000
,  // measure 931
0000
0000
0000
0000
0000
0000
0000
0000
0000
0000
0000
1001
0000
0000
0000
0001
0000
0100
0000
0000
0000
0100
0000
0010
0000
0000
0000
1100
0000
0000
0000
0000
,  // measure 932
0000
0000
0000
1100
0000
0000
0000
0000
0000
0000
0000
1001
0000
0000
0000
1000
0000
0100
0000
0000
0000
0100
0000
0010
0000
0000
0000
0101
0000
0000
0000
0000
,  // measure 933
0000
0000
0000
0000
,  // measure 934
0000
0000
0000
0000
0000
0000
1001
0000
0001
0100
0000
0100
0010
0000
1100
0000
,  // measure 935
0000
0000
1100
0000
0000
0000
1001
0000
1000
0100
0000
0100
0010
0000
0101
0000
,  // measure 936
0000
0000
0000
0000
,  // measure 937
0000
0000
0000
0000
0000
0000
0000
0000
0000
0000
0000
0000
0000
1001
0000
0000
0000
0001
0000
0100
0000
0000
0000
0100
0000
0010
0000
0000
0000
1100
0000
0000
,  // measure 938
0000
0000
0000
0000
0000
1100
0000
0000
0000
0000
0000
0000
0000
1001
0000
0000
0000
1000
0000
0100
0000
0000
0000
0100
0000
0010
0000
0000
0000
0101
0000
0000
,  // measure 939
0000
0000
0000
0000
,  // measure 940
0000
0000
0000
0000
0000
0000
0000
1001
0000
0001
0100
0000
0100
0010
0000
1100
,  // measure 941
0000
0000
0000
1100
0000
0000
0000
1001
0000
1000
0100
0000
0100
0010
0000
0101
,  // measure 942
0000
0000
0000
0000
,  // measure 943
0000
0000
0000
0000
0000
0000
0000
0000
0000
0000
0000
0000
0000
0000
0000
1001
0000
0000
0000
0001
0000
0100
0000
0000
0000
0100
0000
0010
0000
0000
0000
1100
,  // measure 944
0000
0000
0000
0000
0000
0000
0000
1100
0000
0000
0000
0000
0000
0000
0000
1001
0000
0000
0000
1000
0000
0100
0000
0000
0000
0100
0000
0010
0000
0000
0000
0101
,  // measure 945
0000
0000
0000
0000
,  // measure 946
0000
0000
0000
0000
0000
0000
0000
0000
1001
0000
0001
0100
0000
0100
0010
0000
,  // measure 947
1100
0000
0000
0000
1100
0000
0000
0000
1001
0000
1000
0100
0000
0100
0010
0000
,  // measure 948
0101
0000
1000
0000
0101
0000
0000
0000
0011
0000
0001
0010
0000
0010
0100
0000
,  // measure 949
0110
0000
0000
0000
1001
0000
0000
0000
1010
0000
1000
0010
0000
0010
0100
0000
,  // measure 950
0101
0000
0010
0000
1001
0000
0010
0000
1100
0000
1000
0100
0000
0010
0001
0000
,  // measure 951
0011
0000
0000
0000
0011
0000
0000
0000
0101
0000
0001
0100
0000
0010
1000
0000
,  // measure 952
1010
0000
0001
0000
0110
0000
0000
0000
1100
0000
0100
0010
0000
0010
0001
0000
,  // measure 953
0110
0000
0000
0000
1001
0000
0000
0000
0101
0000
0100
0010
0000
0010
1000
0000
,  // measure 954
0110
0000
0001
0000
1010
0000
0100
0000
0001
0000
1000
0100
0000
0010
0001
0000
,  // measure 955
1000
0000
0000
0000
0010
0000
0000
0000
1000
0000
0001
0010
0000
0100
1000
0000
,  // measure 956
0001
0000
0010
0000
0001
0000
0000
0000
1000
0000
0100
0010
0000
0100
1000
0000
,  // measure 957
0010
0000
0000
0000
0100
0000
0000
0000
0001
0000
0100
0010
0000
0100
0001
0000
,  // measure 958
1000
0000
0100
0000
0010
0000
0001
0000
1000
0000
0001
0100
0000
0010
1000
0000
,  // measure 959
0100
0000
0000
0000
0010
0000
0000
0000
0001
0000
1000
0100
0000
0010
0001
0000
,  // measure 960
1000
0000
0010
0000
0100
0000
0010
0000
1000
0000
0100
0010
0000
0001
0100
0000
,  // measure 961
0010
0000
0000
0000
1000
0000
0000
0000
0001
0000
0100
0010
0000
1000
0100
0000
,  // measure 962
0010
0001
0100
0010
1000
0100
1000
0000
,  // measure 963
0010
0000
0010
0000
0100
0001
0100
0000
,  // measure 964
0010
1000
0001
1000
0100
0010
0100
0000
,  // measure 965
1000
0000
1000
0000
0001
0100
0001
0000
,  // measure 966
0010
0100
0010
0100
0010
0001
0100
0000
,  // measure 967
0010
0000
0010
0000
0100
0001
0100
0000
,  // measure 968
0001
1000
0010
0100
0001
0010
0001
0000
,  // measure 969
0100
0000
0100
0000
0010
1000
0010
0000
,  // measure 970
1000
0100
0010
0001
2002
0000
0000
0000
,  // measure 971
3003
0000
0000
0000
,  // measure 972
1000
0100
0010
0100
,  // measure 973
1000
0010
0100
0001
,  // measure 974
0100
0000
0000
0000
,  // measure 975
M000
0M00
00M0
0M00
,  // measure 976
M000
00M0
0M00
000M
,  // measure 977
0M00
0000
0000
0000
,  // measure 978
1000
0100
0010
0100
,  // measure 979
1000
0010
0100
0001
,  // measure 980
0100
0000
0000
0000
,  // measure 981
M000
0M00
00M0
0M00
,  // measure 982
M000
00M0
0M00
000M
,  // measure 983
0M00
0000
0000
0000
,  // measure 984
1000
0100
0010
0100
,  // measure 985
1000
0010
0100
0001
,  // measure 986
0100
0000
0000
0000
,  // measure 987
M000
0M00
00M0
0M00
,  // measure 988
M000
00M0
0M00
000M
,  // measure 989
0M00
0000
0000
0000
,  // measure 990
1000
0100
0010
0100
,  // measure 991
1000
0010
0100
0001
,  // measure 992
0100
0000
0000
0000
,  // measure 993
M000
0M00
00M0
0M00
,  // measure 994
M000
00M0
0M00
000M
,  // measure 995
0M00
0000
0000
0000
,  // measure 996
1000
0100
0010
0100
,  // measure 997
1000
0010
0100
0001
,  // measure 998
0100
0000
0000
0000
,  // measure 999
M000
0M00
00M0
0M00
,  // measure 1000
M000
00M0
0M00
000M
,  // measure 1001
0M00
0000
0000
0000
,  // measure 1002
1000
0100
0010
0100
,  // measure 1003
1000
0010
0100
0001
,  // measure 1004
0100
0010
1000
0100
,  // measure 1005
1000
0000
0001
0000
0100
0000
0010
1000
,  // measure 1006
0001
0010
0100
0010
,  // measure 1007
0001
0100
0010
1000
,  // measure 1008
0010
0100
0001
0010
,  // measure 1009
0001
0000
1000
0000
0010
0000
0100
0001
,  // measure 1010
0100
0010
1000
0001
,  // measure 1011
0010
0000
0100
0000
1000
0000
0001
1000
,  // measure 1012
0100
0010
0001
1000
,  // measure 1013
0010
0000
0100
0000
0001
0000
1000
0001
,  // measure 1014
1000
0000
0100
0000
0010
0000
0100
1000
,  // measure 1015
0001
0000
0100
0000
0010
0000
0100
0001
,  // measure 1016
1000
0010
1000
0010
0100
0001
0100
0001
,  // measure 1017
1000
1000
0001
0001
,  // measure 1018
1000
0100
1000
0001
,  // measure 1019
0100
0010
2000
3000
,  // measure 1020
0001
0000
0000
0000
0000
0000
1000
0000
0100
0000
1000
0000
,  // measure 1021
0001
0000
0100
0000
0010
0000
2000
0000
0000
3000
0000
0000
,  // measure 1022
0000
0000
2000
3000
,  // measure 1023
0001
0000
0000
0000
0000
0000
0001
0000
0010
0000
0001
0000
,  // measure 1024
1000
0000
0010
0000
0100
0000
0002
0000
0000
0003
0000
0000
,  // measure 1025
0000
0000
0000
0000
,  // measure 1026
0001
0000
0000
0000
0000
0000
1000
0000
0100
0000
1000
0000
,  // measure 1027
0001
0000
0100
0000
0010
0000
2000
0000
0000
3000
0000
0000
,  // measure 1028
1000
0100
1000
0000
,  // measure 1029
0010
0000
0100
0000
0000
0000
0001
0010
,  // measure 1030
0001
0000
2000
3000
,  // measure 1031
0001
0010
0001
0000
,  // measure 1032
0100
0000
0010
0000
0000
0000
1000
0100
,  // measure 1033
1000
0000
0000
0000
,  // measure 1034
1000
0100
1000
0000
,  // measure 1035
0010
0000
0100
0000
0000
0000
0001
0010
,  // measure 1036
0001
0000
0000
0000
0000
0000
0000
0000
0000
0000
0000
0000
0000
0000
0000
0000
0000
0000
0000
0000
0000
0000
0000
0000
0000
0000
0000
0000
0000
0000
0000
0000
00MM
00MM
00MM
00MM
00MM
00MM
00MM
00MM
00MM
00MM
00MM
00MM
00MM
00MM
00MM
00MM
0000
0000
0000
0000
0000
0000
0000
0000
0000
0000
0000
0000
0000
0000
0000
0000
,  // measure 1037
0MM0
0MM0
0MM0
0MM0
0MM0
0MM0
0MM0
0MM0
0MM0
0MM0
0MM0
0MM0
0MM0
0MM0
0MM0
0MM0
0000
0000
0000
0000
0000
0000
0000
0000
0000
0000
0000
0000
0000
0000
0000
0000
MM00
MM00
MM00
MM00
MM00
MM00
MM00
MM00
MM00
MM00
MM00
MM00
MM00
MM00
MM00
MM00
0000
0000
0000
0000
0000
0000
0000
0000
0000
0000
0000
0000
0000
0000
0000
0000
,  // measure 1038
1000
0000
0000
0000
0001
0000
0100
0000
0000
0000
0010
0000
,  // measure 1039
1000
0000
0022
0033
,  // measure 1040
0MM0
0MM0
0MM0
0MM0
0MM0
0MM0
0MM0
0MM0
0MM0
0MM0
0MM0
0MM0
0MM0
0MM0
0MM0
0MM0
0000
0000
0000
0000
0000
0000
0000
0000
0000
0000
0000
0000
0000
0000
0000
0000
MM00
MM00
MM00
MM00
MM00
MM00
MM00
MM00
MM00
MM00
MM00
MM00
MM00
MM00
MM00
MM00
0000
0000
0000
0000
0000
0000
0000
0000
0000
0000
0000
0000
0000
0000
0000
0000
,  // measure 1041
1000
0000
0000
0000
0001
0000
0100
0000
0000
0000
0010
0000
,  // measure 1042
1000
0000
0000
0000
,  // measure 1043
0220
0000
0000
0000
0000
0000
0000
0000
0000
0000
0000
0000
0000
0000
0000
0000
0330
0000
0000
0000
0000
0000
0000
0000
0000
0000
0000
0000
0000
0000
0000
0000
MM00
MM00
MM00
MM00
MM00
MM00
MM00
MM00
MM00
MM00
MM00
MM00
MM00
MM00
MM00
MM00
0000
0000
0000
0000
0000
0000
0000
0000
0000
0000
0000
0000
0000
0000
0000
0000
,  // measure 1044
1000
0000
0000
0000
0001
0000
0100
0000
0000
0000
0010
0000
,  // measure 1045
1000
0000
0000
0000
,  // measure 1046
0000
0000
2200
3300
,  // measure 1047
1000
0000
0000
0000
0001
0000
0100
0000
0000
0000
0010
0000
,  // measure 1048
1000
0000
0000
0000
0100
0000
0010
0000
0000
0000
0100
0000
,  // measure 1049
1000
0000
0000
0000
0010
0000
0001
0000
0000
0000
0010
0000
,  // measure 1050
0100
0000
0000
0000
0001
0000
1000
0000
0000
0000
0010
0000
,  // measure 1051
1000
0000
0100
0000
1000
0000
0010
0000
0100
0000
0001
0000
,  // measure 1052
0010
0000
0001
0000
0100
0000
0001
0000
1000
0000
0010
0000
,  // measure 1053
1000
0000
0100
0000
0010
0000
0001
0000
0100
0000
0010
0000
,  // measure 1054
0100
0000
0001
0000
1000
0000
0001
0000
0010
0000
0100
0000
,  // measure 1055
0000
0000
0000
0000
,  // measure 1056
0000
0000
0000
2002
,  // measure 1057
0000
0000
0000
0000
,  // measure 1058
0000
3003
0000
0000
;
