#TITLE:Kalinka;
#SUBTITLE:[Tetris the Grandmaster 3 - Terror Instinct];
#ARTIST:Megaten, AYA, J99;
#TITLETRANSLIT:;
#SUBTITLETRANSLIT:;
#ARTISTTRANSLIT:;
#CREDIT:;
#BANNER:kalinka.png;
#BACKGROUND:kalinka-bg.png;
#LYRICSPATH:;
#CDTITLE:!hiryuu.png;
#MUSIC:kalinka.ogg;
#OFFSET:0.000;
#SAMPLESTART:0.702;
#SAMPLELENGTH:24.693;
#SELECTABLE:YES;
#BPMS:0.000=86.000,1.000=115.000,5.000=120.000,7.000=125.000,9.000=130.000,11.000=135.000,13.000=140.000,15.000=145.000,17.000=150.000,35.000=155.000,37.000=160.000,39.000=165.000,43.000=170.000,45.000=175.000,47.000=180.000,51.000=185.000,53.000=190.000,55.000=195.000,59.000=200.000,61.000=205.000,63.000=210.000,244.000=105.000,252.000=210.000;
#STOPS:179.000=0.286
;
#BGCHANGES:;

//---------------dance-single - MANIAC----------------
#NOTES:
     dance-single:
     MANIAC:
     Hard:
     10:
     0.765,0.764,0.509,0.145,0.095: // measure 1
0002
0000
1003
0000
0010
0100
0001
0000
,  // measure 2
0010
0100
1000
0000
0001
1000
0001
0000
,  // measure 3
1000
0000
0100
0000
1000
0000
0000
0001
0010
0000
0001
0000
1000
0000
0000
0000
,  // measure 4
0010
0100
0001
0001
0010
0100
1000
0001
,  // measure 5
0000
1000
1001
0000
1000
0100
1000
0000
,  // measure 6
0001
0010
0001
0000
0100
0010
0100
0000
,  // measure 7
0001
0000
0010
0000
0100
0000
0000
0010
0100
0000
1000
0000
0001
0000
0000
0000
,  // measure 8
1000
0100
0010
0010
0100
1000
0001
0000
,  // measure 9
1001
0000
1000
0000
0100
1000
0100
0000
,  // measure 10
0010
0001
0010
0000
0100
1000
0010
0000
,  // measure 11
0100
0000
0010
0000
0100
0000
0000
0010
0100
0000
0001
0000
0010
0000
0000
0000
,  // measure 12
0001
0010
0100
0100
0010
0001
1000
0001
,  // measure 13
0000
1000
1001
0000
1000
0100
1000
0000
,  // measure 14
0001
0010
0001
0000
0100
0010
0100
0000
,  // measure 15
0001
0000
1000
0000
0001
0000
0000
1000
0001
0000
1000
0000
0001
0000
0000
0000
,  // measure 16
0100
0010
0100
0010
0100
0010
0100
0000
,  // measure 17
0001
0000
1001
0000
0001
0010
0100
0000
,  // measure 18
1000
0010
0100
0000
0001
0010
0100
0000
,  // measure 19
0010
0000
0010
0000
0100
0000
0000
0100
1000
0000
0010
0000
0100
0000
0000
0000
,  // measure 20
0001
0010
0100
0100
0010
0001
0100
0001
,  // measure 21
1000
0010
0110
0000
0100
0001
0010
0000
,  // measure 22
0100
1000
0010
0000
0100
0001
0010
0000
,  // measure 23
0001
0000
0001
0000
0010
0000
0000
0010
0100
0000
1000
0000
0010
0000
0000
0000
,  // measure 24
0100
0001
0010
0010
0001
0100
0010
0000
,  // measure 25
0110
0000
0220
0000
0000
0300
2000
0000
,  // measure 26
0000
0000
3030
0000
1000
0000
0100
0000
0010
0000
0001
1000
0001
0000
0000
0000
,  // measure 27
1001
0000
0000
0000
0001
0000
0010
0000
0100
0000
1000
0001
1000
0000
0000
0000
,  // measure 28
1001
0000
1000
0100
1000
0100
0010
0001
,  // measure 29
0010
0001
0100
0100
0010
0010
0110
0000
,  // measure 30
1001
0000
1000
0010
0100
0001
0010
0000
,  // measure 31
0110
0000
0010
0001
1000
0010
0100
0000
,  // measure 32
0110
0000
0010
0100
0010
0100
0001
1000
,  // measure 33
0001
1000
0001
0001
0010
0010
0200
0000
,  // measure 34
0000
1300
0100
0000
1000
0010
0100
0000
,  // measure 35
0001
0010
0100
0000
1000
0010
0100
0000
,  // measure 36
0001
0000
1000
0000
0001
0000
0000
0100
0010
0000
0100
0000
0010
0000
0000
0000
,  // measure 37
1000
0100
0010
0010
0100
1000
1001
0001
,  // measure 38
0001
0001
1001
0000
1000
0001
1000
0000
,  // measure 39
0100
0010
0110
0000
1001
0000
0110
0000
,  // measure 40
0001
0000
1000
0000
0001
0000
0000
0100
0010
0000
0100
0000
0010
0000
0000
0000
,  // measure 41
1000
0100
0011
0000
0110
0000
1100
1000
,  // measure 42
1000
1000
1100
0000
0100
0010
0001
0000
,  // measure 43
0100
0010
0110
0000
1001
0000
0110
0000
,  // measure 44
0001
0000
0010
0000
0001
0000
0000
1000
0100
0000
1000
0000
0100
0000
0000
0000
,  // measure 45
1000
0010
0110
0000
0101
0000
0011
0000
,  // measure 46
1000
0010
1010
1000
0010
1000
1010
0010
,  // measure 47
1000
0001
0101
0001
0100
0001
0101
0001
,  // measure 48
1000
0001
1001
0001
1000
0001
1001
0001
,  // measure 49
0010
0100
0110
0000
1001
0000
0110
0000
,  // measure 50
0001
1000
1001
0001
1000
0001
1001
0001
,  // measure 51
0100
0010
0110
0010
0100
0010
0110
0010
,  // measure 52
1000
0001
1001
0001
1000
0001
1001
0001
,  // measure 53
1000
0100
0010
0100
2000
0000
0000
0000
,  // measure 54
3001
0010
0100
0010
0001
1000
0100
0010
,  // measure 55
0100
1000
0001
0010
0100
0010
0001
1000
,  // measure 56
0100
0010
0100
1000
0001
0010
0100
0010
,  // measure 57
0001
1000
1001
0000
0110
0000
1001
0000
,  // measure 58
1000
0100
1000
0010
0100
0001
0010
0001
,  // measure 59
0100
0010
1000
0100
1000
0010
0100
0001
,  // measure 60
1000
0100
0010
0100
1000
0010
0100
0001
,  // measure 61
0010
0100
0010
0001
0100
0010
1000
0001
,  // measure 62
1000
0000
0000
0000
0000
0000
0000
0000
0000
0000
0000
0000
0000
0000
0000
0000
0000
0000
0020
0030
0000
0000
0000
0000
0000
0000
0000
0000
0000
0000
0000
0000
,  // measure 63
0000
0000
0000
0000
0000
0200
0300
0000
0000
0000
0000
0000
0000
0000
0000
0000
0000
0000
0002
0003
0000
0000
2000
3000
0000
0000
0002
0003
0000
0000
2000
3000
,  // measure 64
1001
0000
1000
0100
1000
0000
0010
0100
,  // measure 65
0010
0000
1000
0100
1000
0000
0001
0010
,  // measure 66
0001
0000
0000
0100
0010
0000
0100
0000
0010
0000
0000
0000
1000
0000
0100
0000
,  // measure 67
1000
1000
0100
0010
0001
0100
0010
0100
,  // measure 68
0110
0000
0010
1000
0010
0000
0100
0001
,  // measure 69
0100
0000
0010
1000
0010
0000
1000
0100
,  // measure 70
1000
0000
0000
0010
0100
0000
0010
0000
0100
0000
0000
0000
0001
0000
0010
0000
,  // measure 71
0001
0001
0010
0100
1000
0000
1001
0000
,  // measure 72
2002
0000
0000
0003
0020
0000
0000
3030
,  // measure 73
1000
0000
0010
0000
0100
0000
0001
1000
0001
0000
0000
0000
1001
0000
0000
0000
,  // measure 74
0001
0000
0100
0000
0010
0000
1000
0001
1000
0000
0000
0000
1001
0000
0000
0000
,  // measure 75
1000
0010
1000
0010
0100
0001
0100
0001
,  // measure 76
1000
1000
0001
0001
1001
0000
0110
0000
,  // measure 77
1000
0100
0010
0001
1000
0000
1100
0000
,  // measure 78
0001
0010
0100
1000
0001
0000
0011
0000
,  // measure 79
1000
0100
1000
0100
0010
0001
0010
0001
,  // measure 80
1000
1000
0100
0100
0020
0000
0000
0001
,  // measure 81
0030
0000
0000
0000
;

//---------------dance-single - TRICKY----------------
#NOTES:
     dance-single:
     TRICKY:
     Medium:
     7:
     0.412,0.400,0.409,0.055,0.000:
0000
1000
0100
1000
,
0100
1000
0100
0100
,
0010
0001
0010
0001
,
0010
0001
0001
1000
,
0000
1001
0000
0001
,
0000
1000
0001
1001
,
0000
0110
0000
0100
,
0000
0010
0100
0110
,
0000
0001
0010
0100
,
1000
0001
1000
1001
,
0000
1000
0100
0010
,
0001
1000
0001
1001
,
0000
1000
0100
1000
,
0100
0010
0001
0010
,
0001
1000
0001
1000
,
0001
0100
0010
0110
,
0000
1000
0100
1000
,
0100
1000
1000
0100
,
0010
0001
0010
0001
,
0010
0001
0001
1000
,
0000
1000
0001
1000
,
0001
0100
0010
0100
,
0010
1000
0100
1000
,
0100
0010
0001
0010
,
0001
0002
0000
0010
,
0003
0001
1000
0001
,
1001
0100
0010
0100
,
0110
1000
1000
0001
,
0001
1000
0100
0010
,
0001
1000
0100
1000
,
1100
0010
0001
0010
,
0011
0010
0010
0100
,
0100
0010
0100
2000
,
0000
3001
0010
0001
,
0010
0100
0100
0010
,
0100
1000
0100
1000
,
0100
1000
1000
0100
,
0000
1000
0000
1100
,
0000
1001
0110
1001
,
0000
0001
0000
0101
,
0000
0110
1001
0110
,
0000
0001
0000
1001
,
0000
1100
0110
0011
,
0000
1000
0000
1001
,
0000
0011
0101
0110
,
0000
1001
0000
0110
,
0000
1001
0000
0110
,
0000
1100
0000
0011
,
0000
1000
0001
1000
,
0000
0101
0000
1010
,
0000
0101
0000
1010
,
0000
1001
0000
0110
,
0000
1001
2002
3003
,
1000
0100
0010
0001
,
1000
0010
0100
0001
,
1000
0100
0010
0001
,
1000
0100
0001
0100
,
1000
0010
0100
0001
,
0010
0001
0010
0100
,
1000
0100
1000
0001
,
1000
0010
0001
0010
,
1000
0000
0000
0000
,
0000
0000
0000
0000
,
0001
1000
0001
1000
,
0010
0100
0010
0000
,
0100
0010
0100
0010
,
1000
0001
1000
0000
,
0001
0010
0001
0010
,
0100
1000
0100
1000
,
0010
0100
0010
0100
,
0001
1000
0001
1000
,
2000
0000
0001
3000
,
0001
1000
0001
1001
,
0100
0010
0100
0110
,
1000
0100
0010
0001
,
0010
0100
1000
0001
,
1000
0010
1000
1010
,
0001
0100
0001
0101
,
1000
0100
1000
0100
,
0010
0001
0020
0000
,
0030
0000
0000
0000
;

//---------------dance-single - BASIC----------------
#NOTES:
     dance-single:
     BASIC:
     Easy:
     4:
     0.244,0.289,0.136,0.009,0.000:
0000
1000
0000
1000
,
0000
0001
0000
0001
,
0000
0100
0000
0100
,
0000
0010
0000
0010
,
0000
1000
0000
0100
,
0000
0010
0000
0001
,
0000
1000
0000
0010
,
0000
0100
0000
0001
,
0000
1000
0000
1000
,
0000
1000
0000
1000
,
0000
0001
0000
0001
,
0000
0001
0000
0001
,
0000
0100
0000
0100
,
0000
0100
0000
0100
,
0000
0010
0000
0010
,
0000
0010
0000
0110
,
0000
1000
0000
1000
,
0000
0001
0000
0001
,
0000
1000
0001
1000
,
0000
0001
0000
1001
,
0000
0100
0000
0100
,
0000
0010
0000
0010
,
0000
0100
0010
0100
,
0000
0010
0000
0110
,
0000
0000
0000
0000
,
0000
0001
1000
0001
,
0000
0100
0010
0100
,
0000
0001
0000
0001
,
0000
1000
0000
1000
,
0000
1000
0100
1000
,
0000
0001
0010
0001
,
0000
1000
0000
0001
,
0000
0100
0000
0010
,
0000
1000
0000
1000
,
0000
1000
1000
1000
,
0000
0001
0000
0001
,
0000
0001
0001
0001
,
0000
0100
0000
0100
,
0000
0110
0110
0110
,
0000
0010
0000
0010
,
0000
0110
0110
0110
,
0000
0001
0000
0001
,
0000
1001
1001
1001
,
0000
1000
0000
1000
,
0000
1001
1001
1001
,
0000
0001
0000
0001
,
0000
1000
0000
1000
,
0000
0001
0000
0001
,
0000
1000
0001
1000
,
0000
0010
0000
0010
,
0000
0100
0000
0100
,
0000
0010
0000
0010
,
0000
0100
0020
0000
,
0000
1030
0000
1000
,
0000
0001
0000
0001
,
0000
1000
0000
1000
,
0000
0001
0010
0001
,
0000
0010
0000
0010
,
0000
0001
0000
0001
,
0000
1000
0000
1000
,
0000
0100
1000
0100
,
1000
0000
0000
0000
,
0000
0000
0000
0000
,
1000
0000
0100
0000
,
0010
0000
0001
0000
,
1000
0000
0010
0000
,
0100
0000
0001
0000
,
1000
0000
0001
0000
,
1000
0000
0001
0000
,
0100
0000
0010
0000
,
0100
0000
0010
0000
,
0000
0000
0000
0000
,
1000
0001
1000
0000
,
0010
0100
0010
0000
,
1000
0000
0010
0000
,
0100
0000
0001
0000
,
0010
0001
0010
0000
,
0100
1000
0100
0000
,
1000
0000
0010
0000
,
0100
0000
0001
0000
;

//---------------dance-single - SIMPLE----------------
#NOTES:
     dance-single:
     SIMPLE:
     Beginner:
     2:
     0.125,0.181,0.000,0.000,0.000:
0000
0001
0000
0000
,
0000
1000
0000
0000
,
0000
0001
0000
0000
,
0000
1000
0000
0000
,
0000
0010
0000
0000
,
0000
0100
0000
0000
,
0000
0010
0000
0000
,
0000
0100
0000
0000
,
0000
0001
0000
0000
,
0000
0010
0000
0000
,
0000
0100
0000
0000
,
0000
1000
0000
0000
,
0000
0001
0000
0000
,
0000
0100
0000
0000
,
0000
0010
0000
0000
,
0000
1000
0000
0000
,
0000
0001
0000
0001
,
0000
0001
0000
0000
,
0000
1000
0000
1000
,
0000
1000
0000
0000
,
0000
0010
0000
0010
,
0000
0010
0000
0000
,
0000
0100
0000
0100
,
0000
0100
0000
0000
,
0000
0000
0000
0000
,
0000
0001
0000
0000
,
0000
1000
0000
0000
,
0000
0010
0000
0010
,
0000
0100
0000
0100
,
0000
0001
0000
0000
,
0000
1000
0000
0000
,
0000
0001
0000
0001
,
0000
1000
0000
1000
,
0000
0001
0000
0000
,
0000
0000
0000
0000
,
0000
1000
0000
0000
,
0000
0000
0000
0000
,
0000
0001
0000
0001
,
0000
1000
0000
1000
,
0000
0010
0000
0010
,
0000
0100
0000
0100
,
0000
0001
0000
0010
,
0000
0100
0000
1000
,
0000
0001
0000
0100
,
0000
0010
0000
1000
,
0000
0001
0000
0000
,
0000
0001
0000
0000
,
0000
0001
0000
0000
,
0000
0001
0000
0000
,
0000
1000
0000
0000
,
0000
1000
0000
0000
,
0000
1000
0000
0000
,
0000
1000
0000
0000
,
0000
0010
0000
0000
,
0000
0100
0000
0000
,
0000
0001
0000
0000
,
0000
1000
0000
0000
,
0000
0001
0000
0000
,
0000
0010
0000
0000
,
0000
0100
0000
0000
,
0000
1000
0000
0000
,
0000
0000
0000
0000
,
0000
0000
0000
0000
,
1000
0000
0000
0000
,
0001
0000
0000
0000
,
0100
0000
0000
0000
,
0010
0000
0000
0000
,
1000
0000
1000
0000
,
1000
0000
0000
0000
,
0001
0000
0001
0000
,
0001
0000
0000
0000
,
0000
0000
0000
0000
,
1000
0000
0000
0000
,
0001
0000
0000
0000
,
0100
0000
0100
0000
,
0010
0000
0010
0000
,
0100
0000
0000
0000
,
0010
0000
0000
0000
,
1000
0000
1000
0000
,
0001
0000
0001
0000
;
