#TITLE:Okkusenman;
#SUBTITLE:;
#ARTIST:Gomu;
#TITLETRANSLIT:;
#SUBTITLETRANSLIT:;
#ARTISTTRANSLIT:;
#CREDIT:;
#BANNER:Okkusenman_bn.png;
#BACKGROUND:Okkusenman_bg.png;
#LYRICSPATH:;
#CDTITLE:hriokonobu;
#MUSIC:Okkusenman.mp3;
#OFFSET:0.024;
#SAMPLESTART:100.000;
#SAMPLELENGTH:12.000;
#SELECTABLE:YES;
#BPMS:0.000=179.960;
#STOPS:;
#BGCHANGES:;

//---------------dance-single - ----------------
#NOTES:
     dance-single:
     :
     Challenge:
     8:
     0.583,0.557,0.520,0.349,0.012: // measure 1
0000
0000
0000
0000
,  // measure 2
0000
0000
0000
0000
,  // measure 3
0000
0000
0000
0000
,  // measure 4
0000
0000
0000
0000
,  // measure 5
0000
0000
0000
0000
,  // measure 6
0000
0000
0000
0000
0000
0000
0000
0000
0001
0010
0001
0000
0010
0000
0001
0000
,  // measure 7
0100
0000
0010
1000
0010
0100
0001
0000
,  // measure 8
0010
1000
0001
0000
0010
0100
0001
1000
,  // measure 9
0010
0110
1001
0110
,  // measure 10
1001
0000
0000
0000
1010
0000
1000
0001
,  // measure 11
0100
0110
0101
0110
,  // measure 12
0100
0000
0010
0000
0010
1000
0001
1000
,  // measure 13
0000
0000
0101
0000
0010
1000
0100
1000
,  // measure 14
0000
0000
0010
0000
0100
0000
0000
0000
0001
1000
0001
0000
1000
0000
0010
0000
,  // measure 15
0100
0000
0010
1000
0010
0001
0010
0000
,  // measure 16
0010
0100
0001
0000
0001
0010
0100
0010
,  // measure 17
1000
0110
1010
0110
,  // measure 18
1010
0000
0000
0000
0101
0000
0100
1000
,  // measure 19
0010
0001
0001
0100
,  // measure 20
0010
0000
0010
0000
1000
0001
0100
0010
,  // measure 21
0000
0000
0001
0000
1000
0010
0100
0001
,  // measure 22
0000
0000
0010
0000
2000
0000
0000
0000
0000
0000
0000
3000
0000
0000
0001
0000
,  // measure 23
0000
0010
0100
0000
0110
0000
1001
0000
,  // measure 24
0101
0000
0000
2200
0000
0000
3300
0010
,  // measure 25
1000
0000
0000
0001
0100
0010
0100
0000
,  // measure 26
0001
1000
0010
2000
0000
0000
0000
3000
,  // measure 27
0000
0100
0010
0000
0110
0000
1010
0000
,  // measure 28
0110
0000
0202
0000
0000
0303
0000
0001
,  // measure 29
0100
1000
0010
0000
0001
0010
0100
2000
,  // measure 30
0000
3000
0000
0000
0000
0000
0000
0000
0000
0000
0000
0000
0000
0000
0000
0000
0000
0000
0000
0000
0000
0000
0000
0000
0000
0000
0000
0000
0000
0000
0000
0000
0000
0000
0000
0000
0000
0000
0000
0000
0000
0000
0000
0000
0000
0000
0000
0000
0000
0000
0000
0000
0000
0000
0000
0000
0000
0000
0000
0000
0000
0000
0000
0000
0000
0000
0000
0000
0000
0000
0000
0000
0220
0000
0000
0000
0000
0000
0000
0000
0000
0000
0000
0000
0000
0000
0000
0000
0000
0000
0000
0000
0000
0000
0000
0000
0000
0000
0000
0000
0000
0000
0000
0000
0000
0000
0000
0000
0000
0000
0000
0000
0000
0000
0000
0000
0000
0000
0000
0000
0000
0000
0000
0000
0000
0000
0000
0000
0000
0000
0000
0000
0000
0000
0000
0000
0000
0000
0000
0000
0000
0000
0000
0000
0330
0000
0000
0000
0000
0000
0000
0000
0000
0000
0000
0000
0000
0000
0000
0000
0000
0000
0000
0000
0000
0000
0000
0000
0000
0000
0000
0000
0000
0000
0000
0000
0000
0000
0000
0000
0000
0000
0000
0000
0000
0000
0000
0000
0000
0000
0000
0000
,  // measure 31
0000
0001
1000
0000
1010
0000
0110
0000
,  // measure 32
0101
0000
2200
0000
0000
0000
0000
3300
,  // measure 33
0000
0010
0100
0000
0101
0000
1010
0000
,  // measure 34
1010
0000
0202
0000
0000
0303
0000
0001
,  // measure 35
0010
0100
2000
0000
0000
0000
0000
3000
,  // measure 36
0000
0000
0110
0000
0100
0001
1000
0010
,  // measure 37
0000
0000
1001
0000
1000
0010
0100
0001
,  // measure 38
0000
1000
0020
0000
0000
0000
0030
0100
,  // measure 39
0000
0001
0100
0000
2200
0000
3300
0010
,  // measure 40
0001
1000
0010
0200
0000
0000
0300
0001
,  // measure 41
0000
1000
0010
0000
0220
0000
0330
0001
,  // measure 42
1000
0010
0000
2002
0000
0000
3003
1000
,  // measure 43
0100
0010
0001
0000
0000
0011
0000
0110
,  // measure 44
0000
1100
0000
0001
0100
0010
1000
0200
,  // measure 45
0000
0300
0000
0000
0000
0000
0000
0000
0000
0000
0000
0000
0000
0000
0000
0000
0000
0000
0000
0000
0000
0000
0000
0000
0000
0000
0000
0000
0000
0000
0000
0000
0000
0000
0000
0000
0000
0000
0000
0000
0000
0000
0000
0000
0000
0000
0000
0000
0001
0000
0000
0000
0000
0000
0000
0000
0000
0000
0000
0000
0000
0000
0000
0000
0000
0000
0000
0000
0000
0000
0000
0000
0000
0000
0000
0000
0000
0000
0000
0000
0000
0000
0000
0000
0000
0000
0000
0000
0000
0000
0000
0000
0000
0000
0000
0000
1000
0000
0000
0000
0000
0000
0000
0000
0000
0000
0000
0000
0000
0000
0000
0000
0000
0000
0000
0000
0000
0000
0000
0000
0010
0000
0000
0000
0000
0000
0000
0000
0000
0000
0000
0000
0000
0000
0000
0000
0000
0000
0000
0000
0000
0000
0000
0000
0100
0000
0000
0000
0000
0000
0000
0000
0000
0000
0000
0000
0000
0000
0000
0000
0000
0000
0000
0000
0000
0000
0000
0000
0001
0000
0000
0000
0000
0000
0000
0000
0000
0000
0000
0000
0000
0000
0000
0000
0000
0000
0000
0000
0000
0000
0000
0000
,  // measure 46
0000
0010
2000
0000
0000
3000
0000
0001
,  // measure 47
0000
0100
0010
0000
1000
0000
0001
0000
,  // measure 48
0101
0000
0000
0110
0000
0000
0000
0010
,  // measure 49
1000
0000
0000
0010
0100
0001
0010
0000
,  // measure 50
0100
1000
0010
0200
0000
0000
0000
0300
,  // measure 51
0000
0001
0010
0000
0100
0000
1000
0000
,  // measure 52
0010
0000
0110
0000
0000
0000
0000
0001
,  // measure 53
0010
0001
0100
0000
0001
0010
0001
0100
,  // measure 54
0000
0000
0110
0000
1000
0001
0100
0010
,  // measure 55
0000
0010
1000
0000
0001
0000
0100
0000
,  // measure 56
0110
0000
1010
0000
0010
1000
0000
1010
,  // measure 57
0000
0000
0011
0000
0001
0010
0000
0011
,  // measure 58
0000
0010
1000
0000
0010
0000
0010
0100
,  // measure 59
0000
0010
1000
0000
1001
0000
1100
0000
,  // measure 60
0110
0000
0000
0010
1000
0010
0200
0000
,  // measure 61
0000
0300
0001
0000
0010
0100
0000
0010
,  // measure 62
1000
0000
0000
0000
0000
0000
0000
0000
0100
0010
0001
0000
1000
0000
0001
0000
,  // measure 63
1000
0000
0001
1000
0010
0100
0001
0000
,  // measure 64
0010
1000
0100
0000
0001
0000
0010
0100
,  // measure 65
1000
0011
0010
1010
,  // measure 66
0010
0000
0000
0000
0001
0100
0000
0110
,  // measure 67
0000
0100
0001
0000
0110
0000
0100
0000
,  // measure 68
0110
0000
1010
0000
1000
0001
0100
0010
,  // measure 69
0000
0000
1010
0000
1000
0001
0010
0100
,  // measure 70
0000
0000
0010
0000
1000
0000
0000
0000
0001
0010
0100
0000
0010
0000
0100
0000
,  // measure 71
0010
0000
0010
1000
0001
0100
0010
0000
,  // measure 72
0001
1000
0010
0000
0001
0010
0100
1000
,  // measure 73
0010
0001
1010
0001
,  // measure 74
1010
0000
0000
0000
0001
0100
0010
1000
,  // measure 75
0010
0110
1000
1100
,  // measure 76
0001
0000
0101
0000
0010
1000
0100
0010
,  // measure 77
0000
0000
0011
0000
0100
0010
1000
0001
,  // measure 78
0000
0010
2000
0000
0000
0000
3000
0001
,  // measure 79
0000
0100
0010
0000
0011
0000
1000
0000
,  // measure 80
1001
0000
0000
2020
0000
0000
3030
0001
,  // measure 81
0200
0000
0300
0010
1000
0001
0100
0000
,  // measure 82
0010
1000
0001
0200
0000
0000
0300
0010
,  // measure 83
0000
1000
0001
0000
2000
0000
3010
0000
,  // measure 84
1000
0000
0202
0000
0303
0000
0000
0010
,  // measure 85
1000
0010
0200
0000
0300
1000
0010
2020
,  // measure 86
0000
0000
3030
0202
0000
0000
0000
0000
,  // measure 87
0303
0100
0010
0000
1000
0000
0100
0000
,  // measure 88
0010
0022
0000
0033
,  // measure 89
0000
0100
0010
0000
1000
0000
0010
0000
,  // measure 90
0100
0000
2020
0000
0000
3030
0000
0001
,  // measure 91
0100
0010
2000
0000
0100
0000
0100
0000
,  // measure 92
0100
3000
0001
0000
0010
0100
1000
0010
,  // measure 93
0000
0000
0010
0000
0100
0001
0010
0100
,  // measure 94
0000
1000
0002
0000
0003
0000
0000
0010
,  // measure 95
0000
1000
0001
0000
0200
0000
0300
0010
,  // measure 96
1000
0001
0100
0002
0000
0000
0000
1003
,  // measure 97
0000
0001
0100
0000
0200
0000
0300
1000
,  // measure 98
0001
0100
0000
0020
0000
0000
0000
1030
,  // measure 99
0100
1000
0002
0000
0000
1003
0000
0100
,  // measure 100
0000
0010
0000
0001
0100
0010
1000
0002
,  // measure 101
0000
0003
0100
0000
0010
1000
0001
0100
,  // measure 102
0000
0010
2000
0000
0000
0000
3000
0001
,  // measure 103
0000
0100
0010
0000
1000
0000
0001
0000
,  // measure 104
0100
0000
0000
0101
0000
0000
0000
0010
,  // measure 105
1000
0000
0000
0100
0010
0001
0100
0000
,  // measure 106
0010
1000
0100
0020
0000
0000
0030
0001
,  // measure 107
0000
0100
0010
0000
1000
0000
1010
0000
,  // measure 108
0010
0000
0101
0000
0000
0000
0000
0001
,  // measure 109
1000
0010
0100
0000
0001
1000
0010
0200
,  // measure 110
0000
0300
0001
0000
0010
0100
1000
0010
,  // measure 111
0000
0010
0100
0000
0001
0000
2000
0000
,  // measure 112
3010
0000
0010
0000
0100
0010
0000
1010
,  // measure 113
0000
0000
0001
0000
0100
0001
0000
0101
,  // measure 114
0000
0000
0010
0000
1000
0000
0001
0100
,  // measure 115
0000
0010
1000
0000
0001
0000
0100
0000
,  // measure 116
0010
0000
0000
0010
1000
0010
0200
0000
,  // measure 117
0000
0301
0010
0000
0100
1000
0000
0010
,  // measure 118
0100
0000
1001
0000
1000
0010
0100
0010
,  // measure 119
0000
0001
1000
0000
0110
0000
1100
0000
,  // measure 120
0101
0000
1001
0000
0100
0010
0000
1001
,  // measure 121
0000
0000
1010
0000
1000
0001
0000
1100
,  // measure 122
0000
0001
1000
0000
0010
0100
0001
1000
,  // measure 123
0000
0010
0100
0000
0101
0000
1100
0000
,  // measure 124
0110
0000
0000
0010
1000
0010
0200
0000
,  // measure 125
0300
1000
0010
0000
0100
0001
0000
2000
,  // measure 126
0020
0000
3030
0000
;
