#TITLE:Get Bloody;
#ARTIST:Tobuscus;
#BANNER:Get Bloody-bn.png;
#BACKGROUND:Get Bloody.PNG;
#CDTITLE:.\CDTITLES\HellRazoR.png;
#MUSIC:Get Bloody.MP3;
#OFFSET:-0.020;
#SAMPLESTART:41.5;
#SAMPLELENGTH:17.0;
#BPMS:0=116.035;
#BGCHANGES:0=Get Bloody.avi=1=1=1=0,999=-=1=0=0=0;

//---------------dance-single - ----------------
#NOTES:
     dance-single:
     :
     Beginner:
     1:
     0.092,0.117,0.000,0.000,0.000:
0000
0000
0000
0000
,
0000
0000
0000
0000
,
0000
0000
0000
0000
,
0000
0000
0000
0000
,
1000
0000
0000
0000
,
0001
0000
0000
0000
,
1000
0000
0000
0000
,
0100
0000
0000
0000
,
0010
0000
0000
0000
,
0100
0000
0000
0000
,
1000
0000
0000
0000
,
0001
0000
0000
0000
,
0100
0000
0010
0000
,
0100
0000
0000
0000
,
0001
0000
1000
0000
,
0100
0000
0000
0000
,
0010
0000
0100
0000
,
1000
0000
0000
0000
,
0001
0000
0100
0000
,
0001
0000
0000
0000
,
1000
0000
0001
0000
,
1000
0000
0000
0000
,
0001
0000
0010
0000
,
0001
0000
0000
0000
,
1000
0000
0100
0000
,
1000
0000
0000
0000
,
0010
0000
1000
0000
,
0001
0000
0000
0000
,
1000
0000
0100
0000
,
0010
0000
0000
0000
,
1000
0000
0100
0000
,
0010
0000
0000
0000
,
0001
0000
0100
0000
,
0001
0000
0001
0000
,
1000
0000
0000
0000
,
0001
0000
0000
0000
,
1000
0000
0100
0000
,
0010
0000
0100
0000
,
0010
0000
0000
0000
,
0001
0000
0000
0000
,
1000
0000
0001
0000
,
0100
0000
0010
0000
,
0100
0000
0000
0000
,
0001
0000
0000
0000
,
1000
0000
0000
0000
,
0001
0000
0000
0000
,
1000
0000
0000
0000
,
0001
0000
0000
0000
,
1000
0000
0000
0000
,
0010
0000
0000
0000
,
1000
0000
0000
0000
,
0010
0000
0000
0000
,
0100
0000
0010
0000
,
1000
0000
0001
0000
,
1000
0000
0100
0000
,
0010
0000
0000
0000
,
0010
0000
0001
0000
,
0001
0000
0000
0000
,
0100
0000
0010
0000
,
0010
0000
0000
0000
,
1000
0000
0001
0000
,
0001
0000
1000
0000
,
0100
0000
1000
0000
,
0010
0000
0100
0000
,
0010
0000
1000
0000
,
1000
0000
0001
0000
,
1000
0000
1000
0000
,
0100
0000
0010
0000
,
0100
0000
0000
0000
,
1000
0000
0001
0000
,
1000
0000
0000
0000
,
0100
0000
0010
0000
,
0100
0000
0000
0000
,
1000
0000
0001
0000
,
1000
0000
0000
0000
,
0010
0000
1000
0000
,
0001
0000
0000
0000
,
0001
0000
0000
0000
,
1000
0000
0000
0000
;

//---------------dance-single - ----------------
#NOTES:
     dance-single:
     :
     Easy:
     3:
     0.211,0.210,0.000,0.000,0.000:
0000
0000
0000
0000
,
0000
0000
0000
0000
,
0000
0000
0000
0000
,
0000
0000
0000
0000
,
1000
0000
0001
0000
,
0010
0000
0001
0001
,
1000
0000
0100
0000
,
0010
0000
0100
0100
,
1000
0000
0001
0000
,
0100
0000
0010
0010
,
1000
0000
0001
0000
,
1000
0000
0100
0000
,
0010
0001
0010
0001
,
1000
0100
1000
0100
,
1000
0001
1000
0001
,
0100
0001
0100
0001
,
1000
0010
1000
0010
,
0100
0010
0100
0010
,
0100
0001
1000
0001
,
1000
0100
0010
0100
,
0010
0010
0001
0001
,
1000
1000
0100
0100
,
1000
1000
0001
0001
,
0100
0010
0100
0010
,
1000
1000
0001
0001
,
0100
0100
0010
0010
,
0100
0100
0001
0001
,
1000
0100
0010
0100
,
0010
0010
0001
0100
,
0001
0001
1000
0100
,
0010
0010
0100
0010
,
0001
0100
0001
0000
,
1000
1000
0100
1000
,
0001
0000
1000
0000
,
0010
0010
0100
0010
,
1000
0000
0001
0000
,
1000
0100
1000
0001
,
1000
0000
0010
0000
,
0100
0010
1000
0010
,
0100
0000
0001
0000
,
0010
0100
0010
0001
,
0100
0000
0001
0000
,
0010
0001
0100
0001
,
0010
0001
0100
0001
,
0010
0100
0010
0100
,
1000
0100
1000
0100
,
1000
0001
1000
0001
,
0100
0001
0100
0001
,
0100
0010
0100
0010
,
1000
0010
1000
0010
,
1000
0001
1000
0100
,
0010
0100
1000
0001
,
0100
0010
0100
0001
,
0001
1000
0100
0010
,
0010
0100
1000
0001
,
0001
0100
0010
0100
,
0001
0000
1000
0000
,
0100
0000
0010
0000
,
0100
0000
1000
0000
,
0001
0000
0100
0000
,
0010
0100
0001
0000
,
1000
0100
1000
0000
,
0001
0100
0010
0100
,
0001
0000
1000
0000
,
0100
0010
0100
1000
,
0001
0000
0100
0000
,
0010
0100
0001
0001
,
0100
0000
0001
0000
,
1000
0100
1000
1000
,
0000
0010
0100
0010
,
0000
1000
0001
1000
,
0000
0100
0010
0001
,
0000
0001
0100
0001
,
0000
0100
0010
1000
,
0000
0010
1000
0100
,
0000
0010
0100
0010
,
0001
0001
0100
0000
,
0001
0000
1000
0000
,
1000
0000
0000
0000
;

//---------------dance-single - ----------------
#NOTES:
     dance-single:
     :
     Medium:
     5:
     0.302,0.326,0.048,0.000,0.000:
0000
0000
0000
0000
,
0000
0000
0000
0000
,
0000
0000
0000
0000
,
0000
0000
0000
0000
,
0001
1000
0100
0000
0100
0000
1000
0000
,
0001
0000
0001
0000
1000
0010
0100
0000
,
0010
1000
0001
0001
,
1000
0000
0100
0000
0100
0010
0010
0000
,
0001
1000
0001
0001
,
1000
0000
1000
0000
0100
1000
0001
0000
,
1000
1000
0010
1000
,
0001
0001
0100
0001
,
1000
0001
1000
0000
0100
0000
0100
0000
,
1000
0001
1000
0000
0010
0000
0010
0000
,
1000
0001
1000
0000
0100
0000
0100
0000
,
1000
0001
1000
0000
0001
0000
0001
0000
,
1000
0001
1000
0000
0010
0000
0010
0000
,
1000
0001
1000
0000
0100
0000
0100
0000
,
1000
0001
1000
0000
0010
0000
0010
0000
,
1000
0001
1000
0000
0100
0000
0100
0000
,
1000
0000
0001
0000
0010
0001
0010
0000
,
0001
0000
1000
0000
0100
1000
0100
0000
,
1000
0000
0010
0000
0100
0010
0100
0000
,
0010
0000
1000
0000
0001
1000
0100
0000
,
0M00
0000
0001
0000
0100
0010
1000
0000
,
0100
0000
1000
0000
0001
1000
0010
0000
,
0100
0000
0010
0000
1000
0001
0100
0000
,
0001
0000
1000
0000
0100
0010
0100
0000
,
0010
0000
0100
0000
0010
0100
0010
0000
,
0100
0000
0010
0000
0100
0010
0100
0000
,
0010
0000
0100
0000
0010
0100
0010
0000
,
0001
0000
0100
0000
0010
0100
0010
0000
,
1000
1000
0001
1000
,
1001
0000
1100
0000
,
0001
0010
0001
1000
,
1001
0000
0011
0001
,
0100
0001
0100
0000
0100
0000
0010
0000
,
0010
0000
1000
0000
0001
1000
0100
0000
,
1000
1000
0010
0010
,
1000
0000
1000
0000
0001
0100
0001
0000
,
0001
0001
1000
1000
,
0100
0000
0100
0000
1000
0010
1000
0000
,
0010
0010
0100
0100
,
0010
0010
1000
0001
,
1000
0100
1000
0000
0001
0000
0001
0000
,
0010
0001
0010
0000
0100
0000
0100
0000
,
1000
0010
1000
0000
1000
0000
1000
0000
,
0010
0100
0010
0000
1010
0000
0000
0000
,
0100
1000
0001
0000
0001
0000
0100
0000
,
0001
1000
0010
0000
1000
0000
1000
0000
,
0001
0100
0010
0000
0100
0000
0100
0000
,
0001
1000
0100
0000
0010
0000
0110
0000
,
0010
0000
0001
0000
0100
0001
0100
0000
,
0010
0000
1000
0000
0001
1000
0001
0000
,
0100
0000
0010
0000
1000
1000
0001
0000
,
1000
0000
0100
0000
0010
0010
0100
0000
,
0010
0010
0001
0000
,
0100
0100
0001
0000
,
1000
1000
0100
0000
,
0010
0010
0001
0000
,
0100
0000
0010
0000
1000
0001
1000
0100
,
0010
0000
0001
0000
0100
0010
0100
0000
,
0000
0000
0001
0000
0100
0010
0100
0001
,
1000
0000
0001
0000
0100
0010
0100
0000
,
0000
0000
1001
0000
0100
0010
0100
1000
,
0001
0000
1000
0000
0010
0100
0010
1000
,
0001
0000
1001
0000
1000
0100
0010
0100
,
0010
0000
0001
0000
0100
0010
0100
0001
,
0001
0000
1000
0000
0100
1000
0100
0000
,
1000
0000
0001
0000
1000
0001
0100
0000
,
0001
0000
1000
0000
0010
0100
0010
0000
,
1000
0000
0001
0000
0100
0010
0100
0000
,
0001
0000
1000
0000
0100
0010
0100
0000
,
0010
0000
0001
0000
0100
0001
0010
0000
,
0100
0000
0010
0000
0001
0100
0010
0000
,
0100
0000
0010
0000
1000
0001
1000
0000
,
M000
0010
0001
0001
,
0100
0010
0100
0M00
;

//---------------dance-single - ----------------
#NOTES:
     dance-single:
     :
     Hard:
     7:
     0.457,0.443,0.000,0.054,0.336:
0000
0000
0000
0000
,
0000
0000
0000
0000
,
0000
0000
0000
0000
,
0000
0000
0000
0000
0010
0000
1000
0000
0001
0000
1000
0000
0100
0000
1000
0100
,
0000
1000
0000
0000
0001
0000
0000
0000
0000
0000
0000
0000
0001
0000
0000
0000
,
0010
0000
0000
0000
0001
0000
1000
0000
0100
0000
1000
0000
0100
0000
1000
0010
,
0000
1000
0000
0000
0010
0000
0000
0000
0100
0000
0000
0000
0001
0000
0000
0000
,
0001
0000
1000
0000
0100
0000
0000
0000
1000
0000
0100
0000
0010
0000
0001
0100
,
0000
0001
0000
0000
0100
0000
0000
0000
0100
0000
0100
0000
0001
0000
0000
0000
,
1000
0000
0001
0000
1000
0000
0000
0000
0100
0000
0010
0000
0100
0000
1000
0001
,
0000
0001
0000
0000
0010
0000
0000
0000
0001
0000
1000
0000
0001
0000
1000
0000
,
0100
0010
0100
0010
0001
0100
0001
0000
,
0001
0100
0001
0100
0001
0100
0001
0100
,
0010
1000
0010
1000
0010
1000
0010
1000
,
0001
1000
0001
1000
0001
1000
0001
1000
,
0100
1000
0100
1000
0100
1000
0100
1000
,
0100
0010
0100
0010
0100
0010
0100
0010
,
0001
0010
0001
0010
0001
0010
0001
0010
,
0001
1000
0001
1000
0001
1000
0001
1000
,
0001
0100
0010
0100
0001
1000
0001
0000
,
1000
0000
0100
0000
1000
0000
0100
1000
0000
1000
0001
0000
0001
0000
0000
0000
,
0010
0000
0100
0000
0010
0000
0100
0010
0000
0010
0001
0000
0001
0000
0000
0000
,
0100
0000
0010
0000
1000
0000
0001
1000
0000
1000
0100
0000
0100
0000
0000
0000
,
0010
0000
0100
0000
0010
0000
0001
0100
0000
0001
0100
0000
0001
0000
MMMM
MMMM
,
MMMM
0000
0001
0000
1000
0000
0100
1000
0000
1000
0100
0000
0010
0000
0000
0000
,
0001
0000
0010
0000
0100
0000
0010
0001
0000
0001
1000
0000
0100
0000
0000
0000
,
0010
0000
0001
0000
0100
0000
0001
0100
0000
0100
0001
0000
0001
0000
0000
0000
,
1000
0000
0100
0000
0010
0000
0100
0010
0000
0010
0001
0000
0001
0000
0100
0000
,
0010
0000
0100
0000
0001
0000
0001
1000
0000
1000
0001
0000
0100
0000
0001
0000
,
1000
0000
0100
0000
0010
0000
0100
1000
0000
1000
0100
0000
1000
0000
0010
0000
,
0100
0000
0010
0000
1000
0000
1000
0001
0000
0001
1000
0000
0010
0000
0100
0000
,
0010
0000
1000
0000
0001
0000
1000
0100
0000
1000
0100
0000
0010
0000
0100
0000
,
0010
0010
0001
0001
0100
0100
0010
0000
,
0100
0100
0001
0001
1000
1000
0100
0000
,
0010
0010
0100
0100
0010
0010
0001
0000
,
0100
0000
0100
0000
0010
0000
1000
0000
0001
0000
1000
0001
0000
0100
0000
0010
,
0000
0100
0000
0000
0100
0000
0000
0000
0010
0000
0100
0000
0010
0000
0000
0000
,
1000
0000
0001
0000
1000
0000
0000
0000
0100
0000
0010
0100
0000
1000
0000
0100
,
0000
0100
0000
0000
1000
0000
0000
0000
1000
0000
0001
0000
0100
0000
0000
0000
,
0010
0000
0100
0000
0001
0000
0100
0000
0001
0000
0100
0010
0000
0010
0000
0100
,
0000
0010
0000
0000
0010
0000
0000
0000
0100
0000
0001
0000
1000
0000
0000
0000
,
0100
0000
0010
0000
0001
0000
0000
0000
0100
0000
0010
1000
0000
0010
0000
0000
,
0010
1000
0010
0000
1000
0001
1000
0000
,
0100
0010
0100
0000
0100
1000
1000
0000
,
0002
0000
0000
0000
0000
0100
0100
0200
,
0000
0000
0000
0000
0300
1000
1000
2000
,
0000
0000
0000
0000
3000
0010
0010
0020
,
0000
0000
0033
0000
,
2000
0000
0000
0000
0000
0010
0010
0020
,
0000
0000
0000
0000
0030
0001
0001
0002
,
0000
0000
0000
0000
0003
0100
0100
0200
,
0000
0000
3300
0100
,
1000
0000
0001
0100
0000
0001
0000
1000
0000
0100
1000
0000
0010
0000
0000
0000
,
1000
0000
0010
0000
0100
0000
0001
0010
0000
0010
0100
0000
1000
0000
0000
0000
,
0100
0000
0010
0000
0001
0000
0001
0100
0000
0100
0010
0000
0100
0000
0000
0000
,
0010
0000
0100
0000
0001
0000
1000
0001
0000
0001
0100
0000
0010
0000
1000
0000
,
0010
0000
1000
0010
0000
0000
0000
0000
1000
0010
1000
0000
0010
0000
0000
0000
,
0100
0000
0100
0000
0010
0000
0000
0000
1000
0010
1000
0000
0010
0000
0000
0000
,
0100
0000
0001
0000
1000
0000
0000
0000
0100
1000
0100
0000
1000
0000
0000
0000
,
0100
0000
0010
0000
0001
0000
0000
0000
0100
0010
0100
0000
0010
0000
0000
0000
,
1000
0000
0001
1000
0000
0001
0000
1000
0000
0100
1000
0000
0100
0000
1000
0000
,
0100
0000
1000
0100
0000
1000
0000
0010
0000
0100
0010
0000
0000
0000
0000
0000
,
1000
0000
0001
1000
0000
0001
0000
1000
0000
0001
1000
0000
0001
0000
0100
0000
,
0010
0000
0100
0001
0000
1000
0000
0001
0000
1000
0100
0000
0000
0000
0000
0000
,
0000
0000
1000
0100
0000
0010
0000
0100
0000
0010
0100
0000
0010
0000
0001
0000
,
0001
0000
1000
0001
0000
1000
0000
0100
0000
0010
0100
0000
0010
0000
0100
0000
,
0000
0000
0010
0001
0000
0100
0000
0001
0000
0010
0100
0000
0010
0000
0100
0000
,
0010
0000
0001
1000
0000
1000
0000
0100
0000
0010
0100
0000
0010
0000
0001
0000
,
0001
0000
0001
0000
0100
0000
0100
0010
0000
0010
0100
0000
0010
0000
1000
0000
,
0001
0000
0001
0000
1000
0000
1000
0100
0000
0100
0010
0000
0100
0000
1000
0000
,
0010
0000
0100
0000
0010
0000
0010
1000
0000
1000
0001
0000
1000
0000
0100
0000
,
0100
0000
0100
0000
0010
0000
0010
0001
0000
0001
0010
0000
0100
0000
0010
0000
,
0001
0000
0100
0000
0010
0000
0010
0100
0000
0100
0010
0000
1000
0000
1000
0000
,
0010
0000
0100
0000
0001
0000
0001
1000
0000
1000
0100
0000
1000
0000
0100
0000
,
0010
0000
0100
0000
1000
0000
1000
0100
0000
0100
1000
0000
0010
0000
0100
0000
,
0010
0000
0010
0000
1000
0000
1000
0001
0000
0001
1000
0000
0100
0000
MMMM
MMMM
,
MMMM
0000
1000
0010
1000
0010
0100
0200
,
0000
0000
0000
0000
0000
0000
0000
0000
0300
0000
MMMM
MMMM
MMMM
0000
0000
0000
;
