#TITLE:Electrical Communication;
#SUBTITLE:;
#ARTIST:Ganasia;
#TITLETRANSLIT:;
#SUBTITLETRANSLIT:;
#ARTISTTRANSLIT:;
#GENRE:;
#CREDIT:;
#BANNER:Electrical Communication.png;
#BACKGROUND:Electrical Communication-bg.png;
#LYRICSPATH:;
#CDTITLE:;
#MUSIC:Electrical Communication.ogg;
#OFFSET:0.200;
#SAMPLESTART:64.860;
#SAMPLELENGTH:12.000;
#SELECTABLE:YES;
#BPMS:0.000=140.000;
#STOPS:;
#TIMESIGNATURES:0.000=4=4
;
#BGCHANGES:0.000=Electrical Communication.avi=1.000=0=0=0=StretchNoLoop====,
99999=-nosongbg-=1.000=0=0=0 // don't automatically add -songbackground-
;
#KEYSOUNDS:;

//---------------dance-single - Gabe (Zenius-I-vanisher.com)----------------
#NOTES:
     dance-single:
     Gabe (Zenius-I-vanisher.com):
     Beginner:
     1:
     0.157,0.169,0.079,0.000,0.000,90.000,7.000,0.000,0.000,0.000,0.000,0.157,0.169,0.079,0.000,0.000,90.000,7.000,0.000,0.000,0.000,0.000:
0000
0000
0000
0000
,
0000
0000
0000
0000
,
0000
0000
0000
0000
,
1000
1000
0000
0000
,
0001
0001
0000
0000
,
1000
0000
1000
0000
,
0001
0000
0001
0000
,
1001
0000
0000
0000
,
0000
0000
0000
0000
,
0000
0000
0000
0000
,
0000
0000
0000
0000
,
0000
0000
0001
0001
,
0000
0000
1000
1000
,
0000
0001
0000
1000
,
0000
0000
0001
0001
,
0000
0000
1000
1000
,
0000
0000
0001
0001
,
0000
1000
0000
0001
,
0000
0000
1000
1000
,
0000
0000
0100
0100
,
0000
0000
0010
0010
,
0000
0100
0000
0010
,
0000
0000
0100
0100
,
0000
0000
0010
0010
,
0000
0000
0100
0100
,
0000
0010
0000
0100
,
0100
0000
0110
0000
,
1001
0000
0100
0000
,
0010
0010
0010
0000
,
1001
0000
0001
0000
,
1000
1000
1000
0000
,
0110
0000
0010
0000
,
0100
0100
0100
0000
,
1000
1000
1000
0000
,
0001
0001
0001
0000
,
0100
0000
0000
0000
,
0100
0000
0000
0000
,
0110
0000
0000
0000
,
0000
0010
0010
0000
,
0001
0000
1000
0000
,
0001
0000
1000
0000
,
0000
0000
0001
0001
,
0000
0010
0010
0000
,
1000
0000
0001
0000
,
1000
0000
0001
0000
,
1000
0000
0001
0000
,
0100
0100
0100
0000
,
0001
0000
1000
0000
,
0001
0000
1000
0000
,
0001
0000
0000
1001
;

//---------------dance-single - Gabe (Zenius-I-vanisher.com)----------------
#NOTES:
     dance-single:
     Gabe (Zenius-I-vanisher.com):
     Easy:
     4:
     0.344,0.467,0.431,0.284,0.000,149.000,38.000,25.000,0.000,0.000,0.000,0.344,0.467,0.431,0.284,0.000,149.000,38.000,25.000,0.000,0.000,0.000:
0000
0000
0000
0000
,
0000
0000
0000
0000
,
0000
0000
0000
0000
,
0010
0010
0010
0010
,
1000
0100
0001
0100
,
1000
0010
0001
0010
,
1000
0100
0001
0100
,
0020
0000
0000
0000
,
2000
0000
0000
0030
,
0002
0000
0000
3000
,
0200
0000
0000
0303
,
0010
1000
0001
1001
,
0010
0001
1000
1001
,
0100
1000
0010
0110
,
0011
1001
1010
1001
,
0100
0001
1000
1001
,
0100
1000
0001
1001
,
0010
0001
0100
0110
,
1100
1001
0101
1001
,
1000
0010
0100
0110
,
1000
0100
0010
0110
,
0001
0100
1000
1001
,
1100
0110
0101
0110
,
0001
0100
0010
0110
,
0001
0010
0100
0110
,
0001
0010
1000
0110
,
1001
1100
0101
0000
,
2000
0000
0001
3000
,
0002
0000
1000
0003
,
0020
0000
0100
0030
,
0200
0000
0010
0300
,
2000
0000
0010
3000
,
0002
0000
0010
0003
,
2000
0000
0100
3000
,
0002
0000
0100
0003
,
2000
3000
0002
0003
,
0010
0100
0110
0000
,
0200
0000
0000
0300
,
0010
1000
0100
1000
,
0010
0001
0100
0001
,
0010
1001
0100
1001
,
0011
1001
1010
0000
,
0100
0001
0010
0001
,
0100
1000
0010
1000
,
2100
3100
0102
0103
,
2010
3010
0012
0013
,
2000
0100
0100
3000
,
0002
0100
0100
0003
,
2000
0001
3001
0000
,
0020
0100
0130
2002
,
0000
0000
0000
0000
,
0000
0000
3003
0000
;

//---------------dance-single - Gabe (Zenius-I-vanisher.com)----------------
#NOTES:
     dance-single:
     Gabe (Zenius-I-vanisher.com):
     Medium:
     5:
     0.436,0.409,0.544,0.374,0.023,188.000,48.000,33.000,0.000,0.000,0.000,0.436,0.409,0.544,0.374,0.023,188.000,48.000,33.000,0.000,0.000,0.000:
0000
0000
0000
0000
,
0000
0000
0000
0000
,
0000
0000
0000
0000
,
0100
0100
0110
0110
,
0010
0010
0110
0110
,
1000
1100
0001
0101
,
1001
0100
1001
0010
,
1000
1000
1000
0000
,
0001
0000
0001
1000
0000
0000
0000
0000
,
0001
0001
0001
0000
,
1000
0001
1000
0001
1000
0000
1001
0000
,
0100
0100
0110
0010
,
1000
1000
1001
0001
,
0110
1100
0101
0110
,
0010
0100
0010
0100
,
0001
0001
1001
1000
,
0010
0010
0110
0100
,
1001
0011
1010
1001
,
1000
0100
1000
0100
1000
0000
0001
0000
,
1000
1000
0101
0010
,
0001
0001
1100
0010
,
1100
1010
0011
1100
,
0001
0100
0001
0100
,
0001
0001
1010
0100
,
1000
1000
0011
0100
,
1010
0000
0100
0000
0011
0000
0100
0001
,
0010
0000
0000
0010
0000
0000
0010
0000
0100
0000
0000
0000
0110
0000
0000
0000
,
0002
1000
2003
0001
,
3002
0103
0220
0330
,
2000
0001
3002
1000
,
2003
3100
0220
0330
,
0002
0010
2003
0010
,
3002
0203
2300
3020
,
0230
0001
0302
1000
,
2003
0010
3020
0130
,
0010
0000
0000
0010
0000
0000
0010
0000
0001
0000
0000
0001
0000
0000
0001
0000
,
1000
0000
0000
1000
0000
0000
1000
0000
0200
0000
0000
0000
0000
0000
0000
0000
,
0020
0000
0000
0330
,
1100
0101
1100
0010
,
0101
1100
0101
0010
,
1100
0100
0101
0100
,
1020
0031
2002
3003
,
1000
0100
1000
0100
1000
0000
1100
0000
,
0001
0100
0001
0100
0001
0000
0101
0000
,
2000
0100
3002
0100
,
2003
0010
3002
0013
,
2002
0000
0000
3003
,
0100
0000
0010
0100
0000
0000
0000
0000
,
1000
0001
1000
0000
,
0010
0100
0010
0100
0010
0000
0220
0000
,
0000
0000
0000
0000
,
0000
0000
0330
0000
;

//---------------dance-single - Gabe (Zenius-I-vanisher.com)----------------
#NOTES:
     dance-single:
     Gabe (Zenius-I-vanisher.com):
     Hard:
     7:
     0.523,0.497,0.488,0.284,0.091,255.000,43.000,25.000,0.000,0.000,0.000,0.523,0.497,0.488,0.284,0.091,255.000,43.000,25.000,0.000,0.000,0.000:
0000
0000
0000
0000
,
0000
0000
0000
0000
,
0000
0000
0000
0000
,
1000
0000
0001
0000
1000
0100
1000
1000
,
0001
0000
1000
0000
0001
0100
0001
0001
,
1001
0000
0100
1000
0010
0000
0010
0001
,
0100
0000
0100
1000
0010
0000
0010
0001
,
1002
0100
0200
0303
,
2000
0000
0001
0001
0000
3001
0000
0010
,
0200
0020
0000
0330
,
1000
0100
1000
0001
0100
0001
1001
0000
,
1000
0010
1000
0010
1010
0000
1100
0000
,
0001
0010
0001
0010
0011
0000
0101
0000
,
1000
0010
0001
0010
1000
0010
0001
0000
,
1100
0101
1100
0101
,
1000
0100
1000
0100
1100
0000
1010
0000
,
0001
0100
0001
0100
0101
0000
0011
0000
,
1000
0100
0001
0100
1000
0100
0001
0000
,
1010
0011
1010
0011
,
1000
0100
0010
0100
1010
0000
0101
0000
,
0001
0100
0010
0100
0011
0000
1100
0000
,
0100
0100
0010
0010
0100
0010
0100
0000
,
1010
0011
1100
0101
,
1000
0010
0100
0010
1100
0000
0011
0000
,
0001
0010
0100
0010
0101
0000
1010
0000
,
0010
0010
0100
0100
0010
0100
0010
0100
,
1000
0100
0010
0100
0001
0000
1001
0000
,
2100
0000
0000
0100
0000
0000
3100
0000
0102
0000
0000
0100
0000
0000
0103
0000
,
1001
0000
0100
0010
0200
0000
0300
0000
,
0012
0000
0000
0010
0000
0000
0013
0000
2010
0000
0000
0010
0000
0000
3010
0000
,
1001
0000
0100
0010
0200
0000
0300
0000
,
2010
0000
0000
0001
0000
0000
3100
0000
0012
0000
0000
1000
0000
0000
0103
0000
,
1000
0100
1000
0100
2000
0000
3000
0000
,
0100
0100
0010
0010
,
1000
0001
0100
0000
,
0002
0000
0000
1003
0000
0000
0000
0000
2000
0000
0000
3001
0000
0000
0000
0000
,
0020
0000
0000
0130
0000
0000
0200
0000
0020
0000
0000
0000
0330
0000
0000
0000
,
1000
0000
0001
0000
0100
0001
0100
0000
0000
0000
0220
0000
0000
0000
0330
0000
,
0100
0000
0010
0100
0000
1000
0100
1000
,
0100
0000
0010
0100
0000
0001
0100
0001
,
0100
0000
1000
0001
1000
0000
0001
1000
,
0001
0000
0001
0010
0012
0000
1003
0000
,
0010
0000
0010
0100
0000
0100
0010
0100
,
1000
0000
1000
0001
0000
0001
1000
0001
,
1000
0000
0000
1000
0000
0000
1000
0000
0001
0000
0000
0001
0000
0000
0001
0000
,
0100
0000
0000
0100
0000
0000
0100
0000
0010
0000
0000
0010
0000
0000
0010
0000
,
1000
0010
0000
0000
0001
0000
0000
0000
0100
0000
0000
0000
0000
0000
0000
0000
,
0001
0010
0000
0000
1000
0000
0100
0000
0000
0000
0100
0000
0000
0000
0100
0000
,
0010
0001
0200
0000
0010
0000
0000
0000
,
0301
0100
0010
1000
0100
0000
2002
0000
,
0000
0000
0000
0000
,
0000
0000
3003
0000
;

//---------------dance-single - Gabe (Zenius-I-vanisher.com)----------------
#NOTES:
     dance-single:
     Gabe (Zenius-I-vanisher.com):
     Challenge:
     8:
     0.647,0.672,0.454,0.533,0.442,312.000,40.000,47.000,0.000,0.000,0.000,0.647,0.672,0.454,0.533,0.442,312.000,40.000,47.000,0.000,0.000,0.000:
0000
0000
0000
0000
,
0000
0000
0000
0000
,
0000
0000
0000
0000
,
1000
0000
0000
1000
0000
0000
1000
0000
0001
0010
0001
0020
0000
0000
0130
0000
,
1000
0000
0001
0100
0000
0001
0100
0000
1000
0010
1000
0020
0000
0000
0130
0000
,
1100
0000
0000
1000
0000
0000
0001
0000
0101
0000
0000
0001
0000
0000
1000
0000
,
1010
0000
0000
0010
0000
0000
0100
0000
0101
0000
0000
0010
0000
0000
0100
0000
,
1200
0010
1300
0000
0102
0000
0100
0000
,
0103
0000
0100
0000
0010
0000
0010
0000
0000
0000
0210
0000
0000
0000
0301
1000
,
0100
0100
0020
0000
0100
0000
0130
0000
,
0100
0000
0010
0000
0100
0000
0010
0000
0110
0000
0110
0000
0110
0000
1000
0100
,
1000
0000
0001
0000
0100
0000
0001
0000
0010
0000
0000
0010
0000
0000
0010
0000
,
0100
0000
1000
0000
0010
0000
1000
0000
0200
0000
0000
1300
0000
0000
0000
0000
,
0100
0000
1000
0000
0100
0000
0001
0000
1000
0001
0000
1000
0000
0000
0000
0000
,
0020
2030
3002
0200
,
0303
0000
1000
0000
0100
0000
1000
0000
0001
1000
0000
1000
0000
0000
1000
0000
,
0010
0000
0001
0000
0100
0000
0001
0000
2000
0000
0000
0002
0000
0000
0000
0000
,
3003
0000
0100
0000
0001
0000
0010
0000
0100
1000
0000
1000
0000
0000
0002
0000
,
0023
0230
1300
0001
0020
0000
2030
0000
,
3000
0000
0010
0000
1000
0000
0010
0000
0100
0000
0000
0100
0000
0000
0100
0000
,
0010
0000
0100
0000
0010
0000
0100
0000
2000
0000
0000
0002
0000
0000
3003
0000
,
0001
0000
1000
0000
0010
0000
0100
0000
1000
0001
0000
0010
0000
0000
0000
0000
,
2000
3020
0230
0302
,
0003
0000
1000
0000
0100
0000
0100
0000
1000
0010
0000
0001
0000
0000
0001
0000
,
0010
0000
0100
0000
0010
0000
0100
0000
0020
0000
0000
0002
0000
0000
0000
0000
,
0033
0000
1000
0000
0100
0000
0010
0000
0001
1000
0000
0001
0000
0000
0001
0000
,
1100
0000
0000
0101
0000
0000
1100
0000
0202
0000
0000
0000
0303
0000
0000
0000
,
1001
0000
0000
0001
0000
0000
1000
0000
1001
0000
0000
1000
0000
0000
0001
0000
,
1001
0000
0000
0100
0000
0000
0001
0000
1000
0100
1000
0000
1001
0000
0000
0000
,
0110
0000
0000
0010
0000
0000
0100
0000
0110
0000
0000
0100
0000
0000
0010
0000
,
0110
0000
0000
1000
0000
0000
0010
0000
0100
0010
0100
0000
0110
0000
0000
0000
,
1000
0000
0000
0100
0000
0000
1000
0000
0001
0000
0000
0100
0000
0000
0001
0000
,
0010
0000
0100
0000
0001
0000
0100
0020
0000
0000
0000
0000
1030
0000
0000
0000
,
1001
0000
0000
0100
0000
0000
0100
0000
1001
0000
0000
0010
0000
0000
0010
0000
,
1000
0000
0000
1000
0000
0000
0100
0000
0120
0000
0000
0000
0130
0000
0000
0000
,
1002
0000
0000
1000
0000
0000
1003
0000
2001
0000
0000
0001
0000
0000
3001
0000
,
2001
0000
0000
0100
0000
0000
3010
0000
0220
0000
0000
0000
0330
0000
0010
0100
,
0010
0100
0010
0100
0010
0100
0002
2000
0000
0000
3003
0000
0110
0000
0000
0000
,
1001
0000
0000
0100
0000
0000
1000
0000
0001
0100
0001
0200
0000
0000
0310
0000
,
0110
0000
1000
0010
0000
1000
0010
0000
0001
0010
0001
0020
0000
0000
0031
0000
,
2000
0000
0000
0010
0000
0000
3100
0000
0002
0000
0000
0010
0000
0000
0103
0000
,
0020
0000
0000
0100
0000
0000
0130
0000
0110
0000
0000
0000
1001
0000
0000
0000
,
0001
0100
0001
0010
0000
0000
1000
0010
1000
0100
1000
0010
0000
0000
0010
0000
,
1000
0000
0001
0000
0010
0000
0001
0000
0010
0100
1000
0001
0000
0000
0100
0000
,
1002
0000
0000
1000
0000
0000
1000
0000
0010
0000
0000
0010
0000
0000
0010
0000
,
0100
0000
0000
0100
0000
0000
0100
0000
1000
0000
0010
0000
1000
0000
0103
0000
,
0110
0001
0002
0000
0100
0000
0103
0000
,
0010
0000
1000
0000
0100
0000
1001
0000
0000
0000
0110
0000
0000
0000
1000
0010
,
1000
0001
2100
0000
3010
0000
1010
0000
,
0010
0000
0001
0000
0100
0000
1000
0100
1000
0100
1000
0200
2000
0000
0000
0000
,
0000
0000
0000
0000
,
0000
0000
3300
0000
;

//---------------dance-double - Gabe (Zenius-I-vanisher.com)----------------
#NOTES:
     dance-double:
     Gabe (Zenius-I-vanisher.com):
     Medium:
     5:
     0.433,0.409,0.522,0.374,0.023,188.000,46.000,33.000,0.000,0.000,0.000,0.433,0.409,0.522,0.374,0.023,188.000,46.000,33.000,0.000,0.000,0.000: // measure 1
00000000
00000000
00000000
00000000
,  // measure 2
00000000
00000000
00000000
00000000
,  // measure 3
00000000
00000000
00000000
00000000
,  // measure 4
01000000
01000000
01100000
01100000
,  // measure 5
00100000
00100000
01100000
01100000
,  // measure 6
10000000
11000000
00010000
01010000
,  // measure 7
01001000
00100000
01001000
00010000
,  // measure 8
01000000
01000000
01000000
00000000
,  // measure 9
00001000
00000000
00001000
01000000
00000000
00000000
00000000
00000000
,  // measure 10
00001000
00001000
00001000
00000000
,  // measure 11
00100000
00000100
00100000
00000100
00100000
00000000
00100000
00000000
,  // measure 12
00010000
00010000
00011000
00001000
,  // measure 13
00100000
00100000
00100000
00000100
,  // measure 14
00011000
00110000
00010100
00011000
,  // measure 15
00000100
00001000
00000100
00001000
,  // measure 16
00000010
00000010
00010010
00010000
,  // measure 17
00000100
00000100
00001100
00001000
,  // measure 18
00010010
00000110
00010100
00010010
,  // measure 19
00001000
00000100
00001000
00000100
00001000
00000000
00000001
00000000
,  // measure 20
00001000
00001000
00000101
00000010
,  // measure 21
00000001
00000001
00001100
00000010
,  // measure 22
00001100
00001010
00000011
00001100
,  // measure 23
00000010
00001000
00000010
00001000
,  // measure 24
00000010
00000010
00010100
00001000
,  // measure 25
00010000
00010000
00000110
00001000
,  // measure 26
00010100
00000000
00001000
00000000
00000110
00000000
00001000
00000010
,  // measure 27
00001000
00000000
00000000
00001000
00000000
00000000
00001000
00000000
00010000
00000000
00000000
00000000
00011000
00000000
00000000
00000000
,  // measure 28
00000200
00100000
00200300
00000100
,  // measure 29
00300200
00010300
00022000
00033000
,  // measure 30
00200000
00000100
00300200
00100000
,  // measure 31
00200300
00310000
00022000
00033000
,  // measure 32
00002000
00010000
02003000
00010000
,  // measure 33
03002000
00203000
02300000
03020000
,  // measure 34
00230000
00001000
00302000
01000000
,  // measure 35
02003000
00010000
03020000
00130000
,  // measure 36
00100000
00000000
00000000
00100000
00000000
00000000
00100000
00000000
00010000
00000000
00000000
00010000
00000000
00000000
00010000
00000000
,  // measure 37
10000000
00000000
00000000
10000000
00000000
00000000
10000000
00000000
02000000
00000000
00000000
00000000
00000000
00000000
00000000
00000000
,  // measure 38
00200000
00000000
00000000
03300000
,  // measure 39
11000000
01010000
11000000
00100000
,  // measure 40
00101000
01100000
00101000
00010000
,  // measure 41
01100000
00100000
00101000
00100000
,  // measure 42
01020000
00031000
02002000
03003000
,  // measure 43
01000000
00100000
01000000
00100000
01000000
00000000
01100000
00000000
,  // measure 44
00000100
00010000
00000100
00010000
00000100
00000000
00010100
00000000
,  // measure 45
00200000
00010000
00300200
00010000
,  // measure 46
00200300
00001000
00300200
00001300
,  // measure 47
00200200
00000000
00000000
00300300
,  // measure 48
00001000
00000000
00000100
00001000
00000000
00000000
00000000
00000000
,  // measure 49
00010000
00000010
00010000
00000000
,  // measure 50
00000100
00001000
00000100
00001000
00000100
00000000
00002200
00000000
,  // measure 51
00000000
00000000
00000000
00000000
,  // measure 52
00000000
00000000
00003300
00000000
;

//---------------dance-double - Gabe (Zenius-I-vanisher.com)----------------
#NOTES:
     dance-double:
     Gabe (Zenius-I-vanisher.com):
     Hard:
     7:
     0.519,0.467,0.454,0.284,0.091,255.000,40.000,25.000,0.000,0.000,0.000,0.519,0.467,0.454,0.284,0.091,255.000,40.000,25.000,0.000,0.000,0.000: // measure 1
00000000
00000000
00000000
00000000
,  // measure 2
00000000
00000000
00000000
00000000
,  // measure 3
00000000
00000000
00000000
00000000
,  // measure 4
10000000
00000000
00010000
00000000
10000000
01000000
10000000
10000000
,  // measure 5
00010000
00000000
10000000
00000000
00010000
01000000
00010000
00010000
,  // measure 6
10010000
00000000
01000000
10000000
00100000
00000000
00100000
00010000
,  // measure 7
00100000
00000000
00100000
01000000
00010000
00000000
00010000
00001000
,  // measure 8
01002000
00100000
00200000
00303000
,  // measure 9
02000000
00000000
00001000
00001000
00000000
03001000
00000000
00010000
,  // measure 10
00200000
00020000
00000000
00330000
,  // measure 11
00100000
00010000
00100000
00000100
00010000
00000100
00100000
00000000
,  // measure 12
00100000
00001000
00100000
00001000
00101000
00000000
00110000
00000000
,  // measure 13
00000100
00001000
00000100
00001000
00001100
00000000
00010100
00000000
,  // measure 14
00100000
00001000
00000100
00001000
00100000
00001000
00000100
00000000
,  // measure 15
00011000
00001010
00011000
00001010
,  // measure 16
00010000
00001000
00010000
00001000
00011000
00000000
00010100
00000000
,  // measure 17
00000010
00001000
00000010
00001000
00001010
00000000
00000110
00000000
,  // measure 18
00010000
00001000
00000010
00001000
00010000
00001000
00000010
00000000
,  // measure 19
00001010
00000011
00001010
00000011
,  // measure 20
00001000
00000100
00000010
00000100
00001010
00000000
00000101
00000000
,  // measure 21
00000001
00000100
00000010
00000100
00000011
00000000
00001100
00000000
,  // measure 22
00000100
00000100
00000010
00000010
00000100
00000010
00000100
00000000
,  // measure 23
00010100
00000110
00011000
00001010
,  // measure 24
00010000
00000100
00001000
00000100
00011000
00000000
00000110
00000000
,  // measure 25
00000010
00000100
00001000
00000100
00001010
00000000
00010100
00000000
,  // measure 26
00000100
00000100
00001000
00001000
00000100
00001000
00000100
00001000
,  // measure 27
00100000
00010000
00001000
00010000
00000100
00000000
00100000
00000000
,  // measure 28
00210000
00000000
00000000
00010000
00000000
00000000
00310000
00000000
00010200
00000000
00000000
00010000
00000000
00000000
00010300
00000000
,  // measure 29
00100000
00000000
00010000
00001000
00020000
00000000
00030000
00000000
,  // measure 30
00001200
00000000
00000000
00001000
00000000
00000000
00001300
00000000
00201000
00000000
00000000
00001000
00000000
00000000
00301000
00000000
,  // measure 31
01001000
00000000
00100000
00010000
00200000
00000000
00300000
00000000
,  // measure 32
02010000
00000000
00000000
00001000
00000000
00000000
03100000
00000000
00012000
00000000
00000000
01000000
00000000
00000000
00103000
00000000
,  // measure 33
01000000
00100000
01000000
00100000
02000000
00000000
03000000
00000000
,  // measure 34
00100000
00100000
00010000
00010000
,  // measure 35
10000000
00010000
01000000
00000000
,  // measure 36
00020000
00000000
00000000
10030000
00000000
00000000
00000000
00000000
20000000
00000000
00000000
30010000
00000000
00000000
00000000
00000000
,  // measure 37
00200000
00000000
00000000
01300000
00000000
00000000
02000000
00000000
00200000
00000000
00000000
00000000
03300000
00000000
00000000
00000000
,  // measure 38
10000000
00000000
00010000
00000000
01000000
00010000
01000000
00000000
00000000
00000000
02200000
00000000
00000000
00000000
03300000
00000000
,  // measure 39
00100000
00000000
00010000
00100000
00000000
01000000
00100000
01000000
,  // measure 40
00100000
00000000
00010000
00100000
00000000
00001000
00100000
00001000
,  // measure 41
00100000
00000000
01000000
00001000
01000000
00000000
00001000
01000000
,  // measure 42
00001000
00000000
00001000
00010000
00012000
00000000
01003000
00000000
,  // measure 43
00001000
00000000
00001000
00010000
00000000
00010000
00001000
00010000
,  // measure 44
00100000
00000000
00100000
00000100
00000000
00000100
00100000
00000100
,  // measure 45
00100000
00000000
00000000
00100000
00000000
00000000
00100000
00000000
00000100
00000000
00000000
00000100
00000000
00000000
00000100
00000000
,  // measure 46
00010000
00000000
00000000
00010000
00000000
00000000
00010000
00000000
00001000
00000000
00000000
00001000
00000000
00000000
00001000
00000000
,  // measure 47
00010000
00000100
00000000
00000000
00000010
00000000
00000000
00000000
00001000
00000000
00000000
00000000
00000000
00000000
00000000
00000000
,  // measure 48
00000010
00000100
00000000
00000000
00010000
00000000
00001000
00000000
00000000
00000000
00001000
00000000
00000000
00000000
00001000
00000000
,  // measure 49
00000100
00000010
00002000
00000000
00000100
00000000
00000000
00000000
,  // measure 50
00003010
00001000
00000100
00010000
00001000
00000000
00020020
00000000
,  // measure 51
00000000
00000000
00000000
00000000
,  // measure 52
00000000
00000000
00030030
00000000
;

//---------------dance-double - Gabe (Zenius-I-vanisher.com)----------------
#NOTES:
     dance-double:
     Gabe (Zenius-I-vanisher.com):
     Challenge:
     8:
     0.640,0.672,0.408,0.533,0.442,312.000,36.000,47.000,0.000,0.000,0.000,0.640,0.672,0.408,0.533,0.442,312.000,36.000,47.000,0.000,0.000,0.000:
00000000
00000000
00000000
00000000
,
00000000
00000000
00000000
00000000
,
00000000
00000000
00000000
00000000
,
10000000
00000000
00000000
10000000
00000000
00000000
10000000
00000000
00010000
00100000
00010000
00200000
00000000
00000000
01300000
00000000
,
10000000
00000000
00010000
01000000
00000000
00010000
01000000
00000000
10000000
00100000
10000000
00200000
00000000
00000000
01300000
00000000
,
11000000
00000000
00000000
10000000
00000000
00000000
00010000
00000000
01010000
00000000
00000000
00010000
00000000
00000000
10000000
00000000
,
01010000
00000000
00000000
00010000
00000000
00000000
00100000
00000000
00101000
00000000
00000000
00010000
00000000
00000000
00100000
00000000
,
01200000
00010000
01300000
00000000
00102000
00000000
00100000
00000000
,
00103000
00000000
00100000
00000000
00010000
00000000
00010000
00000000
00000000
00000000
00210000
00000000
00000000
00000000
00301000
01000000
,
00100000
00100000
00020000
00000000
00100000
00000000
00130000
00000000
,
00010000
00000000
00001000
00000000
00010000
00000000
00001000
00000000
00011000
00000000
00011000
00000000
00011000
00000000
00100000
00010000
,
00100000
00000000
00000100
00000000
00010000
00000000
00000100
00000000
00001000
00000000
00000000
00001000
00000000
00000000
00001000
00000000
,
00010000
00000000
00100000
00000000
00001000
00000000
00100000
00000000
00020000
00000000
00000000
00130000
00000000
00000000
00000000
00000000
,
00010000
00000000
00100000
00000000
00010000
00000000
00000100
00000000
00100000
00000100
00000000
00100000
00000000
00000000
00000000
00000000
,
00000200
00020300
00030020
00002000
,
00003030
00000000
00010000
00000000
00001000
00000000
00010000
00000000
00000010
00010000
00000000
00010000
00000000
00000000
00010000
00000000
,
00000100
00000000
00000010
00000000
00001000
00000000
00000010
00000000
00020000
00000000
00000000
00000020
00000000
00000000
00000000
00000000
,
00030030
00000000
00001000
00000000
00000010
00000000
00000100
00000000
00001000
00010000
00000000
00010000
00000000
00000000
00000020
00000000
,
00000230
00002300
00013000
00000010
00000200
00000000
00020300
00000000
,
00030000
00000000
00000010
00000000
00001000
00000000
00000010
00000000
00000100
00000000
00000000
00000100
00000000
00000000
00000100
00000000
,
00000010
00000000
00000100
00000000
00000010
00000000
00000100
00000000
00002000
00000000
00000000
00000002
00000000
00000000
00003003
00000000
,
00000001
00000000
00001000
00000000
00000010
00000000
00000100
00000000
00001000
00000001
00000000
00000010
00000000
00000000
00000000
00000000
,
00002000
00003020
00000230
00000302
,
00000003
00000000
00010000
00000000
00001000
00000000
00001000
00000000
00010000
00000100
00000000
00000010
00000000
00000000
00000010
00000000
,
00000100
00000000
00001000
00000000
00000100
00000000
00001000
00000000
00000200
00000000
00000000
00000020
00000000
00000000
00000000
00000000
,
00000330
00000000
00010000
00000000
00001000
00000000
00000100
00000000
00000010
00010000
00000000
00000010
00000000
00000000
00000010
00000000
,
00011000
00000000
00000000
00001010
00000000
00000000
00011000
00000000
00002020
00000000
00000000
00000000
00003030
00000000
00000000
00000000
,
00100000
00000000
00000000
00000100
00000000
00000000
00100000
00000000
00100000
00000000
00000000
00100000
00000000
00000000
00000100
00000000
,
00100000
00000000
00000000
00010000
00000000
00000000
00000100
00000000
00100000
00010000
00100000
00000000
00100000
00000000
00000000
00000000
,
00011000
00000000
00000000
00001000
00000000
00000000
00010000
00000000
00011000
00000000
00000000
00010000
00000000
00000000
00001000
00000000
,
00011000
00000000
00000000
00100000
00000000
00000000
00001000
00000000
00010000
00001000
00010000
00000000
00011000
00000000
00000000
00000000
,
01000000
00000000
00000000
00100000
00000000
00000000
01000000
00000000
00001000
00000000
00000000
00100000
00000000
00000000
00001000
00000000
,
00010000
00000000
00100000
00000000
00001000
00000000
00100000
00020000
00000000
00000000
00000000
00000000
01030000
00000000
00000000
00000000
,
01001000
00000000
00000000
00100000
00000000
00000000
00100000
00000000
01001000
00000000
00000000
00010000
00000000
00000000
00010000
00000000
,
01000000
00000000
00000000
01000000
00000000
00000000
00100000
00000000
00120000
00000000
00000000
00000000
00130000
00000000
00000000
00000000
,
10020000
00000000
00000000
10000000
00000000
00000000
10030000
00000000
20010000
00000000
00000000
00010000
00000000
00000000
30010000
00000000
,
20010000
00000000
00000000
01000000
00000000
00000000
30100000
00000000
02200000
00000000
00000000
00000000
03300000
00000000
00100000
01000000
,
00100000
01000000
00100000
01000000
00100000
01000000
00020000
20000000
00000000
00000000
30030000
00000000
01100000
00000000
00000000
00000000
,
10010000
00000000
00000000
01000000
00000000
00000000
10000000
00000000
00010000
01000000
00010000
02000000
00000000
00000000
03100000
00000000
,
00110000
00000000
01000000
00010000
00000000
01000000
00010000
00000000
00001000
00010000
00001000
00020000
00000000
00000000
00031000
00000000
,
02000000
00000000
00000000
00010000
00000000
00000000
03100000
00000000
00002000
00000000
00000000
00010000
00000000
00000000
00103000
00000000
,
00020000
00000000
00000000
00100000
00000000
00000000
00130000
00000000
00110000
00000000
00000000
00000000
01001000
00000000
00000000
00000000
,
00001000
00100000
00001000
00010000
00000000
00000000
01000000
00010000
01000000
00100000
01000000
00010000
00000000
00000000
00010000
00000000
,
00100000
00000000
00000100
00000000
00001000
00000000
00000100
00000000
00001000
00010000
00100000
00000100
00000000
00000000
00010000
00000000
,
00100200
00000000
00000000
00100000
00000000
00000000
00100000
00000000
00001000
00000000
00000000
00001000
00000000
00000000
00001000
00000000
,
00010000
00000000
00000000
00010000
00000000
00000000
00010000
00000000
00100000
00000000
00001000
00000000
00100000
00000000
00010300
00000000
,
00011000
00000100
00000200
00000000
00010000
00000000
00010300
00000000
,
00000100
00000000
00010000
00000000
00001000
00000000
00010010
00000000
00000000
00000000
00001100
00000000
00000000
00000000
00010000
00000100
,
00010000
00000010
00021000
00000000
00030100
00000000
00010100
00000000
,
00000100
00000000
00000010
00000000
00001000
00000000
00010000
00001000
00010000
00001000
00010000
00002000
00020000
00000000
00000000
00000000
,
00000000
00000000
00000000
00000000
,
00000000
00000000
00033000
00000000
;

//---------------dance-double - Gabe (Zenius-I-vanisher.com)----------------
#NOTES:
     dance-double:
     Gabe (Zenius-I-vanisher.com):
     Easy:
     3:
     0.240,0.292,0.204,0.193,0.000,113.000,18.000,17.000,0.000,0.000,0.000,0.240,0.292,0.204,0.193,0.000,113.000,18.000,17.000,0.000,0.000,0.000: // measure 1
00000000
00000000
00000000
00000000
,  // measure 2
00000000
00000000
00000000
00000000
,  // measure 3
00000000
00000000
00000000
00000000
,  // measure 4
00011000
00000000
00000010
00000000
,  // measure 5
00000100
00000100
00001000
00001000
,  // measure 6
00010000
00000000
00010000
00000000
,  // measure 7
10000000
00000000
01000000
00000000
,  // measure 8
00200000
00000000
00000000
00000000
,  // measure 9
00300000
00000000
00000000
00000000
,  // measure 10
00002000
00000000
00000000
00000000
,  // measure 11
00003000
00000000
00000000
00000000
,  // measure 12
00000101
00000100
00001000
00000000
,  // measure 13
00001000
00001000
00000100
00000000
,  // measure 14
00001010
00000010
00001000
00000000
,  // measure 15
00001000
00001000
00000001
00000000
,  // measure 16
00000101
00000100
00001000
00000000
,  // measure 17
00010000
01000000
10000000
00000000
,  // measure 18
10000000
01000000
00010000
01000000
,  // measure 19
00001000
00000100
00010000
01000000
,  // measure 20
10100000
10000000
01000000
00000000
,  // measure 21
01000000
01000000
00100000
00000000
,  // measure 22
01010000
01000000
00010000
00000000
,  // measure 23
01000000
01000000
00010000
00000000
,  // measure 24
00000000
00100000
00110000
00000000
,  // measure 25
00000000
00000010
00001010
00000000
,  // measure 26
00001000
00010000
00100000
01000000
,  // measure 27
01000000
01000000
00000000
00000000
,  // measure 28
20000000
00000000
00010000
30000000
,  // measure 29
00020000
00000000
00100000
00030000
,  // measure 30
02000000
00000000
00010000
03000000
,  // measure 31
00200000
00000000
00001000
00300000
,  // measure 32
00002000
00010000
00010000
00003000
,  // measure 33
00020000
00001000
00001000
00030000
,  // measure 34
00001100
00000000
00001100
00000000
,  // measure 35
00010100
00000000
00010100
00000000
,  // measure 36
00010000
00000000
00000100
00000000
,  // measure 37
00000110
00000110
00000110
00000000
,  // measure 38
00002002
00000000
00000000
00003003
,  // measure 39
00000001
00000000
00001000
00000000
,  // measure 40
10000000
00001000
00010000
00000001
,  // measure 41
00000200
00000300
00002000
00003000
,  // measure 42
00000002
00000010
00000010
00000003
,  // measure 43
00011000
00000000
00000010
00000000
,  // measure 44
00000100
00000100
00001000
00001000
,  // measure 45
00010000
00000000
00010000
00000000
,  // measure 46
10000000
00000000
01000000
00000000
,  // measure 47
00200000
00000000
00000000
00000000
,  // measure 48
00310000
00000010
00010000
00000000
,  // measure 49
00002000
00000000
00000000
00000000
,  // measure 50
00013000
00010000
00000000
00022000
,  // measure 51
00000000
00000000
00000000
00000000
,  // measure 52
00000000
00000000
00033000
00000000
;
