#TITLE:Frozen;
#SUBTITLE:;
#ARTIST:cornandbeans;
#TITLETRANSLIT:;
#SUBTITLETRANSLIT:;
#ARTISTTRANSLIT:;
#GENRE:;
#CREDIT:;
#BANNER:frozen-bn.png;
#BACKGROUND:frozen-bg.png;
#LYRICSPATH:;
#CDTITLE:;
#MUSIC:cornandbeans - Frozen.mp3;
#OFFSET:-3.470;
#SAMPLESTART:30.880;
#SAMPLELENGTH:12.000;
#SELECTABLE:YES;
#BPMS:0.000=140.000;
#STOPS:;
#BGCHANGES:;
#KEYSOUNDS:;

//---------------dance-single - C.Sanabria----------------
#NOTES:
     dance-single:
     C.Sanabria:
     Challenge:
     11:
     0.934,0.914,0.066,0.608,1.000:
0000
0000
1000
0000
1000
0000
0000
1000
0000
0000
2000
0000
0000
0000
3010
0000
,
00M0
0000
0001
0000
0001
0000
0000
0001
0000
0000
0002
0000
0000
0000
0013
0000
,
00M0
0000
1000
0000
1000
0000
0000
1000
0000
0000
2000
0000
0000
0000
3100
0000
,
0M00
0000
0001
0000
0001
0000
0000
0001
0000
0000
0002
0000
0000
0000
0103
0000
,
0M00
0000
2000
0000
0020
0000
3000
2000
0000
0030
0020
0000
0030
0000
3001
0000
,
000M
0000
0002
0000
0020
0000
0003
0002
0000
0030
0020
0000
0030
0000
1003
0000
,
M000
0000
0000
0000
2000
0000
0000
0000
0020
0000
0000
3000
0000
0000
0200
0000
0000
0030
0000
0000
0002
0000
0000
0000
0300
0000
0000
0000
0020
0000
0003
0000
,
0130
1000
0001
1000
0010
0100
0001
1000
0001
0000
M202
0303
0000
0000
202M
3030
,
0001
0010
0001
0100
0010
1000
0100
1000
,
0010
0100
0001
0010
0100
1000
0100
0010
,
0001
0100
0001
0100
0010
0100
0010
0100
,
0010
1000
0010
1000
0001
1000
0100
0010
,
0001
0100
0020
1000
2030
0100
3200
0010
,
1300
0100
0020
0001
0032
0100
0203
0010
,
0301
0100
1000
0100
0001
0010
0100
0010
,
1000
0000
0000
0000
0000
0000
0000
0000
0000
0000
0000
0000
0000
0000
0000
0000
0000
0000
0000
0000
0000
0000
0000
0000
0010
0000
0000
0000
0000
0000
0000
0000
0000
0000
0000
0000
0000
0000
0000
0000
0000
0000
0000
0000
0000
0000
0000
0000
0001
0000
0000
0000
0000
0000
0000
0000
0000
0000
0000
0000
0000
0000
0000
0000
0000
0000
0000
0000
0000
0000
0000
0000
02M0
0000
0000
0000
0000
0000
0000
0000
0000
0000
0000
0000
0000
0000
0000
0000
0000
0000
0000
0000
0000
0000
0000
0000
0000
0000
0000
0000
0000
0000
0000
0000
0000
0000
0000
0000
0000
0000
0000
0000
0000
0000
0000
0000
0000
0000
0000
0000
200M
0000
0000
0000
0000
0000
0000
0000
0000
0000
0000
0000
0000
0000
0000
0000
0000
0000
0000
0000
0000
0000
0000
0300
02M0
0000
0000
0000
0000
0000
0000
0000
0000
0000
0000
0000
0000
0000
0000
0000
0000
0000
0000
0000
0000
0000
0000
0000
3000
0000
0000
0000
0000
0000
0000
0000
0000
0000
0000
0000
0000
0000
0000
0000
0000
0000
0000
0000
0000
0000
0000
0000
,
0301
0000
0000
0000
0000
0000
0000
0000
0000
0000
0000
0000
0000
0000
0000
0000
0000
0000
0000
0000
0000
0000
0000
0000
0010
0000
0000
0000
0000
0000
0000
0000
0000
0000
0000
0000
0000
0000
0000
0000
0000
0000
0000
0000
0000
0000
0000
0000
0100
0000
0000
0000
0000
0000
0000
0000
0000
0000
0000
0000
0000
0000
0000
0000
0000
0000
0000
0000
0000
0000
0000
0000
0020
0000
0000
0000
0000
0000
0000
0000
0000
0000
0000
0000
0000
0000
0000
0000
0000
0000
0000
0000
0000
0000
0000
0000
0002
0000
0000
0000
0000
0000
0000
0000
0000
0000
0000
0000
0000
0000
0000
0000
0000
0000
0000
0000
0000
0000
0000
0003
0032
0000
0000
0000
0000
0000
0000
0000
0000
0000
0000
0000
0000
0000
0000
0000
0000
0000
0000
0000
0000
0000
0000
0000
2000
0000
0000
0000
0000
0000
0000
0000
0000
0000
0000
0000
0000
0000
0000
0000
0000
0000
0000
0000
0000
0000
0000
3000
2000
0000
0000
0000
0000
0000
0000
0000
0000
0000
0000
0000
0000
0000
0000
0000
0000
0000
0000
0000
0000
0000
0000
3000
,
1003
0000
0000
0000
0000
0000
0000
0000
0000
0000
0000
0000
0000
0000
0000
0000
0000
0000
0000
0000
0000
0000
0000
0000
0010
0000
0000
0000
0000
0000
0000
0000
0000
0000
0000
0000
0000
0000
0000
0000
0000
0000
0000
0000
0000
0000
0000
0000
0100
0000
0000
0000
0000
0000
0000
0000
0000
0000
0000
0000
0000
0000
0000
0000
0000
0000
0000
0000
0000
0000
0000
0000
0020
0000
0000
0000
0000
0000
0000
0000
0000
0000
0000
0000
0000
0000
0000
0000
0000
0000
0000
0000
0000
0000
0000
0000
2000
0000
0000
0000
0000
0000
0000
0000
0000
0000
0000
0000
0000
0000
0000
0000
0000
0000
0000
0000
0000
0000
0000
3000
2030
0000
0000
0000
0000
0000
0000
0000
0000
0000
0000
0000
0000
0000
0000
0000
0000
0000
0000
0000
0000
0000
0000
0000
0002
0000
0000
0000
0000
0000
0000
0000
0000
0000
0000
0000
0000
0000
0000
0000
0000
0000
0000
0000
0000
0000
0000
0003
0002
0000
0000
0000
0000
0000
0000
0000
0000
0000
0000
0000
0000
0000
0000
0000
0000
0000
0000
0000
0000
0000
0000
0003
,
3001
0000
0000
0000
0000
0000
0000
0000
0000
0000
0000
0000
0000
0000
0000
0000
0000
0000
0000
0000
0000
0000
0000
0000
0010
0000
0000
0000
0000
0000
0000
0000
0000
0000
0000
0000
0000
0000
0000
0000
0000
0000
0000
0000
0000
0000
0000
0000
0200
0000
0000
0000
0000
0000
0000
0000
0000
0000
0000
0000
0000
0000
0000
0000
0000
0000
0000
0000
0000
0000
0000
0000
2000
0000
0000
0000
0000
0000
0000
0000
0000
0000
0000
0000
0000
0000
0000
0000
0000
0000
0000
0000
0000
0000
0000
3000
2300
0000
0000
0000
0000
0000
0000
0000
0000
0000
0000
0000
0000
0000
0000
0000
0000
0000
0000
0000
0000
0000
0000
0000
0020
0000
0000
0000
0000
0000
0000
0000
0000
0000
0000
0000
0000
0000
0000
0000
0000
0000
0000
0000
0000
0000
0000
0030
3020
0000
0000
0000
0000
0000
0000
0000
0000
0000
0000
0000
0000
0000
0000
0000
0000
0000
0000
0000
0000
0000
0000
0000
0100
0000
0000
0000
0000
0000
0000
0000
0000
0000
0000
0000
0000
0000
0000
0000
0000
0000
0000
0000
0000
0000
0000
0000
,
1030
0100
0001
0100
0001
0100
1000
0010
,
2000
0000
0000
0000
0000
0000
0000
0000
0000
0000
0000
0000
0000
0000
0000
0000
0000
0000
0000
0000
0000
0000
0000
0000
0200
0000
0000
0000
0000
0000
0000
0000
0000
0000
0000
0000
0000
0000
0000
0000
0000
0000
0000
0000
0000
0000
0000
3000
2000
0000
0000
0000
0000
0000
0000
0000
0000
0000
0000
0000
0000
0000
0000
0000
0000
0000
0000
0000
0000
0000
0000
0300
3200
0000
0000
0000
0000
0000
0000
0000
0000
0000
0000
0000
0000
0000
0000
0000
0000
0000
0000
0000
0000
0000
0000
0000
0320
0000
0000
0000
0000
0000
0000
0000
0000
0000
0000
0000
0000
0000
0000
0000
0000
0000
0000
0000
0000
0000
0000
0000
0002
0000
0000
0000
0000
0000
0000
0000
0000
0000
0000
0000
0000
0000
0000
0000
0000
0000
0000
0000
0000
0000
0000
0003
0032
0000
0000
0000
0000
0000
0000
0000
0000
0000
0000
0000
0000
0000
0000
0000
0000
0000
0000
0000
0000
0000
0000
0000
2000
0000
0000
0000
0000
0000
0000
0000
0000
0000
0000
0000
0000
0000
0000
0000
0000
0000
0000
0000
0000
0000
0000
3000
,
2003
0000
0000
0000
0000
0000
0000
0000
0000
0000
0000
0000
0000
0000
0000
0000
0000
0000
0000
0000
0000
0000
0000
0000
0200
0000
0000
0000
0000
0000
0000
0000
0000
0000
0000
0000
0000
0000
0000
0000
0000
0000
0000
0000
0000
0000
0000
3000
2000
0000
0000
0000
0000
0000
0000
0000
0000
0000
0000
0000
0000
0000
0000
0000
0000
0000
0000
0000
0000
0000
0000
0300
3200
0000
0000
0000
0000
0000
0000
0000
0000
0000
0000
0000
0000
0000
0000
0000
0000
0000
0000
0000
0000
0000
0000
0000
0020
0000
0000
0000
0000
0000
0000
0000
0000
0000
0000
0000
0000
0000
0000
0000
0000
0000
0000
0000
0000
0000
0000
0030
0320
0000
0000
0000
0000
0000
0000
0000
0000
0000
0000
0000
0000
0000
0000
0000
0000
0000
0000
0000
0000
0000
0000
0000
0002
0000
0000
0000
0000
0000
0000
0000
0000
0000
0000
0000
0000
0000
0000
0000
0000
0000
0000
0000
0000
0000
0000
0003
0032
0000
0000
0000
0000
0000
0000
0000
0000
0000
0000
0000
0000
0000
0000
0000
0000
0000
0000
0000
0000
0000
0000
0000
,
1003
0010
1000
0010
0100
0001
0100
0001
,
1000
0000
0000
0000
0000
0000
0000
0000
0000
0000
0000
0000
0000
0000
0000
0000
0000
0000
0000
0000
0000
0000
0000
0000
0100
0000
0000
0000
0000
0000
0000
0000
0000
0000
0000
0000
0000
0000
0000
0000
0000
0000
0000
0000
0000
0000
0000
0000
1000
0000
0000
0000
0000
0000
0000
0000
0000
0000
0000
0000
0000
0000
0000
0000
0000
0000
0000
0000
0000
0000
0000
0000
0M20
0000
0000
0000
0000
0000
0000
0000
0000
0000
0000
0000
0000
0000
0000
0000
0000
0000
0000
0000
0000
0000
0000
0000
0000
0000
0000
0000
0000
0000
0000
0000
0000
0000
0000
0000
0000
0000
0000
0000
0000
0000
0000
0000
0000
0000
0000
0000
M002
0000
0000
0000
0000
0000
0000
0000
0000
0000
0000
0000
0000
0000
0000
0000
0000
0000
0000
0000
0000
0000
0000
0030
0M20
0000
0000
0000
0000
0000
0000
0000
0000
0000
0000
0000
0000
0000
0000
0000
0000
0000
0000
0000
0000
0000
0000
0000
0003
0000
0000
0000
0000
0000
0000
0000
0000
0000
0000
0000
0000
0000
0000
0000
0000
0000
0000
0000
0000
0000
0000
0000
,
1030
0001
0100
0010
1000
0001
0100
0010
1000
0001
0100
0010
1000
0001
0100
0010
,
1000
0001
0010
0100
1000
0001
0010
0100
1000
0001
0010
0100
1000
0001
1000
0010
,
0100
0001
1000
0100
0010
0001
1000
0010
0100
0001
1000
0100
0010
0001
1000
0010
,
0100
0001
1000
0100
0010
0100
1000
0001
0010
0100
1000
0001
1000
0100
0010
0001
,
1000
0001
0100
0010
1000
0001
0100
0010
1000
0001
0100
0010
1000
0001
0100
0010
,
1000
0001
0010
0100
1000
0001
0010
0100
1000
0001
0010
0100
1000
0001
1000
0010
,
0100
0001
1000
0100
0010
0001
1000
0010
0100
0001
1000
0100
0010
0001
1000
0010
,
0100
0001
1000
0100
0010
0100
1000
0001
0010
0100
1000
0001
1000
0100
0010
0001
,
0000
0000
1000
0000
1000
0000
0000
1000
0000
0000
2000
0000
0000
0000
3010
0000
,
00M0
0000
0001
0000
0001
0000
0000
0001
0000
0000
0002
0000
0000
0000
0013
0000
,
00M0
0000
1000
0000
1000
0000
0000
1000
0000
0000
2000
0000
0000
0000
3100
0000
,
0M00
0000
0001
0000
0001
0000
0000
0001
0000
0000
0002
0000
0000
0000
0103
0000
,
0M00
0000
0010
0000
0001
0000
0000
1000
0000
0000
2M20
3030
0000
0000
02M2
0303
,
1000
0010
1000
0100
0010
0001
0100
0001
,
0010
0100
1000
0010
0100
0001
0100
0010
,
1000
0100
1000
0100
0010
0100
0010
0100
,
0010
0001
0010
0001
1000
0001
0100
0010
,
1000
0100
0020
0001
0032
0100
0203
0010
,
0301
0100
0020
1000
2030
0100
3200
0010
,
1300
0100
0001
0100
1000
0010
0100
0010
,
0001
0000
0000
0000
0000
0000
0000
0000
0000
0000
0000
0000
0000
0000
0000
0000
0000
0000
0000
0000
0000
0000
0000
0000
0010
0000
0000
0000
0000
0000
0000
0000
0000
0000
0000
0000
0000
0000
0000
0000
0000
0000
0000
0000
0000
0000
0000
0000
1000
0000
0000
0000
0000
0000
0000
0000
0000
0000
0000
0000
0000
0000
0000
0000
0000
0000
0000
0000
0000
0000
0000
0000
02M0
0000
0000
0000
0000
0000
0000
0000
0000
0000
0000
0000
0000
0000
0000
0000
0000
0000
0000
0000
0000
0000
0000
0000
0000
0000
0000
0000
0000
0000
0000
0000
0000
0000
0000
0000
0000
0000
0000
0000
0000
0000
0000
0000
0000
0000
0000
0000
M002
0000
0000
0000
0000
0000
0000
0000
0000
0000
0000
0000
0000
0000
0000
0000
0000
0000
0000
0000
0000
0000
0000
0300
02M0
0000
0000
0000
0000
0000
0000
0000
0000
0000
0000
0000
0000
0000
0000
0000
0000
0000
0000
0000
0000
0000
0000
0000
0003
0000
0000
0000
0000
0000
0000
0000
0000
0000
0000
0000
0000
0000
0000
0000
0000
0000
0000
0000
0000
0000
0000
0000
,
1300
00M0
0M00
000M
,
0010
0M00
M000
000M
,
0100
00M0
M000
0M00
,
0001
00M0
0M00
M000
,
1000
0100
0010
0100
1000
0100
0010
0100
1000
0100
0010
0100
1000
0100
0010
0100
,
0010
0001
0010
0100
0010
0001
0010
0100
0010
0001
0010
0100
0010
0001
0010
0100
,
1000
0001
0100
0010
1000
0001
0100
0010
1000
0001
0100
0010
1000
0001
0100
0010
,
1000
0100
0010
0001
1000
0100
0010
0001
1000
0100
0010
0001
1000
0100
0010
0001
,
1000
0100
0010
0100
1000
0001
0100
0010
1000
0100
0010
0100
1000
0001
0100
0010
,
1000
0100
0010
0001
1000
0100
0010
0100
1000
0100
0010
0001
1000
0100
0010
0100
,
1000
0010
0100
0001
0010
0100
0010
0100
1000
0010
0100
0001
0010
0100
0010
0100
,
1000
0100
1000
0001
0010
0001
1000
0010
1000
0001
0100
0001
1000
0100
1000
0001
,
1000
0100
0010
0100
1000
0001
0010
0100
1000
0100
0010
0100
1000
0001
0010
0100
,
0010
0001
1000
0001
0100
0010
1000
0001
1000
0100
0010
0100
1000
0001
1000
0010
,
0100
0001
1000
0100
0010
0001
1000
0010
0100
0001
0100
0001
1000
0100
1000
0100
,
0010
0001
0010
0100
1000
0001
1000
0100
0010
0001
1000
0001
0100
0010
1000
0001
,
1000
0100
0010
0100
0010
0001
1000
0001
1000
0100
0010
0100
1000
0010
0100
0001
,
0100
0010
1000
0001
1000
0010
0100
0001
0010
0001
1000
0100
0010
0001
0010
0100
,
1000
0010
0100
0001
1000
0010
0100
0001
1000
0100
1000
0100
0010
0001
0010
0001
,
1000
0010
0100
0001
1000
0100
0010
0001
0010
0100
1000
0001
0100
0010
1000
0001
,
1000
00M0
0M00
000M
2200
330M
00M0
0M00
,
0001
M000
0M00
00M0
0202
03M3
M000
000M
,
0010
M000
000M
0M00
2020
3M30
000M
M000
,
0100
00M0
M000
000M
0022
M033
0M00
00M0
,
2000
3000
0100
0000
0010
0000
0001
0000
2000
3000
0011
0000
0000
0000
0011
0000
,
2000
3000
0010
0000
0100
0000
0001
0000
2000
3000
0010
0000
0100
0000
0001
0000
,
2000
3000
0100
0000
0010
0000
0100
0000
2000
3000
0100
0000
0010
0000
0100
0000
,
2000
3000
0001
0000
1000
0000
0001
0000
0200
0300
0010
0000
0100
0000
0010
0000
,
2002
0000
0000
0000
0000
0000
3003
M00M
,
1000
0100
0010
0100
0010
0001
0100
0001
1000
0100
0010
0100
0010
0001
0100
0001
,
1000
0010
0100
0001
0010
0001
1000
0001
1000
0010
0100
0001
0010
0001
1000
0001
,
1000
0100
0010
0100
0010
0001
0100
0010
1000
0100
0010
0100
0010
0001
0100
0010
,
1000
0100
1000
0010
0100
0001
0010
0001
1000
0100
1000
0010
0100
0001
0010
0001
,
1000
0100
0010
0100
0010
0001
0100
0001
1000
0100
0010
0100
0010
0001
0100
0001
,
1000
0010
0100
0001
0010
0001
1000
0001
1000
0010
0100
0001
0010
0001
1000
0001
,
1000
0100
0010
0100
0010
0001
0100
0010
1000
0100
0010
0100
0010
0001
0100
0010
,
1000
0100
1000
0010
0100
0001
0010
0001
1000
0100
1000
0010
0100
0001
0010
0001
,
1000
0010
0100
0010
0100
0001
0010
0001
1000
0010
0100
0010
0100
0001
0010
0001
,
1000
0100
0010
0001
0100
0001
1000
0001
1000
0100
0010
0001
0100
0001
1000
0001
,
1000
0010
0100
0010
0100
0001
0010
0100
1000
0010
0100
0010
0100
0001
0010
0100
,
1000
0010
1000
0100
0010
0001
0100
0001
1000
0010
1000
0100
0010
0001
0100
0001
,
1000
0010
0100
0010
0100
0001
0010
0001
1000
0010
0100
0010
0100
0001
0010
0001
,
1000
0100
0010
0001
0100
0001
1000
0001
1000
0100
0010
0001
0100
0001
1000
0001
,
1000
0010
0100
0010
0100
0001
0010
0100
1000
0010
0100
0010
0100
0001
0010
0100
,
1000
0010
1000
0100
0010
0001
0100
0001
1000
0010
1000
0100
0010
0001
0100
0001
,
1000
0100
0001
0100
1000
0100
0001
0100
,
1000
0010
0001
0010
1000
0010
0001
0010
,
1000
0100
0010
0100
1000
0100
0010
0100
,
1000
0010
0100
0001
1000
0010
0100
0002
,
0020
0000
0000
0000
0000
0000
0000
0033
;
