#TITLE:Equestria Girls;
#SUBTITLE:;
#ARTIST:Pinkie Pie;
#TITLETRANSLIT:;
#SUBTITLETRANSLIT:;
#ARTISTTRANSLIT:;
#CREDIT:;
#BANNER:banner.png;
#BACKGROUND:background.PNG;
#LYRICSPATH:Lyrics.lrc;
#CDTITLE:;
#MUSIC:Pinkie Pie - Equestria Girls.mp3;
#OFFSET:1.200;
#SAMPLESTART:50.590;
#SAMPLELENGTH:15.300;
#SELECTABLE:YES;
#BPMS:0.000=125.000;
#STOPS:;
#BGCHANGES:1.750=My Little Pony Friendship is Magic - Equestria Girls .avi=1.000=1=0=1,
191.000=background.PNG=1.000=1=0=1,
99999=-nosongbg-=1.000=0=0=0 // don't automatically add -songbackground-
;

//---------------dance-single - ----------------
#NOTES:
     dance-single:
     :
     Easy:
     4:
     0.228,0.233,0.022,0.078,0.000:
0000
0000
0000
0000
,
0000
0000
0000
0000
,
0000
0000
0000
0000
,
1000
0100
1000
0010
,
1000
0000
0100
0000
,
0001
0100
0001
0010
,
0001
0000
0100
0000
,
0010
1000
0100
1000
,
0010
0000
0100
0000
,
0010
0001
0100
0001
,
0010
0000
0100
0000
,
1000
0001
0100
0000
,
0001
1000
0100
0000
,
0010
0001
1000
0000
,
0010
1000
0001
0000
,
0100
0010
1000
0001
,
0100
0000
0010
0000
,
0100
0001
1000
0010
,
0100
0000
0001
0000
,
2000
0100
0000
3100
,
0002
0100
0000
0103
,
0020
1000
0000
1030
,
0200
0001
0000
0301
,
0001
0100
0020
0000
,
1030
0100
2000
0000
,
3010
0100
0002
0000
,
1003
0001
1000
1001
,
0010
0100
0001
0000
,
1000
0001
0100
0000
,
0010
1000
0100
0000
,
1000
0001
0100
0000
,
0010
1000
0100
0000
,
0010
0001
0100
0000
,
0001
1000
0001
1000
,
0010
0100
0010
0100
,
1000
0001
0100
0000
,
0010
0100
0001
0000
,
1000
0010
0001
0000
,
0010
0100
0001
0000
,
1000
0010
0001
0000
,
1000
0100
0001
0000
,
0100
0010
0100
0010
,
1000
0001
1000
0001
,
1001
0000
0010
0000
,
0100
0000
0010
1000
,
0001
0000
0100
0000
,
0010
0000
1000
0001
;

//---------------dance-single - ----------------
#NOTES:
     dance-single:
     :
     Medium:
     5:
     0.285,0.312,0.022,0.000,0.000:
0000
0000
0000
0000
,
0000
0000
0000
0000
,
0000
0000
0000
0000
,
1000
0000
0100
0000
0000
1000
0100
0000
,
0010
0000
0001
0000
0000
0010
0001
0000
,
0100
0010
1000
0001
,
0010
0000
0000
0100
0000
0000
0010
0000
,
0001
0000
0100
0000
0000
0001
0100
0000
,
0010
0000
1000
0000
0000
0010
1000
0000
,
0010
0100
0001
1000
,
0100
0000
0000
0010
0000
0000
0100
0000
,
0010
0000
0001
0000
0000
0010
0001
0000
,
1000
0000
0100
0000
0000
1000
0100
0000
,
0001
1000
0010
0100
,
1000
0000
0001
1000
0001
0000
1000
0000
,
0100
0000
0001
0000
0000
0100
0001
0000
,
1000
0000
0010
0000
0000
1000
0010
0000
,
1000
0001
0100
0010
,
0001
0000
1000
0001
1000
0000
0001
0000
,
1000
0000
0001
0000
0100
0000
0000
0010
,
0000
1000
0000
0001
0000
0000
0000
0000
,
0100
0001
1000
0100
,
1000
0001
0010
0000
,
0100
0000
1000
0000
0001
0000
0000
0100
,
0000
0001
0000
1000
0000
0000
0100
0000
,
1000
0000
0010
0000
0100
0000
0000
0001
,
0000
1000
0000
0001
0000
1000
0001
0000
,
1000
0000
0001
0000
0100
0000
0000
0010
,
0000
1000
0010
0100
,
0001
0000
1000
0000
0100
0000
0000
1000
,
0000
0001
0100
0110
,
0010
0000
1000
0000
0001
0000
0000
0100
,
0000
0010
1000
0010
,
0000
0100
0001
0100
0001
0100
0000
0001
,
0000
1000
0010
1000
0010
1000
0010
0000
,
0001
0000
0010
0000
1000
0000
0000
0100
,
0000
0001
0100
1000
,
0010
0000
0001
0000
1000
0000
0000
0001
,
0000
0010
1000
1100
,
0100
0000
0001
0000
0010
0000
0000
1000
,
0000
0100
0001
0100
,
0000
1000
0010
1000
0010
1000
0000
0010
,
0000
0001
0100
0001
0100
0001
0100
0000
,
0001
0000
0010
0000
1000
0100
0001
0100
,
0000
0010
1000
0100
,
1000
0000
0001
0000
0100
0010
1000
0000
,
0010
0000
0100
0000
0001
1000
0100
0000
,
0010
0000
0000
0000
;

//---------------dance-single - ----------------
#NOTES:
     dance-single:
     :
     Hard:
     7:
     0.391,0.362,0.044,0.000,0.000:
0000
0000
0000
0000
,
0000
0000
0000
0000
,
0000
0000
0000
0000
,
1000
0000
0001
0000
0000
1000
0001
0100
,
0010
0000
0100
0000
0000
0100
0010
1000
,
0001
0010
0100
1000
0010
0000
0100
0000
,
0001
0000
0100
1000
0000
0010
0100
0001
,
1000
0000
0100
0000
0000
0100
1000
0100
,
0010
0000
0001
0000
0100
0001
0100
0000
,
0010
1000
0010
0100
0001
0000
0100
0000
,
0001
0000
0100
0000
1000
0010
1000
0000
,
0010
0000
0100
0000
0001
0100
0001
1000
,
0100
0000
0010
0000
1000
0010
1000
0001
,
0100
0000
1000
0000
0010
0100
0010
0000
,
1000
0000
0001
0000
1000
0001
0100
0010
,
1000
0000
0010
0000
0100
0001
0100
0000
,
1000
0000
0010
0000
0100
0010
0100
0000
,
0001
0000
0010
0000
0100
1000
0100
0000
,
0010
0000
0001
0000
0100
0001
0100
0001
,
1000
0000
0001
0010
0001
1000
0100
1000
,
0000
0010
0000
0100
0001
0100
0001
0000
,
0100
0000
1000
0000
0010
1000
0001
0100
,
0000
0010
0000
1000
0010
1000
0010
0000
,
1000
0000
0001
0000
1000
0010
0100
0001
,
0000
0100
0000
0010
1000
0010
1000
0000
,
0010
1000
0100
0000
0001
0000
0010
1000
,
0000
0001
0100
0010
1000
0010
0100
0000
,
0001
0000
1000
0000
0100
0000
0010
0001
,
0000
0001
0010
0100
1000
0100
1000
0000
,
0001
0000
0010
0000
0100
0000
1000
0100
,
0000
0100
1000
0000
0010
0000
0110
0000
,
0001
0000
0100
0000
0010
0000
1000
0010
,
0000
0100
0001
1000
0010
0000
0100
0000
,
0010
1000
0100
0010
0100
1000
0000
0100
,
0000
0010
0001
0100
0001
1000
0001
0000
,
1000
0000
0001
0000
1000
0000
0100
0010
,
0000
0010
0100
0010
1000
0100
0001
0000
,
0010
0000
0100
0000
1000
0000
0001
1000
,
0000
1000
0001
0000
0100
0000
0110
0000
,
0010
1000
0100
0000
0010
0000
0001
0100
,
0000
1000
0010
0100
0001
0000
1001
0000
,
0000
0001
0010
0100
0010
0001
0000
1000
,
0000
0100
0010
0001
0010
0100
1000
0000
,
1001
0000
0001
0000
0100
1000
0100
0010
,
0001
0000
0010
0000
0100
1000
0001
0000
,
0100
0001
1000
0000
1000
0001
0100
0000
,
0001
0010
0100
1000
0010
0100
0001
0000
;
