#TITLE:カゲロウ;
#SUBTITLE:Dragonfly special;
#ARTIST:Des-ROW・組スペシアルr;
#TITLETRANSLIT:KAGEROW(Dragonfly);
#SUBTITLETRANSLIT:;
#ARTISTTRANSLIT:Des-ROW・UNITED special+r;
#CREDIT:dominator;
#BANNER:KAGEROW (Dragonfly).png;
#BACKGROUND:KAGEROW (Dragonfly)-bg.png;
#LYRICSPATH:;
#CDTITLE:./CDTITLES/Pop'n Music.png;
#MUSIC:KAGEROW (Dragonfly).mp3;
#OFFSET:-0.062;
#SAMPLESTART:36.485;
#SAMPLELENGTH:15.000;
#SELECTABLE:YES;
#DISPLAYBPM:164.000;
#BPMS:0.000=164.510;
#STOPS:;
#BGCHANGES:;

//---------------dance-double - ----------------
#NOTES:
     dance-double:
     :
     Easy:
     3:
     0.203,0.236,0.010,0.031,0.000:
00000000
00000000
00000000
00000000
,
00000000
00000000
00000000
00000000
,
00000000
00000000
00000000
00000000
,
00000000
00000000
00000000
00000000
,
00000000
00000000
00000000
00000000
,
00010000
00000000
00100000
00000000
,
01000000
00000000
10000000
00000000
,
01000000
00000000
00010000
00000000
,
00002000
00000000
00000000
00003000
,
00000100
00000000
00000001
00000000
,
00000010
00000010
00000001
00000000
,
00000100
00000000
00001000
00000000
,
00010000
00010000
01000000
00000000
,
10000000
00000000
01000000
00000000
,
10000000
00000000
00100000
00000000
,
10000000
10000000
00010000
00010000
,
01000000
00001000
00010000
00000000
,
00000100
00000000
00000100
00000000
,
00001000
00001000
00000010
00000000
,
00000001
00000000
00000100
00000000
,
00001000
00001000
00010000
00000000
,
00001000
00000000
00010000
00000000
,
00100000
00000000
01000000
00000000
,
10000000
10000000
00010000
00010000
,
10000000
00010000
10000000
00000000
,
10000000
00000000
01000000
00000000
,
00010000
00000000
00001000
00000000
,
00000100
00000000
00000001
00000000
,
00000001
00000001
00000001
00000000
,
00000001
00000000
00000100
00000000
,
00001000
00000000
00010000
00000000
,
00100000
00000000
10000000
00000000
,
02000000
00000000
00000000
03000000
,
10000000
10000000
00100000
00000000
,
01000000
01000000
00010000
00000000
,
10000000
00000000
00010000
00000000
,
00100000
01000000
00100000
00000000
,
00010000
00010000
00010000
00000000
,
00001000
00001000
00001000
00000000
,
00000010
00000000
00000100
00000000
,
00000001
00000001
00000001
00000000
,
00000100
00000000
00000010
00000000
,
00010000
00000000
00001000
00000000
,
01000000
00000000
00010000
00000000
,
10000000
00000000
01000000
00000000
,
00100000
00000000
10000000
00000000
,
01000000
00000000
00010000
00000000
,
00001000
00000000
00000010
00000000
,
00000100
00000000
00000010
00000000
,
00001000
00000000
00000001
00000000
,
00000010
00000000
00001000
00000000
,
00010000
00000000
00100000
00000000
,
10000000
00000000
00010000
00000000
,
01000000
00000000
00100000
00000000
,
10000000
00000000
01000000
00000000
,
00010000
00000000
00001000
00000000
,
00000100
00000000
00000001
00000000
,
00002000
00000000
00000000
00000000
,
00000000
00000000
00000000
00003000
,
00000010
00000000
00000100
00000000
,
00000001
00000000
00000010
00000000
,
00001000
00000000
00010000
00000000
,
00100000
00000000
10000000
00000000
,
00010000
00000000
00100000
00000000
,
01000000
00000000
10000000
00000000
,
00100000
00000000
01000000
00000000
,
10010000
00000000
00000000
00000000
;

//---------------dance-double - ----------------
#NOTES:
     dance-double:
     :
     Medium:
     4:
     0.359,0.438,0.265,0.041,0.000:
00000000
00000000
00000000
00000000
,
00000000
00000000
00000000
00000000
,
00000000
00000000
00000000
00000000
,
00000000
00000000
00000000
00000000
,
00000000
00000000
00000000
00000000
,
01000000
00010000
00100000
00000000
,
10000000
00100000
00010000
00000000
,
10000000
00100000
01000000
00010000
,
00022000
00000000
00033000
00011000
,
00001000
00000100
00000001
00000000
,
00001000
00000100
00000010
00000000
,
00000100
00000001
00000010
00000000
,
00001000
00000100
00000001
00001001
,
00000100
00001000
00010000
00000000
,
01000000
10000000
00100000
00010000
,
10010000
10010000
01100000
10010000
,
00100000
10000000
01000000
10010000
,
01000000
10000000
00100000
00010000
,
00001000
00000010
00001000
00000000
,
00000010
00000100
00001000
00000001
,
00001000
00000010
00000001
00000000
,
00000010
00000001
00000010
00000100
,
00001000
00000010
00000100
00000000
,
00000110
00000110
00001001
00000110
,
00000001
00000100
00001000
00011000
,
00010000
01000000
10000000
00100000
,
00010000
10000000
01000000
00100000
,
01000000
00010000
10000000
00100000
,
01000000
00100000
00010000
00000000
,
00001000
00000100
00000001
00000010
,
00001000
00000001
00000010
00000100
,
00000010
00001000
00000001
00000010
,
00000200
00000000
00000000
00000310
,
00000001
00000100
00001000
00011000
,
01000000
10000000
00100000
10010000
,
01000000
10000000
00010000
01100000
,
10000000
00100000
00010000
00011000
,
00000100
00000010
00001000
00000110
,
00000100
00000001
00000010
00001001
,
00000010
00001000
00000100
00000010
,
00000001
00001000
00000010
00001001
,
00000100
00000001
00000100
00000000
,
00001000
00010000
00100000
10000000
,
00010000
01000000
10000000
00000000
,
00100000
01000000
00010000
00100000
,
10000000
00010000
01000000
00000000
,
10000000
00100000
00010000
00001000
,
00010000
00001000
00000100
00000000
,
00000001
00000010
00000100
00001001
,
00000010
00000001
00000100
00000000
,
00000001
00001000
00000010
00001001
,
00000100
00001000
00010000
00000000
,
00010000
00100000
10000000
01100000
,
01000000
00010000
10000000
00000000
,
00010000
00100000
10000000
10010000
,
00100000
00010000
01000000
00000000
,
00100000
10000000
01000000
00010000
,
00002000
00000000
00000000
00000000
,
00000000
00000000
00000000
00003000
,
00000010
00000100
00000010
00001000
,
00000001
00000100
00000010
00000001
,
00000100
00000001
00000010
00000001
,
00001000
00000100
00000001
00001001
,
00000010
00001000
00010000
00100000
,
01000000
10000000
01000000
00010000
,
00100000
10000000
00010000
01000000
,
10010000
00000000
00000000
00000000
;

//---------------dance-double - ----------------
#NOTES:
     dance-double:
     :
     Hard:
     8:
     0.436,0.472,0.204,0.041,0.000:
00000000
00000000
00000000
00000000
,
00000000
00000000
00000000
00000000
,
00000000
00000000
00000000
00000000
,
00000000
00000000
00000000
00000000
,
00000000
00000000
00000000
00000000
,
00000000
00000100
00000001
00001000
00000000
00000010
00010000
00001000
,
00000000
00100000
00010000
10000000
00000000
01000000
00010000
00001000
,
00000000
00000100
00000001
00001000
00000000
00000100
00000010
00000000
,
00000002
00000000
00000003
00001001
,
00000100
00000000
00010000
00000000
00001000
00100000
00000000
00010000
,
00000000
10000000
00000000
01000000
00100000
00000000
00010000
00000000
,
01000000
00000000
00001000
00000000
00100000
00010000
00000000
10000000
,
00000000
01000000
00000000
00010000
00001000
00000000
00011000
00000000
,
00000100
00000000
00001000
00000000
00000001
00000010
00000000
00000100
,
00000000
00000010
00000000
00001000
00010000
00000000
00100000
00000000
,
10010000
01001000
00011000
00010010
,
00001000
00000001
00000100
00000010
00000000
00010000
00001000
00000000
,
00100000
00000000
00010000
00000000
10000000
01000000
00000000
00010000
,
00000000
00001000
00000000
00000100
00000001
00000000
00001100
00000000
,
00000001
00000000
00000100
00000000
00001000
00010000
00000000
00000010
,
00000000
00000100
00000000
00000001
00001000
00000000
00000100
00000000
,
00010000
00000000
00001000
00000000
00100000
00010000
00000000
10000000
,
00000000
00100000
00000000
01000000
00010000
00000000
11000000
00000000
,
00110000
00011000
00001100
00000101
,
00000010
00001000
00000100
00010000
00000000
00001000
00000100
00000000
,
00000001
00001000
00000000
00000100
00000010
00000000
00001001
00000000
,
00000100
00010000
00000000
00001000
00100000
00000000
10010000
00000000
,
01000000
00001000
00000000
00010000
00000100
00000000
00000010
00000001
,
00000000
00001000
00000010
00000000
00000100
00000000
00001001
00000000
,
00000100
00010000
00000000
00001000
00100000
00000000
10010000
00000000
,
01000000
00001000
00000000
00010000
00000010
00000000
00001001
00000000
,
00000100
00010000
00000000
00001000
00100000
00000000
00010000
10000000
,
02000000
00000000
00000000
03100000
,
00010000
00000000
00000000
10000000
00100000
10000000
01000000
00000000
,
00010000
00000000
00000000
00001000
00000100
00000001
00000100
00000000
,
00000010
00010000
00000000
00001000
01000000
00000000
00010000
10000000
,
00000000
01000000
00100000
00000000
00010000
00000000
11000000
00000000
,
00010000
00000000
00000000
00001000
00000100
00001000
00010000
00000000
,
01000000
00000000
00000000
10000000
00100000
10000000
00010000
00000000
,
01000000
00001000
00000000
00010000
01000000
00000000
10000000
00100000
,
00000000
00100000
00010000
00000000
00001000
00000000
00001010
00000000
,
00000100
00000000
00000000
00000001
00000010
00000000
00000000
00000100
,
00000000
00010000
00000000
00001000
01000000
00000000
10000000
00000000
,
00010000
00000000
01000000
00100000
00010000
00000000
00000000
00001000
,
00000000
00000010
00000000
00000001
00001000
00000000
00000100
00010000
,
00001000
00000000
00000000
00000010
00000001
00000000
00000000
00000100
,
00000000
00001000
00000000
00010000
01000000
00000000
10000000
00000000
,
00010000
00000000
00000000
01000000
00100000
00000000
00000000
00010000
,
00000000
00001000
00000000
00000010
00000001
00000000
00001100
00000000
,
00010000
00000000
00000000
00001000
00100000
00000000
00000000
01000000
,
00000000
10000000
00000000
00010000
01000000
00000000
00001000
00010000
,
00000010
00000000
00000000
00001000
00000100
00000000
00000000
00010000
,
00000000
00001000
00000000
00000100
00000001
00000000
00001000
00000100
,
00010000
00000000
00000000
00001000
00100000
00000000
00000000
01000000
,
00000000
10000000
00000000
00010000
01000000
00000000
00001000
00010000
,
01000000
00000000
00000000
00010000
00001000
00000000
00000000
00000100
,
00000000
00000001
00000000
00000010
00000000
00000100
00000000
00020000
,
00002000
00000000
00000000
00000000
,
00000000
00000000
00000000
00033000
,
00100000
00000000
01000000
00000000
10000000
00100000
00000000
01000000
,
00000000
00010000
00000000
10000000
01000000
00000000
00100000
00000000
,
00010000
00000000
10000000
00000000
01000000
00010000
00000000
00001000
,
00000000
00000100
00000000
00000001
00000010
00000000
00000100
00000000
,
00010000
00000000
00001000
00000000
00100000
00010000
00000000
01000000
,
00000000
00001000
00000000
00010000
00000010
00000000
00001000
00000000
,
00000100
00000000
00000010
00000001
00000100
00000000
00001000
00010000
,
01000000
00000000
00000000
00000000
;

//---------------dance-single - it's chaotic----------------
#NOTES:
     dance-single:
     it's chaotic:
     Challenge:
     9:
     0.671,0.819,0.112,0.235,0.362: // measure 1
0000
0000
0000
0000
,  // measure 2
0000
0000
0000
0000
,  // measure 3
0000
0000
0000
0000
,  // measure 4
0000
0000
0000
0000
,  // measure 5
0000
0000
0000
0000
,  // measure 6
0001
0010
0100
1000
1000
0010
0100
0001
,  // measure 7
0010
0200
0000
0320
0000
0000
0030
0000
,  // measure 8
0001
0010
0100
0010
0001
0100
0010
1000
,  // measure 9
0100
0020
0000
0032
0000
0003
0000
0100
,  // measure 10
0010
1000
0001
0010
0100
1000
0010
0100
,  // measure 11
0001
0010
0100
0020
0000
0030
0000
0001
,  // measure 12
0100
0001
0010
0100
0000
0100
0001
0100
,  // measure 13
0010
0001
0100
0100
0000
0000
0010
1000
,  // measure 14
0001
0100
0010
0100
0001
0010
0100
0100
,  // measure 15
0010
0001
0100
0020
0000
1000
1030
0100
,  // measure 16
0020
0000
0032
0000
1003
0010
0100
0100
,  // measure 17
0001
1000
0100
0010
0000
0000
0001
0000
,  // measure 18
1000
0010
0100
1000
0000
0100
0010
1000
,  // measure 19
0100
0001
0100
0010
0000
0000
0100
1000
,  // measure 20
0001
0001
0100
0010
1000
0010
0001
0010
,  // measure 21
1000
0100
0010
0001
0000
0000
1000
0100
,  // measure 22
0010
0010
0001
0100
1000
0100
0001
0020
,  // measure 23
0000
0100
0000
0130
0000
0000
0000
2000
,  // measure 24
0001
0000
3001
0000
0100
0010
1000
0000
,  // measure 25
0001
1000
0100
0010
0000
0000
0011
0000
,  // measure 26
0010
0001
0010
0000
0100
0000
1000
0000
0001
1000
0001
0000
0010
0000
0001
0000
,  // measure 27
1000
0001
1000
0000
0010
0100
0001
0000
1000
0001
0100
0001
1000
0000
0100
0000
,  // measure 28
0020
0000
1030
0010
0001
0100
0000
0100
,  // measure 29
0010
0000
1000
0000
0100
0010
0001
1000
0001
0000
0000
0000
0010
0000
0100
0000
,  // measure 30
1000
0010
0000
0010
0100
0000
0001
0000
1000
0100
0000
0100
0010
0000
0001
0000
,  // measure 31
1000
0001
0010
0100
1000
0000
0001
0000
0100
0010
0000
0010
1000
0000
0000
0000
,  // measure 32
0100
1000
0100
0000
1000
0001
1000
0000
0010
1000
0010
0100
0001
0000
1000
0000
,  // measure 33
0100
0010
0001
1000
0100
0000
0010
0001
1000
0000
0000
0000
0110
0000
0000
0000
,  // measure 34
1000
0001
0000
0100
0001
0000
1000
0100
0010
0100
0000
1000
0001
0000
1000
0001
,  // measure 35
0010
0100
0000
1000
0001
0000
0100
0010
0100
0001
0000
1000
0100
0000
0010
0001
,  // measure 36
1000
0000
0001
0000
0010
0100
1000
0000
0001
1000
0010
0000
0100
0001
1000
0000
,  // measure 37
0001
0010
0100
1000
0100
0000
0010
0000
0100
1000
0000
0001
0010
0000
0000
0000
,  // measure 38
0001
0100
0000
0010
0100
0000
0010
0000
1000
0001
0000
0100
0010
0000
1000
0000
,  // measure 39
0001
0100
0000
0010
1000
0001
0100
0000
0100
0010
0000
0000
0010
0000
1000
0000
,  // measure 40
0001
0000
0100
0000
0010
0000
1000
0000
0100
0010
0000
0001
0010
0000
0010
0000
,  // measure 41
0100
1000
0001
0000
1000
0010
0000
0100
0001
0000
0000
0000
0010
0000
0000
0000
,  // measure 42
1100
0000
0001
1000
0100
0100
0000
1000
,  // measure 43
0100
0010
0000
0001
0100
0010
1000
0000
,  // measure 44
0100
0000
0100
0010
0001
0000
0001
0200
,  // measure 45
0000
0320
0000
2030
0000
3002
0000
0000
,  // measure 46
0103
0000
0010
0100
0001
0000
0000
0010
,  // measure 47
0001
2000
0000
3020
0000
0130
0002
0000
,  // measure 48
0103
0000
0010
1000
0002
0000
1003
0100
,  // measure 49
0000
0010
0000
0001
0000
1000
0000
0100
,  // measure 50
0010
0000
0000
0001
0010
0000
0000
1000
0100
0000
0000
0010
0001
0000
0000
0001
,  // measure 51
0100
0000
0000
0010
1000
0000
0000
0010
0100
0000
0000
1000
0100
0000
0000
0000
,  // measure 52
0010
0000
1001
0000
1100
0000
0100
0020
,  // measure 53
0000
0032
0000
0203
0000
0310
0000
0100
,  // measure 54
0010
0000
0000
1000
0100
0000
0000
0100
0010
0000
0000
0010
0001
0000
0000
1000
,  // measure 55
0001
0100
0000
0001
1000
0000
0000
0001
1000
0100
0000
0010
0001
0000
0000
0000
,  // measure 56
1000
0000
1010
0000
0101
0000
0100
0010
,  // measure 57
0000
1000
0000
0001
0000
0200
0010
0000
,  // measure 58
0010
0000
0010
0000
,  // measure 59
0001
0000
0301
0010
,  // measure 60
0100
0000
1000
0001
0010
0000
0100
1000
,  // measure 61
0000
0001
0100
0010
1000
0000
0001
0010
,  // measure 62
0001
0000
1000
0100
0010
0000
0001
0100
,  // measure 63
0000
0001
1000
0100
0010
0000
0011
0000
,  // measure 64
1100
0000
0001
1000
0100
0000
0010
0001
,  // measure 65
0000
1000
0100
0010
0001
0000
0110
0000
,  // measure 66
1010
0000
0001
1000
0100
0000
0010
0000
,  // measure 67
0001
1000
0100
1000
0001
0100
0010
1000
;
