#TITLE:Interrobang Pie Invades Equestria;
#SUBTITLE:;
#ARTIST:Icky;
#TITLETRANSLIT:;
#SUBTITLETRANSLIT:;
#ARTISTTRANSLIT:;
#GENRE:Drum 'n Bass;
#CREDIT:;
#BANNER:Interrobang Pie Invades Equestria.png;
#BACKGROUND:Interrobang Pie Invades Equestria-bg.png;
#LYRICSPATH:;
#CDTITLE:;
#MUSIC:Interrobang Pie Invades Equestria.ogg;
#OFFSET:0.008000;
#SAMPLESTART:33.306797;
#SAMPLELENGTH:12.485550;
#SELECTABLE:YES;
#BPMS:0.000000=86.500000
,16.000000=173.000000
,80.000000=346.000000
,144.000000=173.000000
,148.000000=346.000000
,196.000000=173.000000
,200.000000=346.000000
,328.000000=173.000000
,360.000000=346.000000
,424.000000=173.000000
,428.000000=346.000000
,476.000000=173.000000
,480.000000=346.000000
,544.000000=173.000000
;
#STOPS:328.000000=2.780000
;
#BGCHANGES:;
#KEYSOUNDS:;
#ATTACKS:;

//---------------dance-single - ----------------
#NOTES:
     dance-single:
     :
     Beginner:
     3:
     0.126814,0.264839,0.136568,0.015174,0.000000,117.000000,99.000000,18.000000,2.000000,0.000000,0.000000,0.126814,0.264839,0.136568,0.015174,0.000000,117.000000,99.000000,18.000000,2.000000,0.000000,0.000000:
0000
0000
0000
0000
,
0000
0000
0000
0000
,
0010
0000
0000
0000
,
1000
0000
1000
0000
,
0001
0000
0000
0000
,
0001
0000
0000
0000
,
0100
0000
0000
0000
,
0100
0000
0000
0000
,
0100
0000
0000
0000
,
0001
0000
0000
0000
,
0010
0000
0000
0000
,
1000
0000
0000
0000
,
0100
0000
0000
0000
,
0100
0000
0000
0000
,
0010
0000
0000
0000
,
0010
0000
0000
0000
,
0001
0000
0000
0000
,
1000
0000
0000
0000
,
0001
0000
0001
0000
,
1000
0000
1000
0000
,
1000
0000
0000
0000
,
0000
0000
0000
0000
,
1000
0000
0000
0000
,
0000
0000
0000
0000
,
0100
0000
0000
0000
,
0000
0000
0000
0000
,
0100
0000
0000
0000
,
0010
0000
0000
0000
,
0010
0000
0000
0000
,
0010
0000
0000
0000
,
0001
0000
0000
0000
,
1000
0000
0000
0000
,
0001
0000
0000
0000
,
0100
0000
0000
0000
,
0001
0000
0000
0000
,
1000
0000
0000
0000
,
0100
0000
0100
0000
,
0100
0000
0000
0000
,
0000
0000
0000
0000
,
0010
0000
0000
0000
,
0000
0000
0000
0000
,
0100
0000
0000
0000
,
0000
0000
0000
0000
,
1000
0000
0000
0000
,
0000
0000
0000
0000
,
0001
0000
0000
0000
,
0000
0000
0000
0000
,
0100
0000
0000
0000
,
0100
0000
0000
0000
,
0001
0000
0100
0000
,
1001
0000
0000
0000
,
0000
0000
0000
0000
,
1001
0000
0000
0000
,
0000
0000
0000
0000
,
0110
0000
0000
0000
,
0000
0000
0000
0000
,
0110
0000
0000
0000
,
0000
0000
0000
0000
,
0010
0000
0000
0000
,
0000
0000
0000
0000
,
0100
0000
0000
0000
,
0000
0000
0000
0000
,
0010
0000
0000
0000
,
0000
0000
0000
0000
,
0100
0000
0000
0000
,
0000
0000
0000
0000
,
0001
0000
0000
0000
,
0000
0000
0000
0000
,
1000
0000
0000
0000
,
0000
0000
0000
0000
,
0001
0000
0000
0000
,
0000
0000
0000
0000
,
1000
0000
0000
0000
,
0000
0000
0000
0000
,
0010
0000
0000
0000
,
0000
0000
0000
0000
,
0100
0000
0000
0000
,
0000
0000
0000
0000
,
0010
0000
0000
0000
,
0000
0000
0000
0000
,
0100
0000
0000
0000
,
0000
0000
0000
0000
,
1001
0000
0000
0000
,
0100
0000
0000
0000
,
0010
0000
0000
0000
,
0100
0000
0000
0000
,
0001
0000
0000
0000
,
1000
0000
0000
0000
,
0010
0000
0000
0000
,
0100
0000
0000
0000
,
1001
0000
0000
0000
,
0000
0000
0000
0000
,
1001
0000
0000
0000
,
0000
0000
0000
0000
,
0110
0000
0000
0000
,
0000
0000
0000
0000
,
0110
0000
0000
0000
,
0000
0000
0000
0000
,
0001
0000
0000
0000
,
1000
0000
0000
0000
,
0001
0000
0000
0000
,
0000
0000
0000
0000
,
1000
0000
0000
0000
,
0001
0000
0000
0000
,
1000
0000
0000
0000
,
0000
0000
0000
0000
,
0100
0000
0100
0000
,
0010
0000
0000
0000
,
0000
0000
0000
0000
,
0010
0000
0000
0000
,
0000
0000
0000
0000
,
0001
0000
0000
0000
,
0000
0000
0000
0000
,
0001
0000
0000
0000
,
1000
0000
0000
0000
,
0001
0000
0000
0000
,
0000
0000
0000
0000
,
0100
0000
0000
0000
,
0000
0000
0000
0000
,
0010
0000
0010
0000
,
1001
0000
0000
0000
,
0000
0000
0000
0000
,
1001
0000
0000
0000
,
0000
0000
0000
0000
,
0110
0000
0000
0000
,
0000
0000
0000
0000
,
0110
0000
0000
0000
,
0000
0000
0000
0000
,
1001
0000
0000
0000
,
0000
0000
0000
0000
,
0110
0000
0000
0000
,
0000
0000
0000
0000
,
1001
0000
0000
0000
,
0000
0000
0000
0000
,
0110
0000
0000
0000
,
0000
0000
0000
0000
,
2002
0000
0000
0000
,
0000
0000
0000
0000
,
0000
0000
0000
0000
,
0000
0000
0000
0000
0000
3003
0000
0000
;

//---------------dance-single - ----------------
#NOTES:
     dance-single:
     :
     Easy:
     7:
     0.367434,0.635423,0.311073,0.030349,0.007587,339.000000,298.000000,41.000000,4.000000,0.000000,0.000000,0.367434,0.635423,0.311073,0.030349,0.007587,339.000000,298.000000,41.000000,4.000000,0.000000,0.000000:
0000
0000
0000
0000
,
0000
0000
0000
0000
,
0010
0000
0001
0000
,
0010
0000
0010
0000
,
0001
0010
0001
0000
,
0100
1000
0100
0000
,
0001
1000
0001
0000
,
1000
0001
1000
0000
,
0010
1000
0010
0000
,
0100
0001
0100
0000
,
0001
0000
0001
0000
,
1000
0000
1000
0000
,
0100
0000
0010
0000
,
0100
0000
0010
0000
,
0001
0000
1000
0000
,
0001
0000
1000
0000
,
0010
0000
0100
0000
,
0010
0000
0100
0000
,
0001
0001
1000
1000
,
0200
0320
0031
1001
,
0001
0000
0100
0000
,
0010
1000
0100
0000
,
0010
0000
0100
0000
,
1001
0000
0000
0000
,
0001
0000
0100
0000
,
0010
1000
0100
0000
,
0010
0000
0001
0000
,
1100
0000
0000
0000
,
1000
0000
0010
0000
,
0100
0001
0010
0000
,
0100
0000
1000
0000
,
0011
0000
0000
0000
,
0001
0000
0010
0000
,
1000
0000
0010
0000
,
0001
0000
0100
0000
,
1000
0000
0100
0000
,
0001
0000
0101
0000
,
0001
0000
1000
0000
,
1100
0000
0000
0000
,
0100
0000
0010
0000
,
0001
0010
0100
0000
,
1000
0000
0010
0000
,
0101
0000
0000
0000
,
0001
0000
0100
0000
,
0010
1000
0100
0000
,
0010
0000
0100
0000
,
1001
0000
0000
0000
,
0010
0000
0100
0000
,
0010
0000
0100
0000
,
0001
1000
0001
1000
,
0001
0000
0011
0000
,
0010
0000
0100
0000
,
1000
0000
0100
0000
,
0010
0000
0001
0000
,
1001
0000
0010
0000
,
0100
0000
0001
0000
,
0010
0000
0100
0000
,
1000
0000
0010
0000
,
0100
0000
0101
0000
,
0010
0000
0011
0000
,
0100
0000
0101
0000
,
0010
0000
0011
0000
,
0100
0000
1100
0000
,
0010
0000
0110
0000
,
1000
0000
1100
0000
,
0100
0000
0110
0000
,
0100
0000
0010
0000
,
0100
0000
1000
0000
,
0010
0000
0100
0000
,
0001
0000
0000
0000
,
0010
0000
0001
0000
,
0100
0000
0010
0000
,
1000
0000
0010
0000
,
0100
0000
0000
0000
,
0001
0000
1000
0000
,
0100
0000
0010
0000
,
0100
0000
1000
0000
,
0010
0000
0000
0000
,
0100
0000
0001
0000
,
0010
0000
0100
0000
,
1000
0000
0010
0000
,
0100
0000
0001
0000
,
1001
0010
0100
1000
,
0010
0100
0001
0100
,
0010
1000
0100
0010
,
0001
0010
0100
0010
,
0001
0001
1000
1000
,
0010
0010
0100
0100
,
0001
1000
0001
0000
1000
0001
1000
0000
,
0001
0010
0100
1001
,
0100
0000
0010
0000
,
0001
1000
0010
0000
,
0100
0000
0001
0000
,
0101
0000
0000
0000
,
0010
0000
0100
0000
,
0001
0010
0100
0000
,
1000
0000
0010
0000
,
1010
0000
0000
0000
,
0010
0000
0100
0000
,
0001
1000
0100
0000
,
0010
0000
0100
0000
,
1001
0000
0000
0000
,
0001
0000
0100
0000
,
1000
0000
0100
0000
,
0001
0000
0010
0000
,
1000
0000
0010
0000
,
0100
0000
1001
0000
,
0001
0000
0100
0000
,
0110
0000
0000
0000
,
0010
0000
1000
0000
,
0100
1000
0010
0000
,
0100
0000
0001
0000
,
1001
0000
0000
0000
,
0100
0000
0010
0000
,
0001
1000
0010
0000
,
0100
0000
0001
0000
,
1010
0000
0000
0000
,
0010
0000
0100
0000
,
0001
0000
1000
0000
,
0100
0010
0100
0010
,
0100
0000
1100
0000
,
1000
0000
1001
0000
,
0001
0000
0101
0000
,
0100
0000
0110
0000
,
0010
0000
0100
0000
,
0001
0000
0010
0000
,
0100
0000
1000
0000
,
0010
0000
0100
0000
,
0001
0000
0101
0000
,
0010
0000
0011
0000
,
0100
0000
0101
0000
,
0010
0000
0011
0000
,
0100
0000
1100
0000
,
0010
0000
0110
0000
,
1000
0000
1100
0000
,
0100
0000
0110
0000
,
0001
0000
0000
0000
0000
0000
0000
0000
0000
0000
0000
0000
0000
2002
0000
0000
,
0000
0000
0000
0000
,
0000
0000
0000
0000
,
0000
0000
0000
0000
0000
0000
3003
0110
0000
0000
0000
0000
;

//---------------dance-single - ----------------
#NOTES:
     dance-single:
     :
     Hard:
     16:
     0.768469,1.164942,0.333834,0.075871,0.060697,709.000000,665.000000,44.000000,10.000000,0.000000,0.000000,0.768469,1.164942,0.333834,0.075871,0.060697,709.000000,665.000000,44.000000,10.000000,0.000000,0.000000:
0000
0000
0000
0000
,
0000
0000
0000
0000
,
0002
0000
0000
0000
0000
0000
0000
0000
0103
0010
1000
0000
0001
0000
0010
0000
,
0200
0000
0000
0000
0000
0000
0000
0010
0320
0000
0001
0000
0001
0000
0001
0000
,
0031
0010
0100
0010
0001
1000
0100
1000
,
0001
0100
0010
0100
0001
1000
1100
0000
,
1000
0100
0001
0100
0010
0001
0010
1000
,
0010
0001
0100
0010
0100
0001
1001
0000
,
0001
0010
0001
0100
0010
1000
0100
1000
,
0010
0100
1000
0100
0001
1000
0110
0000
,
0010
0001
0010
1000
0010
0100
1000
0001
,
0200
0000
0000
0300
,
0010
0100
0010
0100
0001
1000
0001
1000
,
0100
0010
0100
0010
0001
1000
0001
1000
,
0001
0010
0001
0010
0100
1000
0100
1000
,
0010
0100
0010
0100
0001
1000
0001
1000
,
0001
0100
0010
1000
0001
0100
0010
1000
,
0001
0010
0100
1000
0001
0010
0100
1000
,
0010
0010
0100
0100
0001
0001
1000
1000
,
0001
0000
0100
0000
0010
0000
1000
0000
0000
0000
0000
0000
0000
0000
0000
0100
0000
0000
0110
0000
0000
0000
0000
0000
,
0010
0001
0100
0010
,
0100
0001
0010
0100
,
1000
0010
1000
0100
,
0010
0000
0001
0000
1000
0010
1000
0010
,
0100
0001
0100
0010
,
0100
0001
1001
0000
,
0001
0010
0100
0010
,
0001
1000
1001
0000
,
0001
0010
0100
1000
,
0010
1000
0001
0100
,
0010
1000
0001
0010
,
0100
1000
1001
0000
,
0001
0010
0001
0000
0000
1000
0100
1000
,
0001
0010
0001
0000
1000
0100
1000
0000
,
0001
0100
0001
0000
1000
0010
1000
0000
,
0001
0100
0001
0000
1000
0010
0100
0001
,
1000
0001
0110
1000
,
0001
0010
0100
1000
,
0001
0000
0100
0000
0010
1000
0010
1000
,
0001
0100
0010
0100
,
0001
0010
0110
0000
,
0100
1000
0001
1000
,
0100
0010
0011
0001
,
0010
0100
1000
0001
,
0100
0010
0100
0001
,
0010
0100
1000
0010
,
0100
0001
1000
0100
,
0010
0001
0010
0000
0100
1000
0100
0000
,
1000
0001
1000
0000
0001
0100
0001
0100
,
0010
1000
0100
0001
1000
0010
0001
0100
,
0010
0000
0000
0000
1010
0000
0000
0100
,
0000
0000
0001
0000
1001
0000
0000
0100
,
0000
0000
0010
0000
0011
0000
0000
0100
,
0000
1000
1001
0001
,
0100
0000
0000
0000
0010
1000
0010
0000
,
0100
0001
1000
0000
0010
0100
0001
0000
,
1000
0100
0010
0000
0001
0010
0100
0000
,
1000
0001
0100
0000
0010
1000
0001
0000
,
0011
0000
0000
0000
1100
0000
0000
1000
,
0000
0001
0100
0000
0101
0000
0000
0001
,
0000
1000
0100
0000
1100
0000
0000
1000
,
0000
0001
0100
0000
0101
0000
0001
0000
,
1000
0000
0000
0000
1010
0000
0000
1000
,
0000
0001
0010
0000
0011
0000
0000
0001
,
0000
1000
0010
0000
1010
0000
0000
1000
,
0000
0000
0000
0001
0000
0000
1000
0000
0000
0000
0000
0000
0001
0000
0000
0000
0010
0000
0000
0000
0100
0000
0000
0000
,
1000
0010
0100
1000
,
0100
0001
0010
0100
,
1000
0001
1000
0100
,
0010
0000
0001
0000
1000
0010
0100
0001
,
1000
0100
0010
0001
,
0010
0100
1000
0010
,
0100
0001
0100
0010
,
1000
0001
0010
0100
,
0010
0001
1000
0010
,
1000
0001
0100
0010
,
1000
0001
0010
0100
,
1000
0001
0100
0010
,
2000
0000
0100
0000
,
3002
0000
0010
0000
,
2003
0000
0010
0000
,
3002
0000
0100
0000
,
1003
0010
0100
0001
1000
0100
0010
0001
,
1000
0010
0001
0010
1000
0100
0001
0100
,
0010
0001
1000
0010
0100
0001
0010
0001
,
0100
1000
0100
0001
0010
1000
0010
0001
,
0100
0010
0100
0010
1000
0001
1000
0001
,
0010
0001
0010
0001
1000
0100
1000
0100
,
1000
0010
0100
0000
0001
0010
0100
0000
1000
0001
0100
0000
0010
1000
0001
0000
,
1000
0010
0100
0001
1000
0001
0110
0000
,
1000
0001
0100
0010
,
1000
0001
1000
0010
,
0100
0001
0010
0100
,
1000
0000
0001
0000
0100
0010
1000
0001
,
0010
0100
1000
0010
,
0100
0001
1001
0000
,
0001
0010
0100
1000
,
0010
0100
0110
0000
,
0010
0100
1000
0100
,
0001
0010
1000
0010
,
0100
1000
0010
0100
,
0001
0010
0011
0000
,
0001
0010
0001
0000
1000
0100
1000
0000
,
0001
0100
0001
0000
1000
0100
1000
0000
,
0010
1000
0010
0000
0100
0001
0100
0000
,
0010
1000
0010
0000
0100
0001
1000
0010
,
0100
0010
1001
0100
,
0010
0001
0100
0010
,
1000
0000
0001
0000
0100
0010
0100
0001
,
1000
0010
0100
0001
,
1000
0100
0011
0000
,
0001
0010
0100
1000
,
0010
0100
0101
0001
,
0100
0010
1000
0001
,
0010
0100
1000
0010
,
0100
0001
0100
0010
,
1000
0001
1001
0000
,
0001
0010
0100
0000
1000
0010
0100
0000
,
0001
0010
0100
0000
1000
0010
0100
0001
,
0010
1000
0010
0100
0001
0100
1000
0010
,
0100
0000
0000
0000
0101
0000
0000
0010
,
0000
0000
1000
0000
1001
0000
0000
0001
,
0000
0000
0010
0000
0110
0000
0000
0100
,
0000
1000
1001
0001
,
0100
0000
0000
0000
0010
1000
0100
0000
,
0010
0001
0100
0000
0010
1000
0100
0000
,
0010
0001
1000
0000
0010
0100
0001
0000
,
0100
0010
1000
0000
0001
0010
0100
1000
,
0010
0000
0000
0000
0101
0000
0000
0001
,
0000
1000
0100
0000
0011
0000
0000
0001
,
0000
1000
0010
0000
0110
0000
0000
0001
,
0000
0100
0010
0000
1010
0000
0100
0000
,
0001
0000
0000
0000
1010
0000
0000
0101
,
0000
0001
1000
0000
1100
0000
0000
0010
,
0000
0001
0100
0000
0110
0000
0000
1000
,
0000
0000
0000
0001
0000
0000
0100
0000
0000
0000
0000
0000
0010
0000
0000
0000
0100
0000
0000
0000
0001
0000
0000
0000
,
1000
0000
0000
0001
0000
0000
0000
0100
0000
0010
0000
0000
0220
0000
0000
0000
,
0000
0000
0000
0000
,
0000
0000
0000
0000
,
0000
0000
0000
0000
0000
0000
0330
1001
0000
0000
0000
0000
;

//---------------dance-single - ----------------
#NOTES:
     dance-single:
     :
     Medium:
     11:
     0.613474,0.900182,0.531100,0.045523,0.022761,566.000000,496.000000,70.000000,6.000000,0.000000,0.000000,0.613474,0.900182,0.531100,0.045523,0.022761,566.000000,496.000000,70.000000,6.000000,0.000000,0.000000:
0000
0000
0000
0000
,
0000
0000
0000
0000
,
0002
0000
0000
0000
0000
0000
0000
0000
1003
0010
1000
0000
0100
0000
0010
0000
,
0002
0000
0000
0000
1000
1000
1000
1003
,
1100
0000
1000
0001
0100
0000
0010
0200
,
0000
0300
0001
0000
0010
0000
0100
0000
,
1000
0000
0001
0000
0100
0001
1000
0000
,
0100
0000
0010
0000
0100
1000
0010
0000
,
0100
0001
0100
0001
,
1000
0000
0100
0000
0010
0000
0001
1000
,
0010
0100
0001
0100
,
0020
0000
0000
0030
,
1010
0000
1100
0000
,
1001
0000
0101
0000
,
0011
0000
0110
0000
,
1100
0000
1001
0000
,
0001
0100
0010
1000
,
0100
0010
0001
1000
,
0010
0100
0010
0100
0001
1000
0001
1000
,
0001
0000
0100
0000
0010
0000
1000
0000
0000
0000
0000
0000
0000
0000
0000
0010
0000
0000
0110
0000
0000
0000
0000
0000
,
0010
1000
0100
0010
,
0100
1000
0010
0100
,
0001
0010
0001
1000
,
0100
0010
0011
0000
,
0001
0010
1000
0010
,
0001
0100
0110
0000
,
0010
1000
0100
0010
,
0100
1000
1100
0000
,
1000
0001
0100
0010
,
0100
0001
0010
0001
,
1000
0010
0100
0001
,
1000
0100
1100
0000
,
1000
0100
1000
0100
,
1000
0100
1000
0100
,
0010
0001
0010
0001
,
0100
0010
0100
0010
,
1000
0001
1001
0100
,
0010
0001
0100
0010
,
0100
0001
0101
0000
,
0001
0010
0100
1000
,
0001
1000
1001
0000
,
0010
0100
0001
1000
,
0100
0010
0110
0000
,
0010
0001
0100
0010
,
0100
0001
1000
0100
,
0010
0001
1000
0010
,
0100
0001
0101
0000
,
0001
0100
0001
0100
,
0001
0100
0001
0100
,
0010
0100
0010
0100
0010
0100
0010
0100
,
0010
0000
0110
0000
,
1010
0000
0101
0000
,
1001
0000
1100
0000
,
0011
0000
1100
0000
,
1001
0000
0001
0100
,
0010
0100
0001
1000
,
0100
1000
0001
0010
,
0100
0010
0001
1000
,
0010
0000
1010
0000
,
1000
0001
0011
0000
,
0010
0100
0110
0000
,
0100
1000
1100
0000
,
1000
0000
1001
0000
,
0001
0100
0101
0000
,
0001
1000
1001
0000
,
1000
0010
1010
0000
,
0010
0000
1010
0000
,
1000
0010
0100
0001
,
1000
0000
1001
0000
,
1000
0100
0010
0000
,
0001
0000
0011
0000
,
0010
0001
0100
0010
,
0100
0000
0101
0000
,
0001
1000
0100
0000
,
0010
0000
0110
0000
,
0010
0100
1000
0010
,
0100
0000
0101
0000
,
0010
1000
0100
0010
,
0001
0000
0010
0000
,
0100
0000
1000
0000
,
0010
0000
0100
0000
,
0001
0000
1000
0000
,
0110
0100
0001
0100
0010
0100
0001
0000
,
1000
0100
0010
0000
0100
1000
0010
0000
,
1000
0001
1000
0010
1000
0001
0010
0000
,
0100
0010
0001
0000
0100
0010
0100
0000
,
0001
0100
0001
0000
0010
0100
0010
0000
,
0100
1000
0010
0000
0010
1000
0001
0000
,
0001
0010
0100
1000
0010
0100
0001
1000
,
0100
0010
0100
0010
0100
0010
1001
0000
,
0001
0010
0100
1000
,
0010
1000
0001
0100
,
0010
1000
0001
0010
,
0100
1000
1001
0000
,
0001
0100
0010
0100
,
0001
1000
1100
0000
,
0100
1000
0010
1000
,
0001
0010
0011
0000
,
0010
0100
1000
0010
,
1000
0001
0100
0010
,
1000
0001
1000
0010
,
0100
0001
1001
0000
,
0001
0100
0001
0100
,
0001
0100
0001
0100
,
0010
1000
0010
1000
,
0100
0010
0100
0010
,
0001
1000
0110
0010
,
0100
0001
0010
0001
,
1000
0100
0110
0000
,
0010
0001
1000
0010
,
1000
0001
1001
0000
,
0001
0100
0010
0100
,
0001
0010
0110
0000
,
0100
1000
0010
1000
,
0001
0100
0010
0100
,
0001
0010
0001
1000
,
0100
0010
0011
0000
,
0001
0010
0001
0010
,
0001
0010
0001
0010
,
0100
1000
0100
1000
0100
1000
0100
1000
,
0001
0000
0011
0000
,
1100
0000
1001
0000
,
0101
0000
1010
0000
,
0110
0000
0101
0000
,
1001
0000
0001
0100
,
0010
0100
0001
1000
,
0100
1000
0010
1000
,
0001
0010
0100
0010
,
0001
0000
0011
0000
,
0100
1000
1100
0000
,
1000
0010
1010
0000
,
0100
0001
0101
0000
,
0001
0000
1001
0000
,
1000
0100
0110
0000
,
0010
0001
1001
0000
,
0010
0100
1001
0000
,
1000
0000
0000
0001
0000
0000
0000
0100
0000
0000
0000
0000
0220
0000
0000
0000
,
0000
0000
0000
0000
,
0000
0000
0000
0000
,
0000
0000
0000
0000
0000
0000
0330
1001
0000
0000
0000
0000
;

//---------------dance-single - ----------------
#NOTES:
     dance-single:
     INVASION!:
     Challenge:
     18:
     0.981992,1.430128,0.811824,0.136568,0.083459,906.000000,799.000000,107.000000,18.000000,0.000000,0.000000,0.981992,1.430128,0.811824,0.136568,0.083459,906.000000,799.000000,107.000000,18.000000,0.000000,0.000000:
// measure 0
0000
0000
0000
0000
,  // measure 1
0000
0000
0000
0000
,  // measure 2
0020
0000
0000
0000
0000
0000
0000
0000
0130
1000
0001
0000
0101
0000
1010
0000
,  // measure 3
1002
0000
0000
0000
0000
0000
0000
0013
0011
0001
1001
1000
1010
1000
1001
0000
,  // measure 4
0001
0000
0010
0000
0100
1000
0100
0000
1000
0000
0001
0000
0100
0001
0100
0000
,  // measure 5
0010
0000
1000
0000
0001
0010
0100
0000
0010
0000
0001
0000
1000
0010
0100
0000
,  // measure 6
0010
0000
1000
0000
0001
0100
0010
0000
0100
0000
0001
0000
1000
0100
0010
0000
,  // measure 7
0001
0000
0010
0000
0100
1000
0001
0000
0100
0000
0010
0000
0100
0010
1000
0000
,  // measure 8
0100
0010
0001
0010
0001
0100
0010
1000
,  // measure 9
0001
1000
0010
1000
0010
0100
0001
0010
,  // measure 10
0100
1000
0001
0010
0100
1000
0010
0100
,  // measure 11
0001
1000
0010
0100
0001
1000
0010
0100
,  // measure 12
0101
0001
0100
0001
1001
0001
1000
0001
,  // measure 13
0101
0001
0100
0001
1001
0001
1000
0001
,  // measure 14
1100
1000
0100
1000
1001
0001
1000
0001
,  // measure 15
1100
1000
0100
1000
1001
0001
1000
0001
,  // measure 16
0101
0100
0101
0001
1001
1000
1001
0001
,  // measure 17
0011
0010
0011
0100
0110
1000
1100
0100
,  // measure 18
1100
1000
0001
0100
1010
0001
1000
0100
,  // measure 19
2100
0000
3020
0000
0130
0000
0220
0330
,  // measure 20
0010
1000
0100
0001
,  // measure 21
0100
0000
0010
0000
0001
0100
0010
0000
,  // measure 22
1000
0001
0010
0000
0100
0000
0100
1000
,  // measure 23
0010
0000
0100
0000
0001
1000
0001
1000
,  // measure 24
0010
1010
0101
1001
,  // measure 25
1100
0021
0130
0000
,  // measure 26
0001
0100
1000
0010
,  // measure 27
0100
0010
0100
1000
,  // measure 28
0100
0010
1000
0100
,  // measure 29
0010
0000
0001
0000
1000
0010
0100
0000
,  // measure 30
0001
0010
0100
0000
1000
0000
0001
0100
,  // measure 31
0010
0000
1000
0000
0001
0010
0100
0000
,  // measure 32
1000
0100
1000
0001
1000
0100
1000
0001
,  // measure 33
1000
0010
1000
0001
1000
0010
1000
0001
,  // measure 34
0010
0001
0010
0100
0010
0001
0010
0100
,  // measure 35
0010
0000
0011
0000
0001
0100
0010
1000
,  // measure 36
0010
0100
0101
1001
,  // measure 37
1000
0100
0001
1000
,  // measure 38
0010
0000
0001
0000
1000
0010
0100
0001
,  // measure 39
1010
0011
1100
0101
,  // measure 40
1010
0120
0031
0000
,  // measure 41
1000
0100
0001
1000
,  // measure 42
0100
0010
0001
0100
,  // measure 43
0010
0100
1000
0100
,  // measure 44
0010
0000
1000
0000
0001
1000
0100
0000
,  // measure 45
0010
0001
1000
0000
0110
0000
0100
0001
,  // measure 46
1000
0000
1100
0000
0010
0001
0100
0000
,  // measure 47
0001
0010
0001
0100
0001
0010
0001
0100
,  // measure 48
0010
0100
0001
0100
0010
0100
0001
1000
,  // measure 49
1100
1100
0011
0011
1001
1001
0101
0101
,  // measure 50
0110
0000
0000
0000
0010
1000
0000
1000
,  // measure 51
0100
0000
0110
0000
0010
0001
0000
0001
,  // measure 52
0100
0000
0110
0000
0010
1000
0000
1000
,  // measure 53
0100
0000
0110
0000
0001
0100
0010
1000
,  // measure 54
0001
0000
0000
0000
0001
1000
0001
1000
,  // measure 55
0100
0010
0100
0010
0001
0010
0001
0010
,  // measure 56
0100
1000
0100
1000
0001
1000
0001
1000
,  // measure 57
0010
0100
0001
1000
0001
0010
0100
1000
,  // measure 58
0001
0000
0010
0001
0100
0000
0010
1000
,  // measure 59
0000
1000
0100
0000
0110
0000
0010
0001
,  // measure 60
0000
0001
0100
0000
0110
0000
0010
1000
,  // measure 61
0000
1000
0100
0000
0100
0010
0001
0000
,  // measure 62
1001
0000
1000
0001
0100
0000
0100
0001
,  // measure 63
0000
1000
0100
0000
1100
0000
1000
0001
,  // measure 64
0000
0001
0100
0000
0101
0000
0010
1000
,  // measure 65
0000
0001
0010
0000
0100
1000
0001
0100
,  // measure 66
0010
0100
1000
0100
,  // measure 67
0010
0000
1000
0000
0100
0010
0001
0000
,  // measure 68
0100
0010
0100
1000
,  // measure 69
0100
0000
0001
0000
1000
0100
1000
0100
,  // measure 70
1000
0001
0100
1000
,  // measure 71
0001
0000
0010
0000
1000
0001
0010
0000
,  // measure 72
0100
0001
0100
0010
,  // measure 73
1000
0010
0200
1300
,  // measure 74
0001
0100
0010
1000
,  // measure 75
0001
0000
0010
0000
0100
0010
0001
0000
,  // measure 76
1000
0010
0001
1000
,  // measure 77
0100
0001
0010
0002
,  // measure 78
0100
2003
0100
3020
,  // measure 79
0100
0230
0010
0301
,  // measure 80
0101
1000
1100
0010
,  // measure 81
0011
1100
0101
1010
,  // measure 82
1001
1000
0001
0100
1000
0100
0010
1000
,  // measure 83
0100
0010
1000
0010
0001
0100
1000
0100
,  // measure 84
0001
0010
0100
1000
0001
0100
0010
1000
,  // measure 85
1000
0010
0001
0010
1000
0100
0001
0100
,  // measure 86
1100
1100
0001
0100
0010
1000
0001
0010
,  // measure 87
0011
0011
0100
1000
0001
0100
0010
1000
,  // measure 88
0001
0100
0010
0100
0001
1000
0100
0010
0100
1000
0001
0100
0010
1000
0100
0010
,  // measure 89
0001
0100
0010
1000
0100
0010
0011
1000
,  // measure 90
1010
0100
1000
0100
,  // measure 91
0010
0000
1000
0000
0001
0010
0100
0000
,  // measure 92
1000
0010
0100
0000
0110
0000
0010
1000
,  // measure 93
0001
0000
0010
0000
0100
1000
0100
1000
,  // measure 94
0001
0101
1010
1100
,  // measure 95
0011
0210
1300
0001
,  // measure 96
1000
0010
0100
1000
,  // measure 97
0100
0001
0010
0100
,  // measure 98
1000
0010
0001
1000
,  // measure 99
0100
0000
0001
0000
1000
0100
0010
0000
,  // measure 100
0001
0100
0010
0000
1010
0000
0100
0001
,  // measure 101
1000
0000
0110
0000
0001
0100
0010
0000
,  // measure 102
1000
0001
1000
0010
1000
0001
1000
0010
,  // measure 103
0100
0001
0100
0010
0100
0001
1000
0100
,  // measure 104
0010
0100
1000
0100
0010
0100
1000
0001
,  // measure 105
0100
0000
1010
0000
0010
0100
0001
1000
,  // measure 106
0020
1030
1010
0101
,  // measure 107
0010
1000
0100
0001
,  // measure 108
0100
0000
0010
0000
0001
1000
0010
0100
,  // measure 109
0001
0101
1010
1100
,  // measure 110
0011
0120
1030
0001
,  // measure 111
0100
1000
0001
0100
,  // measure 112
0010
0100
1000
0100
,  // measure 113
0001
0010
0100
1000
,  // measure 114
0001
0000
0010
0000
0001
1000
0100
0000
,  // measure 115
0010
0001
0100
0000
1010
0000
0100
0001
,  // measure 116
1000
0000
0100
0000
0010
0001
1000
0000
,  // measure 117
0010
0100
0010
1000
0010
0100
0010
1000
,  // measure 118
0001
0010
0001
1000
0001
0010
0100
1000
,  // measure 119
0101
0101
1010
1010
1100
1100
0011
0011
,  // measure 120
0110
0000
0000
0000
1000
0100
0000
0100
,  // measure 121
0010
0000
0011
0000
0001
0100
0000
0100
,  // measure 122
0010
0000
1010
0000
1000
0100
0000
0100
,  // measure 123
0010
0000
0011
0000
0001
0100
0010
1000
,  // measure 124
0001
0000
0000
0000
1000
0100
1000
0100
,  // measure 125
1000
0001
1000
0001
0100
0001
0100
0001
,  // measure 126
0100
0010
0100
0010
1000
0010
1000
0010
,  // measure 127
1000
0001
0010
0100
1000
0001
0100
0010
,  // measure 128
1000
0000
0010
0100
0001
0000
1000
0001
,  // measure 129
0000
0010
0001
0000
0011
0000
0001
1000
,  // measure 130
0000
0010
1000
0000
1010
0000
0100
0001
,  // measure 131
0000
1000
0100
0000
0010
0001
1000
0010
,  // measure 132
0100
0000
0010
1000
0010
0000
0100
0001
,  // measure 133
0000
1000
0100
0000
1100
0000
0001
0100
,  // measure 134
0000
0010
1000
0000
1010
0000
0001
0010
,  // measure 135
0000
0100
1000
0000
0010
0100
0001
1000
,  // measure 136
0100
0000
0000
1000
0000
0000
0010
0000
0200
0000
0000
0000
0020
0000
0000
0000
,  // measure 137
0000
0000
0000
0000
,  // measure 138
0000
0000
0000
0000
,  // measure 139
0000
0000
0000
0000
0330
1001
0000
0000
;
