#TITLE:22DUNK;
#SUBTITLE:boomerang special;
#ARTIST:SLAKE;
#TITLETRANSLIT:;
#SUBTITLETRANSLIT:;
#ARTISTTRANSLIT:;
#CREDIT:dominator;
#BANNER:22DUNK-bn.png;
#BACKGROUND:22DUNK-bg.png;
#LYRICSPATH:;
#CDTITLE:NEMESetupLOGO.PNG;
#MUSIC:22DUNK.mp3;
#OFFSET:-0.077;
#SAMPLESTART:3.560;
#SAMPLELENGTH:12.000;
#SELECTABLE:YES;
#DISPLAYBPM:135.000;
#BPMS:0.000=135.000;
#STOPS:;
#BGCHANGES:;

//---------------dance-double - ----------------
#NOTES:
     dance-double:
     :
     Hard:
     8:
     0.371,0.424,0.133,0.000,0.392:
00000000
00000000
00000000
00000000
,
00000000
00000000
00000000
00000000
,
00000000
00000000
00000000
00000000
,
00000000
00000000
00000000
00000000
,
00000010
00000001
00000101
00001010
,
00001000
00010000
10100000
01010000
,
00010000
00001000
00001010
00000101
,
00000010
00000001
00000011
00001100
,
00001000
00010000
00110000
11000000
,
01000000
01000000
01000000
01000000
,
00000000
00100000
00000000
00000000
10000000
00000000
00000000
00000000
01000000
00000000
00000000
00100000
00000000
00000000
00000000
00000000
,
00010000
00000000
00000000
00001000
00000000
00000000
00000000
00000000
,
00000000
00000010
00000000
00000000
00000001
00000000
00000000
00000000
00000100
00000000
00000000
00000010
00000000
00000000
00000000
00000000
,
00001000
00000000
00000000
00010000
00000000
00000000
00000000
00000000
,
00000000
00100000
00000000
00000000
00010000
00000000
00000000
00000000
00100000
00000000
00000000
00010000
00000000
00000000
00000000
00000000
,
00001000
00000000
00000000
00000001
00000000
00000000
00000000
00000000
,
00000000
00000010
00000000
00000000
00001000
00000000
00000000
00000000
00000010
00000000
00000000
00001000
00000000
00000000
00000000
00000000
,
00010000
00000000
00000000
10000000
00000000
00000000
00000000
00000000
,
10000000
00000000
01000000
00000000
00010000
00000000
00000000
00000000
00001000
00000000
00000010
00000000
00001000
00000010
00000000
00001000
,
00000001
00000000
00000100
00000000
00001000
00000000
00000000
00000000
00010000
00000000
00100000
00000000
00010000
00100000
00000000
00010000
,
10000000
00000000
01000000
00000000
00010000
00000000
00000000
00000000
00001000
00000000
00000010
00000000
00001000
00000010
00000000
00001000
,
00000001
00000000
00000100
00000000
00001000
00000000
00000000
00000000
00010000
00000000
00100000
00000000
00010000
00100000
00000000
00010000
,
10000000
00000000
01000000
00000000
00010000
00000000
00000000
00000000
00001000
00000000
00000010
00000000
00001000
00000010
00000000
00001000
,
00000001
00000000
00000100
00000000
00001000
00000000
00000000
00000000
00010000
00000000
00100000
00000000
00010000
00100000
00000000
00010000
,
10000000
00000000
01000000
00000000
00010000
00000000
00000000
00000000
00001000
00000000
00000010
00000000
00001000
00000010
00000000
00001000
,
00000000
00000000
00000000
00000000
,
00000000
00100000
00010000
00100000
00010000
00100000
00000000
00000000
00010000
00000000
00000000
00001000
00000000
00000000
00000000
00000000
,
00000000
00000010
00001000
00000010
00001000
00000010
00000000
00000000
00001000
00000000
00000000
00010000
00000000
00000000
00000000
00000000
,
00000000
01000000
00010000
01000000
00010000
01000000
00000000
00000000
00010000
00000000
00000000
00001000
00000000
00000000
00000000
00000000
,
00000000
00000100
00001000
00000100
00001000
00000100
00000000
00000000
00001000
00000000
00000000
00010000
00000000
00000000
00000000
00000000
,
00000000
00100000
00010000
00100000
00010000
00100000
00000000
00000000
00010000
00000000
00000000
00001000
00000000
00000000
00000000
00000000
,
00000000
00000010
00001000
00000010
00001000
00000010
00000000
00000000
00001000
00000000
00000000
00010000
00000000
00000000
00000000
00000000
,
00000000
01000000
00010000
01000000
00010000
01000000
00000000
00000000
00010000
00000000
00000000
00001000
00000000
00000000
00000000
00000000
,
00000000
00000100
00001000
00000100
00001000
00000100
00000000
00000000
00001000
00000000
00000000
00010000
00000000
00000000
00000000
00000000
,
00000000
00000000
01000000
00000000
10000000
00000000
01000000
00000000
10000000
00000000
01000000
00000000
00010000
00001000
00000000
00000000
,
00000000
00000000
00000100
00000000
00000001
00000000
00000100
00000000
00000001
00000000
00000100
00000000
00001000
00010000
00000000
00000000
,
00000000
00000000
01000000
00000000
10000000
00000000
01000000
00000000
10000000
00000000
01000000
00000000
00010000
00001000
00000000
00000000
,
00000000
00000000
00000100
00001000
00000000
00000010
00000000
00000000
00001000
00000000
00000000
00000000
00000000
00000000
00000000
00000000
;

//---------------dance-single - it's got a strange groove radar----------------
#NOTES:
     dance-single:
     it's got a strange groove radar:
     Challenge:
     9:
     0.637,0.656,1.000,0.000,0.791: // measure 1
0000
0000
0000
0000
,  // measure 2
0000
0000
0000
0000
,  // measure 3
0000
0000
0000
0000
,  // measure 4
0000
0000
0000
0000
,  // measure 5
0100
0000
0000
0011
0000
1000
0100
0000
0000
0000
0000
0011
0000
1000
0100
0000
,  // measure 6
0100
0000
0000
1001
0000
0010
0100
0000
0000
0000
0000
1001
0000
0010
0100
0000
,  // measure 7
0110
0000
0000
1010
0000
0001
0100
0000
0000
0000
0000
1010
0000
0001
0100
0000
,  // measure 8
0100
0000
0000
0110
0000
1000
0010
0000
0000
0000
0000
0110
0000
1000
0010
0000
,  // measure 9
0110
0000
0000
0101
0000
1000
0010
0000
0000
0000
0000
0101
0000
1000
0010
0000
,  // measure 10
0110
0101
1100
0011
,  // measure 11
0000
0000
0000
0100
0000
0000
0000
0000
0000
0000
0000
0000
0100
0000
0000
0000
0000
0000
0000
0000
0000
0000
0000
0000
0100
0000
0000
0000
0000
0000
0000
0000
1000
0000
0000
0000
0001
0000
0000
0000
1000
0000
0000
0000
0100
0000
0000
0000
,  // measure 12
0011
0000
0000
0011
0000
0000
0000
0000
,  // measure 13
0000
0000
0000
0100
0000
0000
0000
0000
0000
0000
0000
0000
0100
0000
0000
0000
0000
0000
0000
0000
0000
0000
0000
0000
0100
0000
0000
0000
0000
0000
0000
0000
1000
0000
0000
0000
0001
0000
0000
0000
1000
0000
0000
0000
0100
0000
0000
0000
,  // measure 14
0011
0000
0000
0011
0000
0000
0000
0000
,  // measure 15
0000
0000
0000
1000
0000
0000
0000
0000
0000
0000
0000
0000
1000
0000
0000
0000
0000
0000
0000
0000
0000
0000
0000
0000
1000
0000
0000
0000
0000
0000
0000
0000
0001
0000
0000
0000
1000
0000
0000
0000
0001
0000
0000
0000
0100
0000
0000
0000
,  // measure 16
1010
0000
0000
1010
0000
0000
0000
0000
,  // measure 17
0000
0000
0000
1000
0000
0000
0000
0000
0000
0000
0000
0000
1000
0000
0000
0000
0000
0000
0000
0000
0000
0000
0000
0000
1000
0000
0000
0000
0000
0000
0000
0000
0001
0000
0000
0000
1000
0000
0000
0000
0001
0000
0000
0000
0100
0000
0000
0000
,  // measure 18
1010
0000
0000
1010
0000
0000
0000
0000
,  // measure 19
0101
0000
1010
0000
0101
0000
0000
0000
1001
0000
1100
0000
0001
1000
0000
0010
,  // measure 20
0100
0000
1010
0000
0101
0000
0000
0000
1001
0000
1100
0000
0001
1000
0000
0010
,  // measure 21
0100
0000
1010
0000
0101
0000
0000
0000
1001
0000
1100
0000
0001
1000
0000
0010
,  // measure 22
0100
0000
1010
0000
0101
0000
0000
0000
1001
0000
1100
0000
0001
1000
0000
0010
,  // measure 23
0100
0000
1001
0000
1100
0000
0000
0000
0011
0000
1100
0000
0010
0001
0000
1000
,  // measure 24
0100
0000
1001
0000
1100
0000
0000
0000
0011
0000
1100
0000
0010
0001
0000
1000
,  // measure 25
0100
0000
1001
0000
1100
0000
0000
0000
0011
0000
1100
0000
0010
0001
0000
1000
,  // measure 26
0100
0000
1000
0000
0100
0000
0011
0000
0011
0000
1000
0001
0000
0011
0000
1100
,  // measure 27
0000
0001
0010
0001
0010
0001
0000
0000
0010
0000
0000
1001
0000
0011
0000
1100
,  // measure 28
0000
0001
0010
0001
0010
0001
0000
0000
0010
0000
0000
1001
0000
1100
0000
0000
,  // measure 29
0000
0001
0010
0001
1000
0100
0000
0000
0010
0000
0000
1001
0000
0101
0000
1010
,  // measure 30
0000
0001
0010
0001
1000
0100
0000
0000
0010
0000
0000
1001
0000
0110
0000
0000
,  // measure 31
0000
0100
0001
1000
0001
0100
0000
0000
0010
0000
0000
0110
0000
1010
0000
0101
,  // measure 32
0000
0100
0001
1000
0001
0100
0000
0000
0010
0000
0000
0110
0000
1010
0000
0000
,  // measure 33
0000
0001
1000
0100
1000
0001
0000
0000
0010
0000
0000
0110
0000
0011
0000
1100
,  // measure 34
0000
0001
1000
0100
1000
0001
0000
0000
0010
0000
0000
1100
0000
0011
0000
0000
,  // measure 35
0000
0000
0000
1100
0000
0011
0000
1100
0000
0011
0000
1100
0000
1001
0000
0000
,  // measure 36
0000
0000
0000
0101
0000
1010
0000
0101
0000
1010
0000
0101
0000
1001
0000
0000
,  // measure 37
0000
0000
0000
0110
0000
1001
0000
0110
0000
1001
0000
0110
0000
1001
0000
0000
,  // measure 38
1100
0000
0100
0010
0000
0000
0011
0000
0011
0000
1000
0100
0000
1001
0000
0101
;
