#TITLE:Triple Journey;
#SUBTITLE:-S-C-U EDITION-;
#ARTIST:Triumvirate;
#TITLETRANSLIT:;
#SUBTITLETRANSLIT:;
#ARTISTTRANSLIT:;
#CREDIT:DigiMindAxel;
#BANNER:Triple Journey -S-C-U EDITION-.png;
#BACKGROUND:Triple Journey -S-C-U EDITION--bg.png;
#LYRICSPATH:;
#CDTITLE:jubeat.png;
#MUSIC:Triple Journey -S-C-U EDITION-.ogg;
#METERTYPE:DDR X;
#OFFSET:-11.420;
#SAMPLESTART:58.800;
#SAMPLELENGTH:12.000;
#SELECTABLE:YES;
#DISPLAYBPM:100:200;
#BPMS:0.000=200.000,26.000=100.000,34.000=200.000,258.000=400.000,262.000=200.000;
#STOPS:3.500=1.200
,7.500=0.600
,258.000=0.300
,259.000=0.300
,260.000=0.300
,261.000=0.300
;
#BGCHANGES:;

//---------------dance-single - ----------------
#NOTES:
     dance-single:
     :
     Beginner:
     5:
     0.188,0.229,0.220,0.000,0.000:
0001
0000
1000
0000
,
0100
0000
0010
0000
,
0000
0000
0001
0000
,
0010
0000
0100
0000
,
0010
0000
0001
0000
,
1000
0000
1001
0000
,
0000
0000
0010
0000
,
0000
0000
0010
0000
,
0000
0000
0110
0000
,
0000
0110
0000
0000
,
0110
0000
1001
0000
,
0000
0000
1001
0000
,
0000
0000
1000
0000
,
0100
0000
0010
0000
,
0100
0000
1000
0000
,
0010
0000
0100
0000
,
0010
0000
1000
0000
,
0001
0000
0010
0000
,
0100
0000
1000
0000
,
0000
0000
1000
0000
,
0000
0000
1001
0000
,
1000
0000
0001
0000
,
0010
0000
0100
0000
,
1000
0000
0001
0000
,
0100
0000
0001
0000
,
0010
0000
0100
0000
,
0010
0000
0001
0000
,
1000
0000
0001
0000
,
0100
0000
0110
0000
,
0010
0000
1000
0000
,
0100
0000
0010
0000
,
0001
0000
1000
0000
,
0001
0000
0010
0000
,
0100
0000
1000
0000
,
0010
0000
0110
0000
,
0000
0000
0110
0000
,
0000
0000
0001
0000
,
0010
0000
0100
0000
,
1000
0000
0001
0000
,
0001
0000
1000
0000
,
1000
0000
0100
0000
,
0010
0000
0001
0000
,
0001
0000
1001
0000
,
1001
0000
0010
0000
,
0010
0000
1001
0000
,
0001
0000
0010
0000
,
0001
0000
1000
0000
,
0010
0000
0100
0000
,
1000
0000
0001
0000
,
1000
0000
1001
0000
,
0000
0000
0001
0000
,
0001
0000
1000
0000
,
1000
0000
1001
0000
,
0000
0000
1001
0000
,
0000
0000
1001
0000
,
0000
0000
1001
0000
,
0000
0000
0010
0000
,
0100
0000
0000
0000
,
0000
0000
1000
0000
,
0001
0000
0000
0000
,
0000
0000
1001
0000
,
0100
0000
0010
0000
,
0001
0000
1000
0000
,
0001
0000
1001
0000
,
0000
0000
0110
0000
,
0000
0000
0110
0000
;

//---------------dance-single - ----------------
#NOTES:
     dance-single:
     :
     Easy:
     7:
     0.347,0.327,0.210,0.140,0.000:
1000
0000
0001
0000
0010
0000
0100
0010
,
0001
0000
1000
0000
0100
0000
0010
0100
,
0000
0000
0000
1001
0000
0000
0001
0000
,
1000
0000
0000
1001
0000
0000
0000
1001
,
0000
0000
0000
1001
0000
0000
0100
0000
,
0010
0000
0001
2000
0000
0000
0000
0000
,
0000
3000
0002
0000
,
0000
0000
2003
0000
,
0000
0000
0000
0000
3001
0000
0000
1000
,
0000
0000
0100
0000
0000
0010
0000
0000
,
0001
0000
0000
0000
1000
0000
0000
1001
,
0000
0000
0000
1001
0000
0000
0000
1001
,
0000
0000
0001
1000
,
0001
1000
0100
1000
,
0100
1000
0010
0100
,
0010
0100
0001
0000
,
0001
0000
1000
0100
,
1000
0001
1000
0100
,
1000
0010
0200
0000
,
0000
0310
2000
0000
,
0000
3000
1001
0001
,
0010
0001
0010
0001
,
1000
0100
0010
0001
,
0010
0001
0010
0001
,
0100
0010
1000
0010
,
1000
0010
1000
0100
,
0010
0001
1000
0001
,
1000
0100
1000
0001
,
1000
0100
0010
0001
,
0010
0001
0100
0010
,
0100
0010
1000
0100
,
1000
0100
1000
0001
,
1000
0001
0100
0001
,
0100
0001
0010
0100
,
0010
0000
0100
0000
1000
0000
0000
0001
,
0000
0001
0000
1000
0000
1000
0000
0000
,
0000
0000
0001
0100
,
0001
0100
0010
0100
,
0010
0100
0001
0010
,
0100
1000
0001
0010
,
0100
1000
0001
1000
,
0001
0010
0001
1000
,
0001
1000
1001
0000
,
1001
0000
0010
0010
,
0100
0100
0001
0010
,
0100
1000
0001
1000
,
0001
0100
0001
0001
,
1000
1000
0100
0010
,
0001
1000
0010
0100
,
0010
0100
0001
0100
,
0001
0100
0001
0010
,
0100
1000
0001
0010
,
0100
1000
0220
0000
,
0000
0330
2002
0000
,
0000
3003
0220
0000
,
0000
0330
2002
0000
,
0000
3003
1000
0001
,
0010
0000
0100
0010
0000
0000
0000
0000
,
0000
0000
0001
1000
,
0100
0000
0010
0100
0000
0000
0000
0000
,
0000
0000
0000
1001
0000
0000
1000
0000
,
0001
0000
0000
1001
0000
0000
0000
1001
,
0000
0000
0000
1001
0000
0000
0001
0000
,
0010
0000
0100
0020
0000
0000
0000
0000
,
0000
0030
1001
1000
,
0110
0001
0110
0000
;

//---------------dance-single - ----------------
#NOTES:
     dance-single:
     :
     Medium:
     11:
     0.539,0.523,0.270,0.180,0.135:
0001
0010
0100
1000
0001
0010
0100
1000
,
0001
0100
0010
1000
0001
0100
0010
1000
,
0000
0000
0000
1001
0000
1000
0001
0100
,
0000
0001
0010
0100
0000
1000
0001
0010
,
0000
0001
1000
0100
0000
0000
0000
1000
,
0001
0010
0100
2000
0000
0000
0000
0000
,
0000
0000
0000
0000
3000
0000
0000
0000
0001
0000
1000
0001
0000
1000
0010
0100
,
0000
0100
0000
0000
0000
0000
0000
0000
0001
0000
1000
0001
0000
0100
0001
0010
,
0000
0010
0000
0000
0000
0000
0000
0000
1001
0000
0000
0000
0000
0000
1001
0000
,
0000
0000
1100
0000
0000
1100
0000
0000
,
1001
0000
0000
0000
1001
0000
0000
0000
0011
0000
0000
0001
0000
0000
0001
0000
,
0000
0100
0010
0200
0000
0000
0000
0310
,
0000
0000
0000
0000
1000
0100
1000
0100
,
0010
0001
0010
0001
1000
0010
0100
0001
,
1000
0000
1000
0000
0001
0100
0001
0100
,
0010
1000
0010
0100
0000
0110
0000
0000
,
0010
0000
0100
0000
0001
0010
0001
0010
,
0100
0010
0100
1000
0010
1000
0010
0100
,
0001
0100
0010
1000
0200
0000
0000
0000
,
0000
1300
0001
0200
0000
0000
0000
0020
,
0000
0000
0330
0000
1000
0001
0010
0200
,
0000
0310
0001
1000
0000
0010
0100
0000
,
0001
0000
0000
1000
0000
0000
0001
0000
0001
0000
1000
0000
0010
0000
0200
0000
,
0000
0310
1000
0001
0000
0010
0100
1000
,
0000
1000
0100
0000
0010
0000
1000
0020
,
0000
0130
0001
0010
0000
0000
1000
0000
,
0100
0000
0001
0000
1001
0000
1000
0010
,
0000
0010
1000
0000
0100
0010
0000
0010
,
0001
0000
1001
0000
1000
0001
0100
0020
,
0000
0130
0001
2000
0000
3100
0010
0000
,
0001
0000
0000
1000
0000
0000
0001
0000
0001
0000
1000
0000
0100
0000
0020
0000
,
0000
0130
1000
0001
0000
0001
0100
0010
,
0000
0010
1000
0000
1001
0000
0001
0010
,
0000
0010
0100
0000
1000
0010
0000
0010
,
0100
0000
0110
0000
0010
0100
0000
0001
,
0000
1001
0000
1000
0000
0010
0100
0000
,
0000
0000
0000
0000
0000
0000
0000
0000
1001
0000
0000
1000
0000
0000
0001
0000
,
0000
0010
0000
0000
0001
0000
1000
0000
0100
0000
0000
1000
0000
0000
0010
0000
,
0000
0100
0000
0000
0010
0000
0000
0000
2000
0000
0000
0000
0001
0000
0000
0000
,
0010
0000
0000
0000
3001
0000
0100
0000
0010
0000
0000
1000
0000
0000
0100
0000
,
0000
0001
0000
0000
0100
0000
0000
0000
1000
0000
0000
0001
0000
0000
0100
0000
,
0000
0001
0000
0000
1000
0000
0000
0000
0010
0000
0000
0100
0000
0000
0001
0000
,
0000
0010
0000
0000
0100
0000
0000
0000
1000
0000
0010
0000
1000
0000
0010
0000
,
0100
0001
0100
0001
1000
0100
0001
0100
,
1000
0000
0010
0000
0100
0000
0010
0000
1000
0000
0000
0001
0000
0000
0010
0000
,
0000
0001
0000
0000
0010
0000
0100
0000
1000
0000
0000
0010
0000
0000
0100
0000
,
0000
0010
0000
0000
1000
0000
0000
0000
1002
0000
0000
0000
0100
0000
0000
0000
,
1000
0000
0000
0000
0103
0000
0001
0000
1000
0000
0000
0100
0000
0000
0010
0000
,
0000
0100
0000
0000
1000
0000
0000
0000
0001
0000
1000
0000
0100
0000
0010
0000
,
0000
0101
0000
0220
0000
0000
0000
0000
,
0000
0000
0330
0000
0100
1000
0001
0000
,
0010
0100
1000
0000
0010
0100
0001
0000
,
0100
0001
1000
0000
1001
0000
0001
0000
,
0001
0001
1001
1000
,
1000
1000
1001
0001
,
0010
1000
0010
0001
,
1000
0000
0001
0000
1000
0100
0010
0001
,
1000
0100
0010
0002
0000
0000
0000
0000
,
0000
0000
0003
0000
1000
0010
0100
0001
,
1000
0010
0100
0002
0000
0000
0000
0000
,
1003
0000
0000
1001
0000
0001
1000
0100
,
0000
1000
0100
0010
0000
0001
0010
0100
,
0000
1000
0001
0100
0000
0000
0000
0001
,
0100
0010
1000
0020
0000
0000
0000
0000
,
0000
0030
1001
1001
,
1001
0110
0110
0000
;

//---------------dance-single - ----------------
#NOTES:
     dance-single:
     :
     Hard:
     13:
     0.625,0.654,0.419,0.160,0.200:
0001
1000
0100
0010
0001
1000
0100
0010
,
0001
1000
0010
0100
0001
1000
0010
0100
,
0001
1000
0001
1001
0000
0001
0100
0010
,
0100
0001
1000
1010
0000
0010
0100
0101
,
0000
0001
1000
1100
0000
0010
0001
0010
,
0001
0100
0010
0220
0000
0000
0000
0000
,
0000
0000
0000
0000
0000
0000
0330
0000
0010
0100
1000
0001
0000
0001
1000
0100
,
0000
0001
0000
0100
1000
0001
0010
0100
1000
0001
0100
0010
0000
0010
1000
0100
,
0000
0001
0000
0100
1000
0001
0010
0100
1100
0000
0000
0000
0000
0000
0101
0000
,
0000
0000
0110
0000
0000
1010
0000
0000
,
0110
0000
0000
0000
0110
0000
0000
0000
0101
0000
0000
0001
0000
0000
1001
0000
,
0000
0010
0100
2020
0000
0000
3030
2002
,
0000
0000
0000
3003
1000
0010
0100
0001
,
1000
0010
0100
0001
0010
1000
0010
0001
,
0100
1000
0100
0001
0010
0100
0001
0100
,
1000
0001
1000
0010
0000
0010
0000
2000
,
0001
0000
3001
0000
1000
0100
0010
0001
,
1000
0100
0010
0001
0010
1000
0010
0001
,
0100
1000
0100
0001
2000
0000
0000
0000
,
0000
3001
1000
0200
0000
0000
1000
1300
,
0000
0000
0000
0000
0001
1000
0100
0010
,
0000
0010
0001
0100
0000
0100
0010
0000
,
1000
0000
0000
0100
0000
0000
0010
0000
0100
0000
1000
0000
0001
0000
0100
0000
,
0000
0100
0001
1000
0000
1000
0100
0010
,
0000
0001
0001
0000
0100
0000
0001
1000
,
0000
1000
0001
0100
0000
0000
0001
0000
,
0010
0000
0100
0000
1100
0000
1000
0010
,
0000
0010
0100
0000
0010
1000
0000
1000
,
0001
0000
1001
0000
0010
0001
0100
0010
,
0000
0010
1000
0200
0000
1000
1300
0000
,
0001
0000
0000
0100
0000
0000
0001
0000
1000
0000
0001
0000
0010
0000
0100
0000
,
0000
0100
1000
0001
0000
0001
0010
0200
,
0000
1000
1300
0000
0001
0000
0100
0001
,
0000
0001
1000
0000
0100
0010
0000
0010
,
0001
0000
1001
0000
1000
1010
0000
1001
,
0000
1001
0000
1001
0000
0101
0001
0000
,
0000
0000
0000
0000
0000
0000
0000
0000
1001
0000
0000
0001
0000
0000
1000
0000
,
0000
0010
0000
0000
0100
0000
0001
0000
0010
0000
0000
0100
0000
0000
1000
0000
,
0000
0001
0000
0000
0010
0000
0000
0001
1000
0000
0000
0000
0100
0000
0010
0000
,
0000
0001
0000
0000
0100
0000
0010
0000
1000
0000
0000
0100
0000
0000
0010
0000
,
0000
0001
0000
0000
1000
0000
0000
0000
0001
0000
0000
0100
0000
0000
0001
0000
,
0000
1000
0000
0000
0010
0000
0100
0000
0001
0000
0000
1000
0000
0000
0100
0000
,
0000
0010
0000
0000
0001
0000
1000
0000
0001
0000
0100
0000
0001
0000
0100
0000
,
0001
1000
0001
1000
0001
0010
0100
1000
,
0001
0000
0010
0000
0100
0000
1000
0000
0001
0000
0000
0100
0000
0000
0001
0000
,
0000
1000
0000
0000
0100
0000
1000
0000
0001
0000
0000
0010
0000
0000
0100
0000
,
0000
0010
0000
0000
0001
0000
0000
1000
0010
0000
0000
0100
0000
0000
0001
0000
,
0000
1000
0000
0000
0100
0000
1000
0000
0010
0000
0000
0100
0000
0000
0001
0000
,
0000
0010
0000
0000
0100
0000
0000
0000
1000
0000
0001
0000
0010
0000
0100
0000
,
0000
1000
0000
0002
0000
0000
1000
0000
,
0000
1003
1001
1010
,
1001
0101
1001
0011
,
1001
0000
1100
0000
1000
0100
1000
0100
,
1000
0100
1000
0100
0001
1000
0001
1000
,
0001
1000
0001
1000
0001
0100
0001
0100
,
0001
0100
0001
0100
1000
0001
1000
0001
,
1000
0001
1000
0001
1000
0100
0010
0001
,
1000
0100
0010
0002
0000
0000
0000
0000
,
0000
0000
0000
0000
1003
0010
0100
0001
,
1000
0010
0100
0002
0000
0000
0000
0000
,
1003
0001
0100
0101
0000
0001
1000
0100
,
0010
0001
1000
1010
0000
0100
0001
1001
,
0000
0100
1000
1010
0000
0100
0001
1000
,
0100
0010
0001
2002
0000
0000
0000
0000
,
0000
3003
1001
1100
,
0101
1010
0110
0000
;

//---------------dance-double - ----------------
#NOTES:
     dance-double:
     :
     Easy:
     7:
     0.378,0.393,0.280,0.220,0.010:
10000000
00000000
01000000
00000000
00100000
00000000
00010000
10000000
,
00001000
00000000
00000100
00000000
00000010
00000000
00000001
00001000
,
00000000
00000000
00000000
00001001
00000000
00000000
00000001
00000000
,
00001000
00000000
00000000
00001001
00000000
00000000
00000000
00001001
,
00000000
00000000
00000000
00000110
00000000
00000000
00000001
00000000
,
00010000
00000000
00001000
00020000
00000000
00000000
00000000
00000000
,
00000000
00000000
00000000
00000000
00030000
00000000
00000000
00000000
00002000
00000000
00000000
00000000
00000000
00000000
00000000
10003000
,
00000000
00000000
00000000
00000000
00000000
00000000
00000000
00000000
00200000
00000000
00000000
00000000
00000000
00000000
00000000
01300000
,
00000000
00000000
02000000
00100000
,
03002000
00100000
02003000
00100000
,
03002000
00100000
00013000
00100000
,
01000000
10000000
00020000
00000000
,
10030000
00000000
00010000
01000000
,
00100000
01000000
00010000
00100000
,
00001000
00010000
00000100
00000010
,
00000001
00000010
00000100
00000010
,
00000001
00000001
00000200
00000010
,
00020300
00000010
00030200
00000010
,
00020300
00000010
00031000
00000010
,
00000100
00001000
00000100
00000010
,
00000001
00000000
00001001
00000010
,
00000100
00000010
00000001
00000010
,
00000100
00001000
00010000
01000000
,
00100000
10000000
00010000
00100000
,
01000000
00100000
00010000
10000000
,
00001000
00100000
00001000
10000000
,
01000000
00100000
00001000
00010000
,
00000010
00010000
00001000
00010000
,
00000010
00000010
00000100
00000001
,
00000010
00000100
00000010
00000001
,
00001000
00010000
01000000
00100000
,
10000000
01000000
10000000
00010000
,
01000000
00010000
10000000
01000000
,
00100000
00001000
00010000
00000010
,
00000100
00000000
00000010
00000000
00000100
00000000
00000000
00000010
,
00000000
00000010
00000000
00000110
00000000
00000000
00001001
00000000
,
00000000
00000000
00001001
00001000
,
00000100
00010000
00001000
00010000
,
01000000
00100000
10000000
00100000
,
01000000
00100000
10000000
01000000
,
00100000
00001000
00010000
00001000
,
00000100
00000010
00000002
00001000
,
00001000
00001003
00001001
00000000
,
00001001
00000000
00000001
00000001
,
00001000
00001000
00001001
00000010
,
00000100
00010000
00001000
00100000
,
01000000
10000000
00020000
10000000
,
10000000
10030000
00010000
01000000
,
00001000
00010000
00011000
00000100
,
00000010
00000001
00002000
00000000
,
00000000
00003000
00000110
00000000
,
00000110
00000000
00001001
00000000
,
00001001
00000000
00022000
00000000
,
00000000
00033000
02200000
00000000
,
00000000
03300000
10010000
00000000
,
10010000
00000000
20020000
00000000
,
00000000
30030000
10000000
01000000
,
00100000
00000000
00010000
10000000
00000000
00000000
00000000
00000000
,
00000000
00000000
00001000
00000100
,
00000010
00000000
00000001
00001000
00000000
00000000
00000000
00000000
,
00000000
00000000
00000000
00001001
00000000
00000000
00000010
00000000
,
00000100
00000000
00000000
00000110
00000000
00000000
00000000
00000110
,
00000000
00000000
00000000
00000110
00000000
00000000
00000100
00000000
,
00010000
00000000
00001000
00020000
00000000
00000000
00000000
00000000
,
00000000
00030000
00011000
01000000
,
01100000
10000000
10010000
00000000
;

//---------------dance-double - ----------------
#NOTES:
     dance-double:
     :
     Medium:
     11:
     0.561,0.523,0.290,0.380,0.100:
00000001
00000010
00000100
00001000
00000100
00000010
00000001
00010000
,
00001000
01000000
00100000
10000000
00100000
01000000
00001000
00010000
,
00000000
00000000
00000000
10010000
00000000
10000000
00100000
01000000
,
10000000
01000000
00100000
00010000
00000000
00001000
00000100
00000010
,
00000000
00000001
00000100
00000010
00000000
00001000
00000010
00000100
,
00000001
00010000
00001000
00020000
00000000
00000000
00000000
00000000
,
00000000
00000000
00000000
00000000
00030000
00000000
00000000
00000000
00000001
00000000
00000010
00000001
00000000
00000010
00000100
00001000
,
00000000
00011000
00000000
00000000
00000000
00000000
00000000
00000000
10000000
00000000
00100000
01000000
00000000
00100000
10000000
01000000
,
00000000
00101000
00000000
00000000
00000000
00000000
00000000
00000000
00011000
00000000
00000000
00000000
00000000
00000000
00010010
00000000
,
00000000
00000000
00000110
00000000
00000000
00000101
00000000
00000000
,
00000110
00000000
00000110
00000000
00001001
00000000
00000000
00001001
,
00000000
00000001
00000100
00000020
00000000
00000000
00000000
00010030
,
00000000
00000000
00000000
00000000
00100000
10000000
00010000
01000000
,
00010000
10000000
01000000
10000000
00010000
00100000
00010000
10000000
,
00010000
01000000
00001000
00010000
00000010
00001000
00000001
00000100
,
00000001
00001000
00000100
00000010
00000000
00000001
00000000
00002000
,
00000010
00000000
00003010
00000000
00000010
00010000
00000010
00001000
,
00000001
00001000
00000100
00010000
00000100
00001000
00000001
00001000
,
00000100
00010000
00001000
00100000
00010000
00000000
01000000
00000000
,
10000000
00100000
01000000
00010000
00000000
10000000
01000000
00200000
,
00000000
00000000
01300000
00000000
00010000
10000000
01000000
00200000
,
00000000
01300000
10000000
00001000
00000000
00010000
00000010
00000000
,
00001000
00000000
00000000
00000001
00000000
00000000
00001000
00000000
00001000
00000000
00000100
00000000
00000010
00000000
00000002
00000000
,
00000000
00000013
00000001
00001000
00000000
00000001
00010000
00001000
,
00000000
00100000
01000000
00000000
10000000
00000000
00100000
02000000
,
00000000
03100000
10000000
01000000
00000000
00000000
10000000
00000000
,
00100000
00000000
01000000
00000000
00001000
00000000
00010000
00001000
,
00000000
00001000
00000010
00000000
00000100
00000001
00000000
00000001
,
00001000
00000000
00001001
00000000
00001000
00000001
00000010
00000200
,
00000000
00000310
00000001
00002000
00000000
00003010
00000100
00000000
,
00000001
00000000
00000000
00001000
00000000
00000000
00001000
00000000
00000100
00000000
00010000
00000000
00001000
00000000
02000000
00000000
,
00000000
03100000
10000000
01000000
00000000
10000000
00010000
00100000
,
00000000
00010000
10000000
00000000
00100000
00000000
00100000
01000000
,
00000000
01000000
00010000
00000000
00100000
00001000
00000000
00001000
,
00010000
00000000
00011000
00000000
00010010
00000000
00000000
00000110
,
00000000
00000110
00000000
00000110
00000000
00000000
00001001
00000000
,
00000000
00000000
00000000
00000000
00000000
00000000
00000000
00000000
00000010
00000000
00000000
00001000
00000000
00000000
00000100
00000000
,
00000000
00001000
00000000
00000000
00000001
00000000
00000100
00000000
00000010
00000000
00000000
00010000
00000000
00000000
00001000
00000000
,
00000000
00100000
00000000
00000000
01000000
00000000
00000000
00000000
20000000
00000000
00000000
00000000
30200000
00000000
00000000
00000000
,
02300000
00000000
03010000
10000000
00200000
00000000
02300000
00000000
,
03002000
00000000
00000000
00000000
00013000
00000000
00000000
00000000
00000001
00000000
00000000
00000010
00000000
00000000
00000001
00000000
,
00000000
00001000
00000000
00000000
00000100
00000000
00010000
00000000
00002000
00000000
00000000
00000000
00203000
00000000
00000000
00000000
,
02300000
00000000
23000000
00000000
30010000
10000000
00100000
00000000
,
10000000
00010000
00100000
00000000
00001000
00010000
00001000
00010000
,
00000100
00000000
00000010
00000000
00000100
00000000
00000000
00000000
00000110
00000000
00000000
00000010
00000000
00000000
00000100
00000000
,
00000000
00000001
00000000
00000000
00010000
00000000
00001000
00000000
00100000
00000000
00000000
01000000
00000000
00000000
10000000
00000000
,
00000000
01000000
00000000
00000000
00100000
00000000
00000000
00000000
00020000
00000000
00000000
00000000
02030000
00000000
00000000
00000000
,
03002000
00000000
00013000
00000100
00000020
00000000
00000032
00000000
,
00002003
00000000
00003010
00000000
00000100
00000010
00000100
00000001
,
00000000
00001001
00000000
00020100
00000000
00000000
00000000
00000000
,
00000000
00000000
00030000
00000000
00001000
10000000
01000000
00000000
,
00100000
00010000
10000000
00000000
00100000
10000000
00010000
00000000
,
00000010
00000100
00001000
00000000
00022000
00000000
00000000
00000000
,
00000000
00033000
00202000
00000000
,
00000000
00303000
00020200
00000000
,
00000000
00030300
00022000
00000000
,
00000000
00000000
00033000
00000000
00100000
00010000
01000000
00010000
,
10000000
01000000
00010000
00002000
00000000
00000000
00000000
00000000
,
00000000
00003000
00000000
00000000
00010000
00001000
00000100
00000001
,
00001000
00000100
00000010
00000002
00000000
00000000
00000000
00000000
,
00000000
00000003
00000000
00000110
00000000
00001000
00000010
00001000
,
00000001
00000100
00000010
00001000
00000000
00010000
01000000
00100000
,
00000000
10000000
01000000
00100000
00000000
00010000
00100000
01000000
,
10000000
00010000
00100000
02000000
00000000
00000000
00000000
00000000
,
00000000
03000000
10010000
01000000
,
01001000
00001000
00011000
00000000
;

//---------------dance-double - ----------------
#NOTES:
     dance-double:
     :
     Hard:
     14:
     0.609,0.556,0.340,0.130,0.175:
00010000
10000000
01000000
00100000
01000000
10000000
00010000
01000000
,
00001000
00010000
00000001
00000100
00000001
00001000
00000100
00010000
,
00000000
00000000
00000000
01100000
00000000
01000000
00100000
00010000
,
00000000
00001000
00010000
00010010
00000000
00001000
00000010
00000110
,
00000000
00000001
00001000
00001100
00000000
00000010
00000001
00000100
,
00000010
00010000
00001000
00020000
00000000
00000000
00000000
00000000
,
00000000
00000000
00000000
00000000
00030000
00000000
00000000
00000000
00000010
00000001
00000010
00000100
00000000
00010000
00001000
01000000
,
00000000
01000000
00000000
00000000
00000000
00000000
00000000
00000000
00010000
10000000
00010000
00100000
00000000
00001000
00010000
00000100
,
00000000
00000100
00000000
00000000
00000000
00000000
00000000
00000000
00001001
00000000
00000000
00000000
00000000
00000000
00000101
00000000
,
00000000
00000000
00011000
00000000
00000000
01100000
00000000
00000000
,
10010000
00000000
00000000
00000000
10010000
00000000
00000000
00000000
01100000
00000000
00000000
00100000
00000000
00000000
10100000
00000000
,
00000000
10000000
00010000
10000000
01000000
00100000
00001000
00010000
,
00000000
00000000
00000000
00000000
00001000
00000100
00000010
00000100
,
00001000
00000010
00000100
00000010
00010000
00001000
01000000
00100000
,
01000000
00001000
00100000
01000000
00100000
00001000
00010000
00000100
,
00000010
00000001
00000010
00000100
00000000
00010100
00000000
00000000
,
00100000
00000000
01000000
00000000
10000000
00100000
01000000
00100000
,
00000000
10000000
01000000
00000000
00100000
01000000
10000000
00001000
,
00100000
00001000
00010000
00000100
00000010
00000001
00001000
00000001
,
00001000
00000100
00000010
00000002
00000000
00001003
00000010
00000200
,
00000000
00000000
00000000
00000000
00000301
00001000
00000100
00000020
,
00000000
00001030
00010000
00002000
00000000
00103000
01000000
00000000
,
10000000
00000000
00000000
00010000
00000000
00000000
01000000
00000000
00100000
00000000
10000000
00000000
00010000
00000000
02000000
00000000
,
00000000
03100000
10000000
00010000
00000000
10000000
01000000
00010000
,
00000000
00001000
00010000
00000000
00011000
00000000
00001000
00000200
,
00000000
00000301
00001000
00000100
00000000
00000100
00000010
00000100
,
00000001
00000100
00000010
00000100
00001000
00000001
00000010
00000100
,
00000010
00000001
00010000
00000010
00000100
00000010
00010000
00001000
,
00100000
00000000
00110000
00000000
10000000
00010000
01000000
20000000
,
00000000
31000000
00010000
20000000
00000000
31000000
00100000
00000000
,
00010000
00000000
00000000
01000000
00000000
00000000
00100000
00000000
10000000
00000000
01000000
00000000
00100000
00000000
00020000
00000000
,
00000000
01030000
00001000
00010000
00000000
00010000
00001000
00000010
,
00000000
00000010
00000001
00000000
00000010
00000001
00001000
00000100
,
00010000
00001000
00100000
00010000
00100000
00010000
10000000
00100000
,
10100000
00000000
01100000
00000000
00010000
00010000
00000000
01010000
,
00000000
01001000
00000000
00011000
00000000
00010000
00010000
00000000
,
00000000
00000000
00000000
00000000
00000000
00000000
00000000
00000000
00001001
00000000
00000000
00001000
00000000
00000000
00000001
00000000
,
00000000
00000010
00000000
00000000
00000001
00000000
00000100
00000000
00000010
00000000
00000000
00010000
00000000
00000000
00001000
00000000
,
00000000
00100000
00000000
00000000
01000000
00000000
10000000
00010000
10000000
00000000
00000000
00100000
00000000
00000000
01000000
00000000
,
00000000
00001000
00000000
00000000
00010000
00000000
00000100
00000000
00000010
00000000
00000000
00000001
00000000
00000000
00010000
00000000
,
00000000
00000010
00000000
00000000
00001000
00000000
00000000
00000000
00000001
00000000
00000000
00000100
00000000
00000000
00000010
00000000
,
00000000
00010000
00000000
00000000
00001000
00000000
00000000
00000000
01000000
00000000
00000000
00100000
00000000
00000000
10000000
00000000
,
00000000
01000000
00000000
00000000
00100000
00000000
01000000
00000000
10000000
00000000
00010000
00000000
10000000
00000000
00010000
00000000
,
00100000
00001000
00100000
00001000
00010000
00010000
00000100
00000100
,
00000010
00000000
00000010
00000000
00000001
00000000
00000001
00000000
00001000
00000000
00000000
00000010
00000000
00000000
00000100
00000000
,
00000000
00000001
00000000
00000000
00010000
00000000
00001000
00000000
00100000
00000000
00000000
01000000
00000000
00000000
10000000
00000000
,
00000000
00010000
00000000
00000000
01000000
00000000
00100000
01000000
00100000
00000000
00000000
10000000
00000000
00000000
01000000
00000000
,
00000000
00100000
00000000
00000000
01000000
00000000
10000000
00000000
00001000
00000000
00000000
00010000
00000000
00000000
00000010
00000000
,
00000000
00000100
00000000
00000000
00000010
00000000
00000000
00000000
00001000
00000000
00000001
00000000
00000010
00000000
00000100
00000000
,
00000000
00010100
00000000
00022000
00000000
00000000
00000000
00000000
,
00000000
00000000
00033000
00000000
01000000
00100000
10000000
00000000
,
00100000
01000000
00001000
00000000
00010000
00001000
00000100
00000000
,
00000010
00000001
00000100
00000000
00001001
00000000
00000010
00000000
,
00000100
00001000
00011000
00100000
,
01000000
00000000
10000000
00000000
00010000
01000000
00010000
01000000
,
00001000
00010000
00001000
00010000
00000010
00000100
00000010
00000100
,
00000001
00001000
00000001
00001000
00000001
00000010
00000100
00001000
,
00000001
00000010
00000100
00001000
00000000
00000000
00010000
00000000
,
01000000
00000000
00100000
00000000
10000000
01000000
00100000
00010000
,
10000000
01000000
00100000
00010000
00001000
00000000
00001000
00000000
,
00001000
00000000
00000000
00011000
00000000
00010000
00000100
00000010
,
00000000
00001000
00000100
00010100
00000000
00001000
01000000
01100000
,
00000000
10000000
00010000
00110000
00000000
01000000
10000000
00100000
,
01000000
00100000
01000000
00002000
00000000
00000000
00000000
00000000
,
00000000
00003000
00011000
01001000
,
01100000
10010000
00110000
00000000
;

//---------------dance-single - ----------------
#NOTES:
     dance-single:
     :
     Challenge:
     14:
     0.789,0.818,0.519,0.340,0.330:
0001
1000
0010
0001
0010
1000
0001
0100
,
0001
1000
0100
0001
0100
1000
0010
0100
,
0001
1000
0001
1000
0001
0000
0101
0000
0000
0000
0100
0010
0100
0000
0001
0000
,
1000
0100
0010
0011
0000
0100
1000
1001
,
0000
0010
0100
0101
0000
0001
1000
0100
,
1000
0001
0100
0202
0000
0000
0000
0000
,
0000
0000
0000
0000
0303
0000
0000
0000
0001
1000
0100
0010
0000
0010
0001
1000
,
0000
1001
0000
0001
0010
1000
0010
0001
1000
0100
0010
0001
0000
0001
1000
0010
,
0000
1010
0000
1000
0100
0001
0100
1000
1001
0000
0001
0000
1000
0000
1100
0000
,
0100
0010
0011
0001
1000
1001
0001
0100
,
0101
0000
0000
0000
0101
0000
0000
0000
0110
0000
0000
0110
0000
0000
1001
0000
,
0000
0000
0001
0000
0100
0000
0101
0000
0001
0000
1000
0000
0100
1000
0020
0000
,
0000
0000
0000
0000
0130
0001
0100
1000
,
0001
0010
1000
0001
1000
0100
0001
0100
,
1000
0001
1000
0010
1000
0100
0001
1000
,
0010
0001
1000
1010
0000
0110
0000
0100
,
0001
0000
0010
0100
1000
0000
0001
0000
1000
0000
0100
0000
0001
0000
1000
0000
,
0010
0001
1000
0001
1000
0010
0001
0010
,
1000
0100
0010
0001
1000
0100
1000
0100
,
1000
0000
0001
0000
0100
0000
0020
0000
0000
0000
0000
0000
1030
0100
0020
0000
,
0000
0001
0000
0031
1000
0001
0100
1000
,
0000
0100
0001
2000
0000
0001
3001
0000
,
0101
0000
0000
0001
0000
0000
1000
0000
0001
0000
1000
0000
0010
0000
0001
0000
,
0000
0010
1000
0002
0000
0013
0100
2000
,
0000
0010
3010
0000
1000
0001
0010
0100
,
1000
0100
0010
0001
1000
0000
1100
0000
,
0011
0000
0110
0000
1000
0001
0100
0010
,
1000
0010
0100
0001
1000
0100
0001
0100
,
1000
0010
0110
0000
0101
0001
1000
0100
,
0000
0001
0100
2000
0000
0001
3001
0000
,
0011
0000
0000
0001
0000
0000
1000
0000
0001
0000
1000
0000
0100
0000
0001
0000
,
0000
0100
1000
0001
0000
0010
0100
2000
,
0000
0001
3001
0000
0100
0001
0010
0100
,
1000
0100
0010
0001
1000
0001
0100
0010
,
1000
0010
0110
0000
0101
1001
0000
1001
,
0000
1100
0000
1100
0000
1100
2002
0000
,
0000
0000
0000
0000
3003
0000
0000
0000
0001
0100
0000
0010
1000
0000
0100
0010
,
0000
0001
0010
0000
0100
0000
1000
0000
0001
0100
0000
0001
1000
0000
0100
0010
,
0000
0100
1000
0000
0001
0000
0100
0001
2000
0000
0000
3100
0001
0000
0200
0000
,
0000
2300
0000
0000
3001
0000
0010
0000
0002
0000
0000
0013
1000
0000
0020
0000
,
0000
0032
0000
0000
1003
0000
0000
0000
0001
0100
0000
0010
0100
0000
0010
1000
,
0000
0100
1000
0000
0001
0010
0100
0000
2000
0000
0000
3010
0200
0000
0302
0000
,
0000
2003
0000
0000
3010
0000
1000
0000
1001
0000
0001
0000
1000
0000
0001
0000
,
0010
0100
0010
0100
1000
1000
1000
1000
,
0001
0000
0001
0000
0001
0000
0001
0000
1000
0010
0000
1000
0001
0000
0010
0100
,
0000
1000
0010
0000
0100
0000
0001
0000
0010
0100
0000
1000
0001
0000
0100
0001
,
0000
1000
0100
0000
1000
0000
0001
0010
0200
0000
0000
1300
0001
0000
0020
0000
,
0000
0230
0000
0000
1300
0000
0001
0000
0200
0000
0000
0301
1000
0000
0020
0000
,
0000
0230
0000
0000
0302
0000
0000
0000
1003
0000
1000
0000
0001
0000
0101
0000
,
0000
0110
0000
1020
0000
0000
0100
0000
,
1000
0000
0130
0000
1001
0001
0100
0010
,
1010
1000
0001
0010
0110
0100
1000
0010
,
0110
0100
0001
1000
0001
0010
1000
0010
,
0001
0010
1000
0010
0001
0100
0010
0100
,
0001
0100
0010
0100
0001
0100
1000
0100
,
0001
0100
1000
0100
0001
0010
0100
0010
,
0001
0010
0100
0010
0001
1000
0100
0001
,
1000
0010
0001
2000
0000
0000
0001
0000
,
0001
0000
3001
0000
1000
0001
0100
1000
,
0001
0010
1000
0002
0000
0000
1000
0000
,
1003
0010
1000
0010
1000
0000
1001
0000
0000
0000
0001
0100
0010
0000
0100
0000
,
0001
0000
1000
0100
1000
0000
1001
0000
0000
0000
0001
0100
0010
0000
0110
0000
,
0000
0000
1000
0100
0010
0000
0110
0000
0000
0000
0100
0000
0001
0000
0010
0100
,
1000
0000
0100
1000
0001
0000
2002
0000
0000
0000
0000
0000
0000
0000
0000
0000
,
0000
3003
0011
0101
,
0110
1010
1100
0000
;

//---------------dance-double - ----------------
#NOTES:
     dance-double:
     :
     Challenge:
     15:
     0.769,0.720,0.479,0.320,0.330: // measure 1
00010000
10000000
00100000
00010000
00100000
10000000
00010000
00001000
,  // measure 2
00000001
00001000
00000100
00000001
00000100
00001000
00000010
00000100
,  // measure 3
00000001
00001000
00000001
00001000
00000001
00000000
00001001
00000000
00000000
00000000
00010000
00001000
00010000
00000000
00100000
00000000
,  // measure 4
01000000
10000000
00001000
00101000
00000000
00010000
00000010
00000110
,  // measure 5
00000000
00000001
00010000
00010100
00000000
00010000
00100000
01000000
,  // measure 6
10000000
00001000
00100000
00202000
00000000
00000000
00000000
00000000
,  // measure 7
00000000
00000000
00000000
00000000
00303000
00000000
00000000
00000000
00001000
10000000
01000000
00100000
00000000
00100000
00010000
10000000
,  // measure 8
00000000
10010000
00000000
10000000
00100000
01000000
00001000
00010000
00000010
00001000
00000100
00000010
00000000
00000010
00000001
00001000
,  // measure 9
00000000
00001001
00000000
00000001
00000100
00010010
00001000
01000000
00100000
00000000
10000000
00000000
01000000
00000000
01000000
00000000
,  // measure 10
00100000
00001000
00001000
00010000
00000010
00000010
00000100
00000001
,  // measure 11
00001001
00000000
00000000
00000000
00001001
00000000
00000000
00000000
00001010
00000000
00000000
00010010
00000000
00000000
00011000
00000000
,  // measure 12
00000000
00000000
01000000
00000000
00100000
00000000
01200000
00000000
00000000
00000000
00000000
00000000
10300000
00010000
20000000
00000000
,  // measure 13
00000000
00000000
00000000
30000000
00010000
10000000
00010000
00100000
,  // measure 14
00000100
00001000
00000010
00000100
00000001
00000010
00001000
00000010
,  // measure 15
00000001
00000100
00000010
00001000
00010000
00100000
01000000
10000000
,  // measure 16
00100000
00010000
00100000
10100000
00000000
10001000
00000000
00001000
,  // measure 17
00010000
00000000
00000010
00001000
00000010
00000000
00001000
00000000
00000001
00000000
00000010
00000000
00000100
00000000
00010000
00000000
,  // measure 18
00001000
01000000
00100000
10000000
01000000
00010000
01000000
10000000
,  // measure 19
00100000
01000000
00001000
00010000
00000100
00000010
00000100
00000010
,  // measure 20
00000100
00000000
00001000
00000000
00000001
00000000
00000200
00000000
00000000
00000000
00000000
00000000
00000301
00010000
00002000
00000000
,  // measure 21
00000000
00000000
00000000
00000000
00013000
00001000
00100000
01000000
,  // measure 22
00000000
10000000
00100000
02000000
00000000
00001000
03001000
00000000
,  // measure 23
00011000
00000000
00000000
00010000
00000000
00000000
00000010
00000000
00000100
00000000
00000001
00000000
00001000
00000000
00000100
00000000
,  // measure 24
00000000
00001000
00010000
02000000
00000000
03100000
10000000
00002000
,  // measure 25
00000000
00010000
00013000
00000000
00000100
00000010
00000001
00000010
,  // measure 26
00000100
00010000
00001000
00100000
01000000
00000000
01100000
00000000
,  // measure 27
10100000
00000000
01001000
00000000
00001000
00010000
00000100
00000001
,  // measure 28
00000100
00010000
00001000
00100000
10000000
00100000
00001000
00010000
,  // measure 29
00001000
00010000
00010010
00000000
00000110
00000010
00001000
00000100
,  // measure 30
00000000
00000001
00000100
00002000
00000000
00000001
00003001
00000000
,  // measure 31
00010010
00000000
00000000
00010000
00000000
00000000
00001000
00000000
01000000
00000000
00100000
00000000
10000000
00000000
01000000
00000000
,  // measure 32
00000000
00010000
01000000
10000000
00000000
01000000
00100000
00002000
,  // measure 33
00000000
00010000
00013000
00000000
00000010
00001000
00000100
00000010
,  // measure 34
00000001
00000010
00000100
00010000
00001000
01000000
00100000
10000000
,  // measure 35
00100000
01000000
00001000
00000000
01001000
00011000
00000000
00011000
,  // measure 36
00000000
00010010
00000000
00010010
00000000
00010010
00000220
00000000
,  // measure 37
00000000
00000000
00000000
00000000
00000330
00000000
00000000
00000000
00000001
00000100
00000000
00000010
00001000
00000000
00000100
00000010
,  // measure 38
00000000
00000001
00000010
00000000
00000100
00000000
00010000
00000000
00001000
00010000
00000000
00100000
01000000
00000000
10000000
00100000
,  // measure 39
00000000
01000000
00100000
00000000
10000000
00000000
00010000
00100000
00010000
00000000
00000000
01000000
00100000
00000000
20000000
00000000
,  // measure 40
00000000
32000000
00000000
00000000
03100000
00000000
00001000
00000000
00020000
00000000
00000000
00030010
00000100
00000000
00000020
00000000
,  // measure 41
00000000
00002030
00000000
00000000
00003001
00000000
00000000
00000000
00001000
00000100
00000000
00001000
00000001
00000000
00010000
00001000
,  // measure 42
00000000
00100000
01000000
00000000
10000000
00100000
10000000
00000000
00001000
00000000
00000000
01000000
00100000
00000000
20000000
00000000
,  // measure 43
00000000
32000000
00000000
00000000
03100000
00000000
00001000
00000000
00011000
00000000
00010000
00000000
00000010
00000000
00000100
00000000
,  // measure 44
00000001
00000100
00000010
00010000
00001000
00001000
00001000
00001000
,  // measure 45
00010000
00000000
00010000
00000000
00010000
00000000
00010000
00000000
00000010
00000100
00000000
00000001
00000010
00000000
00000100
00001000
,  // measure 46
00000000
00010000
01000000
00000000
00100000
00000000
10000000
00000000
01000000
00100000
00000000
01000000
10000000
00000000
00010000
01000000
,  // measure 47
00000000
00001000
00010000
00000000
00001000
00000000
00000010
00000100
00000020
00000000
00000000
00000130
00000001
00000000
00000020
00000000
,  // measure 48
00000000
00000230
00000000
00000000
00010300
00000000
00001000
00000000
02000000
00000000
00000000
03100000
10000000
00000000
02000000
00000000
,  // measure 49
00000000
23000000
00000000
00000000
30020000
00000000
00000000
00000000
00130000
00000000
00100000
00000000
00001000
00000000
00011000
00000000
,  // measure 50
00000000
00010010
00000000
00000120
00000000
00000000
00000100
00000000
,  // measure 51
00000100
00000000
00000130
00000000
00001001
00000001
00010000
00000000
,  // measure 52
00011000
00001000
01000000
00000000
01100000
00100000
10000000
00000000
,  // measure 53
10010000
10000000
00001000
00000000
00010000
00000010
00000100
00000010
,  // measure 54
00010000
00000010
00000100
00000010
00010000
00001000
00100000
01000000
,  // measure 55
00100000
00001000
00100000
01000000
00100000
00001000
00010000
00000100
,  // measure 56
00000010
00000001
00000010
00000100
00010000
00001000
01000000
00100000
,  // measure 57
10000000
00100000
01000000
00010000
00001000
00000100
00000001
00000100
,  // measure 58
00001000
00000001
00000100
00000002
00000000
00000000
00001000
00000000
,  // measure 59
00001000
00000000
00001003
00000000
00000001
00000010
00001000
00000010
,  // measure 60
00000001
00001000
00000010
00020000
00000000
00000000
00001000
00000000
,  // measure 61
00031000
00010000
00001000
00010000
00001000
00000000
10001000
00000000
00000000
00000000
10000000
01000000
00100000
00000000
01000000
00000000
,  // measure 62
10000000
00000000
00010000
01000000
00010000
00000000
10010000
00000000
00000000
00000000
00100000
00001000
00100000
00000000
00101000
00000000
,  // measure 63
00000000
00000000
00000010
00000100
00000010
00000000
00000110
00000000
00000000
00000000
00000100
00000000
00000001
00000000
00000010
00000100
,  // measure 64
00001000
00000000
00010000
00000100
00010000
00000000
00022000
00000000
00000000
00000000
00000000
00000000
00000000
00000000
00000000
00000000
,  // measure 65
00000000
00033000
01001000
01100000
,  // measure 66
10100000
01001000
00011000
00000000
;
