#TITLE:SPICY PIECE;
#SUBTITLE:(Ryu☆Remix);
#ARTIST:Ryu☆;
#TITLETRANSLIT:;
#SUBTITLETRANSLIT:(Ryu*Remix);
#ARTISTTRANSLIT:Ryu*;
#CREDIT:DigiMindAxel;
#BANNER:SPICY PIECE (Ryu Remix).png;
#BACKGROUND:SPICY PIECE (Ryu Remix)-bg.png;
#LYRICSPATH:SPICY PIECE (Ryu Remix).lrc;
#CDTITLE:pop'n music.png;
#MUSIC:SPICY PIECE (Ryu Remix).ogg;
#METERTYPE:DDR X;
#OFFSET:-3.825;
#SAMPLESTART:24.488;
#SAMPLELENGTH:12.000;
#SELECTABLE:YES;
#BPMS:0.000=156.000,7.000=90.000,11.000=180.000,39.000=90.000,43.000=180.000,160.000=90.000,196.000=180.000;
#STOPS:43.000=1.660
,192.500=1.340
,194.500=1.340
;
#BGCHANGES:;

//---------------dance-single - ----------------
#NOTES:
     dance-single:
     :
     Easy:
     6:
     0.286,0.348,0.309,0.159,0.000:
0000
0000
0000
0000
,
0000
0000
0000
0000
,
0000
0000
0000
1000
,
1000
1000
1000
0200
,
0000
0300
0000
0010
,
0010
0010
0010
0002
,
0000
0003
0000
1000
,
1001
1000
1001
0001
,
1001
0001
1001
0220
,
0000
0000
0330
1001
,
0000
0000
0000
0000
,
0000
0000
0000
0000
,
1001
1001
1001
0000
,
1000
0001
0100
0100
,
0001
1000
0010
0010
,
1000
0001
0100
0100
,
2002
0000
0000
3003
,
1000
1000
0010
0100
,
0001
0001
0100
0010
,
0100
0100
0001
1000
,
0010
0010
0110
0000
,
0100
0010
0100
0100
,
0001
1000
1001
0000
,
1000
0001
0100
0100
,
0220
0000
0000
0330
,
0001
0001
0100
0100
,
0010
0010
1000
1000
,
0100
0100
1000
1000
,
1001
0000
0110
0000
,
0100
0100
0010
0010
,
1000
1000
1001
0000
,
0001
0001
0100
0100
,
0220
0000
0000
0330
,
2001
0000
0000
0000
,
3010
0000
0100
0001
,
2000
0000
0000
0000
,
3010
0100
0010
0000
,
1002
0000
0000
0000
,
0103
0000
0010
1000
,
0002
0000
0000
1003
,
1001
0000
0000
0000
,
0000
1000
0000
1000
,
0000
0001
0000
0001
,
0000
1000
0000
0001
,
0000
1000
0000
1001
,
0000
0001
0000
0010
,
0000
0100
0000
1000
,
0000
0010
0000
0010
,
0110
0010
0110
0000
,
1001
1001
1001
0000
,
0100
0100
0110
0000
,
0001
0010
0001
0100
,
0010
1000
1000
1000
,
0100
1000
0010
0100
,
0002
0000
1003
0000
,
0010
0010
0100
0001
,
0010
0001
1000
0100
,
1000
0100
0010
0100
,
1000
1000
1001
0000
,
1000
0010
0100
0010
,
1000
0001
1001
0000
,
0010
0010
1001
1001
,
2002
0000
3003
0000
,
0001
0100
0010
0100
,
0001
1000
0010
0100
,
0110
0000
1001
0000
,
0110
0100
0100
0220
,
0000
0000
0000
0000
,
0000
0000
0000
0000
,
0330
1001
0000
0000
;

//---------------dance-single - ----------------
#NOTES:
     dance-single:
     :
     Challenge:
     14:
     0.692,0.782,0.493,0.159,0.309:
1001
0000
1001
0000
1001
0000
1000
0001
,
1000
0000
0001
0000
1000
0001
1000
0001
1000
0001
1000
0001
1000
0000
0220
0000
,
0000
0330
0000
1100
,
1100
0000
0000
0000
1100
0000
0000
0000
1100
0000
0000
0000
1001
0000
0000
0001
,
0000
0000
0100
0001
0100
0000
0001
0000
1000
0000
0001
0000
1001
0000
0000
0000
,
1001
0000
0000
0000
1001
0000
0000
0000
1001
0000
0000
0000
0101
0000
0000
0100
,
0000
0000
0100
0000
0001
1000
0001
0000
0010
0000
0100
0000
1000
0000
1000
0000
,
0001
0100
0001
0000
1000
0000
1000
0000
0001
0100
0001
0000
0010
0000
0100
0000
,
1000
0001
1000
0000
0100
0000
0010
0000
0001
1000
0001
0000
0100
0010
0100
0010
,
0100
0010
0100
0010
0100
0010
0100
0010
0100
0010
0100
0010
0100
0000
2002
0000
,
0000
0000
0000
3003
,
0000
0000
0000
0000
,
0101
0000
0000
0000
0101
0000
0000
0000
0101
0000
0000
0000
1000
0001
1000
0001
,
1000
0000
0001
0100
0001
0000
1000
0000
0010
0000
0100
0000
0001
0000
1000
0000
,
0100
0000
1000
0001
1000
0000
0100
0000
1000
0000
0010
0000
0100
0000
0001
0000
,
0010
0000
0001
1000
0001
0000
0010
0000
0100
0000
1000
0000
0001
0000
0100
0000
,
0001
0000
1000
0001
1000
0000
0100
0000
0020
0000
0000
0000
0000
0000
0000
0000
,
0031
0000
1000
0010
1000
0000
0001
0000
1000
0000
0010
0000
0100
0000
0001
0000
,
0010
0000
0001
1000
0001
0000
0010
0000
0001
0000
1000
0000
0010
0000
0100
0000
,
0001
0000
1000
0100
1000
0000
0001
0000
0010
0000
0100
0000
0010
0000
0001
0000
,
1001
1001
1001
0110
,
0010
0000
0100
0001
0100
0000
0010
0000
1000
0000
0100
0000
0010
0000
0001
0000
,
0100
0000
0010
1000
0010
0000
0100
0000
0001
0000
0010
0100
0000
0010
0100
0000
,
1000
0000
0001
0100
0001
0000
1000
0000
0001
0000
1000
0001
1000
0000
0001
1000
,
0001
0010
0100
1000
0002
0000
0000
0000
,
1003
0000
0001
0010
0100
0000
1000
0000
0010
0000
1000
0000
0001
0000
0010
0000
,
0001
0000
1000
0010
0100
0000
0001
0000
0010
0000
0001
0000
0100
0000
0010
0000
,
0100
0000
0001
0010
0100
0000
1000
0000
0010
0000
1000
0000
0001
0000
0010
0000
,
0001
0000
0010
0100
1000
0000
0001
0000
1000
0001
1000
0000
0001
0000
0001
0000
,
1000
0000
0010
0100
0001
0000
1000
0000
0100
0000
0010
0000
0100
0000
1000
0000
,
0001
0000
0010
0100
1000
0000
0001
0000
0100
0000
0010
1000
0000
0010
1000
0000
,
0001
0000
0010
0100
1000
0000
0001
0000
0010
0000
0001
1000
0001
0000
1000
0001
,
1000
0100
0010
0001
1000
0000
0000
0000
,
1001
0000
0001
0100
0001
0000
1000
0100
,
1100
0000
0100
0000
1001
0000
0100
0100
,
0110
0000
0010
1000
0010
0000
1000
0100
,
1000
0001
0010
0100
1000
0100
0010
0000
,
0101
0000
0100
0010
0100
0000
0001
1000
,
1001
0000
0010
0000
1001
0000
0010
0010
,
0110
0000
0100
1000
0100
1000
0001
0100
,
0101
2002
0000
0000
3003
0000
0000
0000
,
0002
0000
0000
0000
0100
0000
0100
0000
0103
0000
0000
0000
0001
0000
0010
0100
,
2000
0000
0000
0000
0010
0000
0010
0000
3010
0000
0000
0000
1000
0000
0100
0010
,
0002
0000
0100
0100
0103
0000
0001
0010
,
0100
1000
0001
0000
0001
0000
1001
0000
,
0110
0000
0000
0000
1010
0000
1000
0010
0000
0010
0100
0000
0110
0000
0001
0010
,
0200
0000
0000
0000
0310
0000
0001
0100
0000
0100
0010
0000
0110
0000
1000
0010
,
0200
0000
0000
0000
0301
0000
0100
0010
0000
0010
1000
0000
0100
0000
0010
0000
,
1001
1001
0100
0010
1001
1001
0000
0000
,
1100
1100
1100
1001
,
0101
0101
0101
1001
,
1000
0010
1000
0002
0000
2003
0000
3001
,
0100
1000
0100
0001
1000
0100
0010
0001
,
0100
0010
1000
0000
0100
0010
0100
0000
,
1000
0001
0010
0001
2000
0000
0000
0000
,
3001
0010
0001
2000
0000
3002
0000
0103
,
0010
1000
0001
0000
1000
0100
0001
0100
,
1000
0000
0100
0010
0001
0000
0100
0010
,
1010
1010
1010
1001
,
0001
0000
1000
0010
0100
0000
0001
0000
1000
0000
0100
0000
0010
0000
0100
0000
,
1000
0000
0001
0100
0001
0000
1000
0000
0100
0000
1000
0001
0000
1000
0001
0000
,
0010
0100
1000
0001
1001
0000
1001
0000
,
1000
0000
0001
0100
0001
0000
0010
0000
0200
0000
0000
0000
0000
0000
0000
0000
,
1300
0000
0001
0010
0100
0000
0010
0000
0001
0000
1000
0000
0010
0000
1000
0000
,
0001
0000
0010
0100
1000
0000
0001
0000
0100
0000
0010
0100
0010
0000
1000
0000
,
0100
0000
0010
0001
0010
0000
0001
0000
1000
0000
0010
1000
0010
0000
1000
0000
,
0100
0010
0100
0000
1000
0000
0001
0000
0100
0001
0100
0000
0001
0000
1000
0000
,
0000
1001
1001
1001
,
0001
0000
1000
0000
0001
0000
1000
0000
0001
1000
0001
1000
0001
1000
0001
1000
,
0001
1001
0000
0000
;

//---------------dance-single - ----------------
#NOTES:
     dance-single:
     :
     Hard:
     11:
     0.495,0.521,0.452,0.284,0.029:
0001
0000
0001
0000
0001
0000
0001
1000
,
0001
1000
0001
0010
0100
1000
0001
0000
,
0000
0000
0000
1100
,
1100
1100
1100
2002
,
0000
0000
3003
0011
,
0011
0011
0011
2002
,
0000
0000
0000
0000
3003
0000
0010
0010
,
2000
0000
3010
0010
2000
0000
3100
0010
,
0002
0000
0013
0100
2000
0000
3001
1000
,
0001
1000
0001
0010
0100
1000
1001
0000
,
0000
0000
0000
0000
,
0100
0100
0100
0100
,
1001
1001
1001
0000
,
0010
0001
0100
0000
0100
0010
0100
0000
,
0001
0100
0010
0000
0010
0100
0010
0000
,
0100
0010
1000
0000
1000
0001
1000
0000
,
0010
0100
0001
0000
1001
0000
0000
0000
,
1000
0100
0010
0100
1000
0001
1000
0000
,
0001
0010
0100
0010
0001
1000
0001
0000
,
1000
0100
0010
0100
1000
0001
1000
0000
,
1001
1001
1001
0000
,
0100
0010
0001
0100
0001
1000
0001
0000
,
0010
0000
0100
0000
1000
0000
0010
0000
1000
0000
0001
0000
0000
0001
0000
0000
,
0001
0100
0010
0000
0110
0000
0110
0000
,
0100
0010
0100
0010
0200
0000
0000
0300
,
1001
0010
0100
1000
,
0010
1000
0100
0010
0001
0010
0100
0000
,
1001
0100
0010
0001
,
0011
0000
0000
0000
0000
0000
0000
0000
0001
1000
0001
0000
1000
0000
1000
0000
,
0010
0100
0010
1000
0001
0010
0100
0000
,
1000
0000
0001
0000
1000
0000
0100
0000
1000
0000
0001
0000
0000
0001
0000
0000
,
0001
0100
0010
0000
0110
0000
0110
0000
,
0100
0010
0100
0010
0100
0000
1001
0000
,
1020
0000
1000
0000
,
0130
0000
1001
1001
,
0201
0000
0001
0000
,
0310
1000
0100
0010
0001
1000
0001
0000
,
1002
0000
0100
0000
,
1003
0000
1001
1001
,
2001
0000
0001
0000
,
3100
0000
0000
0000
,
2000
0000
0000
0000
0000
0000
3001
0010
,
0002
0000
0000
0000
0000
0000
0103
0010
,
0200
0000
0000
0000
0000
0000
0310
0100
,
0001
0001
0000
0000
0000
0000
1001
0000
,
0110
0000
0010
1000
0100
1000
0001
0000
,
1000
1000
1001
0000
0001
0010
0100
0010
,
0011
0000
1001
0000
1000
1000
0010
0100
,
1001
1001
0010
0100
1001
1001
0000
0000
,
0011
0011
0011
0000
,
1100
1100
1100
0000
,
1000
0002
0000
2003
0000
3002
0000
0013
,
0100
1000
0001
0010
0001
0010
0001
0100
,
0010
2000
0000
0000
3001
0000
1000
0000
,
0010
0100
0010
1000
0002
0000
0000
0000
,
1003
0002
0000
2003
0000
3002
0000
0013
,
0100
1000
0001
0000
1000
0001
0010
0200
,
0000
1000
1000
1300
,
1001
1001
1001
0000
,
0010
0200
0000
0302
0000
2003
0000
3100
,
0010
0000
0001
0000
1000
0000
0100
0000
1000
0000
0001
1000
0000
0001
1000
0000
,
0001
0010
0001
0100
0010
0000
0110
0000
,
1000
0001
1000
0001
2000
0000
0000
0000
,
3100
0020
0000
0032
0000
2003
0000
3100
,
0010
0001
0010
0100
0010
0000
0001
0010
,
1000
0010
0001
0000
1000
0100
0001
0100
,
1000
0001
1000
0000
0010
0000
0100
0000
0001
1000
0001
0000
0020
0000
0200
0000
,
0000
0000
0000
0000
,
0000
0000
0000
0000
,
0330
1001
0000
0000
;

//---------------dance-single - ----------------
#NOTES:
     dance-single:
     :
     Medium:
     8:
     0.385,0.463,0.351,0.176,0.000:
0000
0000
0000
0000
,
0000
0000
0000
0000
,
0000
0000
0000
0010
,
0010
0010
0010
2002
,
0000
0000
3003
0100
,
0100
0100
0100
2002
,
0000
0000
0000
0000
3003
0000
0001
0100
,
0001
0000
1000
0010
1000
0000
0100
1000
,
0100
0000
0010
0001
0010
0000
0001
0000
,
0100
1000
0010
1001
,
0000
0000
0000
0000
,
0000
0000
0000
0000
,
1001
1001
1001
0000
,
0100
1000
0010
0000
0010
0000
0010
0000
,
0100
0010
1000
0000
1000
0000
1000
0000
,
1000
0001
0010
0000
0010
0000
0010
0000
,
0010
0001
1000
0000
2000
0000
0000
0000
,
3001
0010
0100
0000
0010
0100
0010
0000
,
0001
0100
0010
0000
0100
0010
0100
0000
,
0001
0010
0100
0000
0010
0100
0010
0000
,
1001
1001
1001
0000
,
0010
0001
0010
0000
0001
1000
0100
0000
,
0010
0001
0010
0000
1001
0000
0000
0000
,
0100
0010
0100
0000
1001
0000
1001
0000
,
2002
0000
3003
0000
,
1000
0100
0010
0001
,
0100
0100
0010
0010
,
1001
0010
0100
0001
,
1001
0000
0000
0000
1000
0001
0100
0001
,
1000
0000
0100
0000
0010
0100
1000
0000
,
0001
0100
0101
0000
,
0010
0100
0010
0000
1001
0000
1001
0000
,
2002
0000
0000
3003
,
0200
0001
0000
0301
,
1001
0000
0010
0010
,
0020
1000
0000
1030
,
2002
0000
0000
3003
,
0200
0001
0000
0301
,
1001
0000
0010
0010
,
0020
1000
0000
1030
,
1001
0000
0000
0000
,
0002
0000
0000
0000
0000
0000
1003
0100
,
2000
0000
0000
0000
0000
0000
3010
0100
,
0020
0000
0000
0000
0000
0000
0130
0010
,
1000
1000
0000
0000
0000
0000
1001
0000
,
0110
0000
0100
0000
0001
0010
0100
1000
,
1000
0100
1000
0000
0010
0100
0001
0010
,
0010
0001
1000
0000
0100
0100
1000
0001
,
0001
1001
1000
0001
0001
1001
0000
0000
,
1001
1001
1001
0000
,
0110
0110
0110
0000
,
0010
0100
0000
0001
0000
1000
0000
0001
,
1000
0000
0001
0010
0100
1000
0100
1000
,
0001
0001
1000
1000
,
0010
0100
0010
0000
,
0100
0010
0000
1000
0000
0010
0000
1000
,
0001
0000
1000
0000
0001
0010
0100
0010
,
0001
1000
1000
1000
,
1001
1001
1001
0000
,
0010
0100
0000
0001
0000
0010
0000
0000
,
1001
0000
1000
0001
2000
0000
0000
0000
,
3001
0000
0100
0010
0100
0000
1001
0000
,
0001
0010
0001
0100
0010
0000
0000
0000
,
0100
0010
0000
1000
0000
0100
0000
0000
,
1000
0001
1000
0000
0100
0010
0100
1000
,
0001
0100
0010
0000
1000
0010
0100
0000
,
0110
0000
0110
0000
0110
0000
0002
2000
,
0000
0000
0000
0000
,
0000
0000
0000
0000
,
3003
0110
0000
0000
;

//---------------dance-single - ----------------
#NOTES:
     dance-single:
     :
     Beginner:
     3:
     0.097,0.174,0.092,0.000,0.000:
0000
0000
0000
0000
,
0000
0000
0000
0000
,
0000
0000
0000
0001
,
0000
0000
0000
0000
,
0000
0000
0000
0001
,
0000
0000
0000
0000
,
0000
0000
0000
1000
,
0000
1000
0000
1000
,
0000
0000
0000
1001
,
0000
0000
0000
1001
,
0000
0000
0000
0000
,
0000
0000
0000
0000
,
0000
0000
0000
0000
,
1000
0000
0000
0000
,
0100
0000
0000
0000
,
1000
0000
0000
0000
,
0001
0000
0000
0000
,
0010
0000
0000
0000
,
0001
0000
0000
0000
,
1000
0000
0000
0000
,
1001
0000
0000
0000
,
0001
0000
0000
0000
,
1000
0000
0000
0000
,
0001
0000
0000
0000
,
0001
0000
0000
0000
,
1000
0000
0000
0000
,
0010
0000
0000
0000
,
1000
0000
0000
0000
,
1001
0000
0000
0000
,
0001
0000
0000
0000
,
0100
0000
0000
0000
,
0001
0000
0000
0000
,
1001
0000
0000
0000
,
1000
0000
0000
0000
,
0000
0000
0000
0000
,
0100
0000
0000
0000
,
0000
0000
0000
0000
,
0010
0000
0000
0000
,
0000
0000
0000
0000
,
0001
0000
0000
0000
,
1001
0000
0000
0000
,
0001
0000
0000
0000
,
0100
0000
0000
0000
,
0001
0000
0000
1000
,
1000
0000
0000
1001
,
0000
1000
0000
0010
,
0000
1000
0000
0001
,
0000
0100
0000
0001
,
1001
0000
1001
0000
,
1000
0000
0000
0000
,
1000
0000
0000
0000
,
0001
0000
0000
0000
,
0000
0001
0000
0000
,
0000
0000
0000
0000
,
1000
0000
0000
0000
,
0001
0000
0000
0000
,
0001
0000
0000
0000
,
0100
0000
0010
0000
,
0100
0000
0000
0000
,
1001
0000
0000
0000
,
0001
0000
0000
0000
,
0100
0000
0010
0000
,
0100
0000
0000
0000
,
0001
0000
1000
0000
,
0010
0000
0100
0000
,
0010
0000
1000
0000
,
1001
0000
0000
0010
,
0000
0000
0000
0000
,
0000
0000
0000
0000
,
0000
0010
0000
0000
;

//---------------dance-double - ----------------
#NOTES:
     dance-double:
     :
     Easy:
     7:
     0.308,0.319,0.385,0.084,0.000:
00000000
00000000
00000000
00000000
,
00000000
00000000
00000000
00000000
,
00000000
00000000
00000000
10000000
,
01000000
00100000
00010000
00011000
,
00000000
00000000
00000000
00000001
,
00000010
00000100
00001000
00011000
,
00000000
00000000
00000000
00011000
,
00000000
01100000
00000000
00011000
,
00000000
01100000
00000000
00022000
,
00000000
00000000
00033000
00011000
,
00000000
00000000
00000000
00000000
,
00000000
00000000
00000000
00000000
,
00011000
00011000
00011000
00000000
,
00001000
00000100
00001000
00001000
,
00000001
00000010
00000001
00000001
,
00000010
00000100
00010000
00010000
,
00022000
00000000
00000000
00033000
,
00001000
00100000
00001000
00001000
,
10000000
01000000
10000000
10000000
,
01000000
00100000
00001000
00001000
,
00011000
00011000
00011000
00000000
,
00010000
00000010
00010000
00010000
,
00000001
00000100
00000110
00000000
,
00000010
00000100
00010000
00010000
,
00022000
00000000
00000000
00033000
,
00010000
00100000
01000000
10000000
,
00100000
10000000
01000000
00100000
,
00010000
00001000
00000100
00000010
,
00001001
00000000
00000110
00000000
,
00001000
00000100
00000010
00000001
,
00000100
00000001
00000110
00000000
,
00000110
00001000
00010000
00010000
,
00022000
00000000
00000000
00033000
,
00011000
00100000
01000000
10000000
,
10010000
00000000
00010000
00010000
,
10010000
01000000
00100000
00010000
,
00001000
00010000
00001000
00000000
,
00011000
00000100
00000010
00000001
,
00001001
00000000
00000001
00000001
,
00001001
00000010
00000100
00010000
,
00011000
00000000
00000000
00000000
,
00000000
00010000
00010000
00100000
,
01000000
01000000
01000000
10000000
,
10000000
01000000
01000000
00100000
,
00010000
00000000
00000000
00011000
,
00001000
00001000
00000100
00000010
,
00000100
00001000
00001000
00010000
,
00100000
01000000
00100000
00010000
,
00011000
00000000
00011000
00000000
,
00011000
00011000
00001000
00000000
,
01100000
01100000
01000000
00000000
,
00100000
01000000
00100000
01000000
,
00100000
10000000
01000000
00100000
,
00011000
00000000
00010000
00000000
,
00010000
10000000
00100000
00000000
,
10000000
01000000
00100000
00010000
,
01000000
00100000
01000000
00010000
,
00100000
00010000
00100000
00001000
,
00001000
00001000
00011000
00000000
,
00000010
00000100
00000010
00000100
,
00000010
00001000
00000100
00000010
,
00000001
00000001
00001001
00001001
,
00000010
00000100
00011000
00000000
,
01000000
00100000
01000000
00100000
,
01000000
00010000
00100000
01000000
,
01100000
00000000
10010000
00000000
,
01100000
01000000
00001000
00022000
,
00000000
00000000
00000000
00000000
,
00000000
00000000
00000000
00000000
,
00033000
00011000
00000000
00000000
;

//---------------dance-double - ----------------
#NOTES:
     dance-double:
     :
     Medium:
     9:
     0.390,0.463,0.360,0.201,0.000:
00000000
00000000
00000000
00000000
,
00000000
00000000
00000000
00000000
,
00000000
00000000
00000000
00010000
,
00010000
00010000
00010000
02020000
,
00000000
00000000
03030000
00001000
,
00001000
00001000
00001000
00022000
,
00000000
00000000
00000000
00000000
00033000
00000000
00010000
00001000
,
00010000
00000000
00000010
00001000
00000010
00000000
00000100
00000001
,
00000100
00000000
00000001
00001000
00000001
00000000
00000010
00000000
,
00000100
00001000
00010000
00011000
,
00000000
00000000
00000000
00000000
,
00000000
00000000
00000000
00000000
,
00011000
00011000
00011000
00000000
,
00001000
00010000
00000100
00000000
00000100
00000000
00000100
00000000
,
00001000
00000001
00000010
00000000
00000010
00000000
00000010
00000000
,
00000100
00010000
00001000
00000000
00001000
00000000
00001000
00000000
,
00010000
00001000
01000000
00000000
02000000
00000000
00000000
00000000
,
03010000
00100000
01000000
00000000
10000000
00010000
00100000
00000000
,
00010000
00100000
01000000
00000000
10000000
00010000
00100000
00000000
,
00001000
00010000
00000010
00000000
00000100
00000010
00000100
00000000
,
00000110
00000110
00000110
00000000
,
00000100
00000010
00000100
00000000
00000010
00001000
00000001
00000000
,
00000100
00000010
00000100
00000000
00001001
00000000
00000000
00000000
,
00000001
00000010
00000100
00000000
00011000
00000000
00011000
00000000
,
00022000
00000000
00033000
00000000
,
01100000
00100000
10000000
01000000
,
00100000
00010000
00100000
01000000
,
10010000
00010000
00100000
01000000
,
11000000
00000000
00000000
00000000
01000000
00010000
00100000
00010000
,
01000000
00000000
00010000
00000000
00100000
01000000
10000000
00000000
,
00001000
00010000
00011000
00000000
,
00010000
00000100
00010000
00000000
00011000
00000000
00011000
00000000
,
00022000
00000000
00000000
00033000
,
00000020
00001000
00000000
00001030
,
00001001
00000000
00000010
00000010
,
00000002
00001000
00000000
00001003
,
00000220
00000000
00000000
00000330
,
00200000
00010000
00000000
00310000
,
10010000
00000000
01000000
01000000
,
00200000
10000000
00000000
10300000
,
01100000
00000000
00000000
00000000
,
00002000
00000000
00000000
00000000
00000000
00000000
00103000
01000000
,
20000000
00000000
00000000
00000000
00000000
00000000
31000000
00100000
,
00002000
00000000
00000000
00000000
00000000
00000000
00013000
00000010
,
00000100
00000100
00000000
00000000
00000000
00000000
00000110
00000000
,
00001001
00000000
00001000
00000000
00000001
00000100
00000100
00000010
,
00010000
00001000
00010000
00000000
00001000
00010000
00000100
00001000
,
00001000
00000100
00010000
00000000
00000100
00000100
00010000
01000000
,
00100000
01100000
00010000
01000000
00100000
01100000
00000000
00000000
,
10010000
10010000
10010000
00000000
,
01100000
01100000
01100000
00000000
,
01000000
00100000
00000000
10000000
00000000
10000000
00000000
00010000
,
00100000
00000000
00001000
00100000
01000000
10000000
01000000
10000000
,
00020000
10000000
10030000
00100000
,
01000000
00001000
00020000
00000000
,
00030010
00000100
00000000
00000001
00000000
00000001
00000000
00001000
,
00000100
00000000
00001000
00000000
00000001
00000010
00000100
00000010
,
00000002
00001000
00001000
00001003
,
00000110
00000110
00000110
00000000
,
00000100
00000010
00000000
00000001
00000000
00000001
00000000
00000000
,
00001001
00000000
00001000
00000100
00020000
00000000
00000000
00000000
,
00031000
00000000
00100000
00010000
00100000
00000000
10010000
00000000
,
00010000
00100000
00010000
01000000
00100000
00000000
00000000
00000000
,
01000000
00100000
00000000
10000000
00000000
10000000
00000000
00000000
,
00010000
10000000
00010000
00000000
00100000
01000000
10000000
00001000
,
00010000
00001000
10000000
00000000
00100000
01000000
00001000
00000000
,
00011000
00000000
00011000
00000000
00011000
00000000
00002000
00020000
,
00000000
00000000
00000000
00000000
,
00000000
00000000
00000000
00000000
,
00033000
00011000
00000000
00000000
;

//---------------dance-double - ----------------
#NOTES:
     dance-double:
     :
     Hard:
     12:
     0.513,0.521,0.427,0.209,0.029:
00001000
00000000
00001000
00000000
00001000
00000000
00001000
00010000
,
00001000
00010000
00001000
00100000
01000000
10000000
00001000
00000000
,
00000000
00000000
00000000
00011000
,
00011000
00011000
00011000
02200000
,
00000000
00000000
03300000
10010000
,
10010000
10010000
10010000
02200000
,
00000000
00000000
00000000
00000000
03300000
00000000
10000000
01000000
,
20000000
00000000
30001000
00100000
00002000
00000000
00013000
00001000
,
00020000
00000000
00030010
00000100
00000020
00000000
00001030
00000001
,
00001000
00000001
00000010
00000100
00001000
00010000
00011000
00000000
,
00000000
00000000
00000000
00000000
,
00010000
00010000
00010000
00010000
,
00011000
00011000
00011000
00000000
,
00010000
00000100
00010000
00000100
00010000
00000100
00000010
00000000
,
00000001
00000010
00000001
00000010
00000001
00000100
00000010
00000000
,
00010000
00001000
00010000
00001000
01000000
00100000
10000000
00000000
,
00100000
01000000
00100000
01000000
00002000
00000000
00000000
00000000
,
00013000
00000100
00000010
00000100
00010000
00010000
00000001
00000001
,
00000010
00000100
00001000
00000100
00000010
00000010
00000001
00000001
,
00001000
00010000
00100000
01000000
00100000
00100000
00010000
00010000
,
01010000
01010000
01010000
00000000
,
00000100
00000010
00000001
00000100
00000001
00001000
00000100
00000000
,
00010000
00000000
00001000
00000000
00100000
00000000
01000000
00000000
00100000
00000000
00010000
00000000
00000000
00010000
00000000
00000000
,
00010000
10000000
01000000
00000000
11000000
00000000
11000000
00000000
,
10000000
00010000
10000000
00010000
20000000
00000000
00000000
00000000
,
30010000
10000000
00100000
01000000
,
00001000
00010000
00000100
00000000
00001000
00000100
00000010
00000000
,
00001001
00000001
00000100
00000010
,
00011000
00000000
00000000
00000000
00000000
00000000
00000000
00000000
00010000
00001000
00010000
00000000
00001000
00000000
00001000
00000000
,
00100000
01000000
10000000
01000000
00100000
00100000
00001000
00001000
,
00010000
00000000
00000010
00000000
00000100
00000000
00000001
00000000
00010000
00000000
00000100
00000000
00000000
00000100
00000000
00000000
,
00000100
00010000
00001000
00000000
00011000
00000000
00011000
00000000
,
01000000
00100000
01000000
00100000
01000000
00000000
01100000
00000000
,
10010000
00000000
10000000
00100000
01000000
00000000
00010000
00000000
,
00100000
00001000
00011000
00011000
,
00010100
00001000
00000010
00000100
,
00000001
00000010
00000100
00001000
00000001
00000010
00000100
00000000
,
00000110
00000000
00000010
00010000
00001000
00000000
00010000
00000000
,
00001000
01000000
01100000
01100000
,
01100000
00000000
01000000
10000000
00010000
00000000
00100000
00000000
,
01100000
00000000
00000000
00000000
,
20000000
00000000
00000000
00000000
00000000
00000000
31000000
00100000
,
00002000
00000000
00000000
00000000
00000000
00000000
00013000
00000010
,
00000200
00000000
00000000
00000000
00000000
00000000
00000301
00000010
,
00000100
00000100
00000000
00000000
00000000
00000000
00000110
00000000
,
00011000
00000000
00001000
01000000
00100000
01000000
00001000
00000000
,
00010000
00010000
00010000
00000000
00000100
00000010
00000001
00000010
,
00000110
00000000
00000100
00000000
00000010
00000010
00001000
00000100
,
00010100
00010100
00001000
00000100
00010100
00010100
00000000
00000000
,
00011000
00011000
00011000
00000000
,
01001000
01001000
01001000
00000000
,
00100000
02000000
00000000
03020000
00000000
02030000
00000000
03010000
,
10000000
01000000
00010000
01000000
10000000
00100000
01000000
00001000
,
00010000
00002000
00000000
00000000
00013000
00000100
00010000
00000000
,
00000100
00000010
00000001
00001000
00000002
00000000
00000000
00000000
,
00000013
00000200
00000000
00000320
00000000
00000230
00000000
00010300
,
00000001
00000010
00000100
00000000
00000010
00000001
00010000
00002000
,
00000000
00010000
00010000
00013000
,
00011000
00011000
00011000
00000000
,
00001000
01000000
00001000
10000000
00001000
01000000
00001000
00100000
,
01000000
00000000
10000000
00000000
01000000
00000000
00100000
00000000
00001000
00000000
00010000
00001000
00000000
00010000
00001000
00000000
,
00010000
00000010
00000100
00000001
00000010
00000000
00000011
00000000
,
00000001
00001000
00000001
00001000
00000002
00000000
00000000
00000000
,
00010003
00000100
00010000
00000001
00010000
00000100
00010000
00000001
,
00000010
00000100
00010000
00001000
00010000
00000000
00001000
00100000
,
10000000
00100000
00001000
00000000
00010000
00000100
00000001
00000100
,
00010000
00001000
00010000
00000000
00001000
00000000
01000000
00000000
00100000
01000000
00100000
00000000
20000000
00000000
00020000
00000000
,
00000000
00000000
00000000
00000000
,
00000000
00000000
00000000
00000000
,
30030000
10010000
00000000
00000000
;

//---------------dance-double - ----------------
#NOTES:
     dance-double:
     :
     Challenge:
     14:
     0.693,0.782,0.493,0.159,0.309: // measure 1
00011000
00000000
00011000
00000000
00011000
00000000
00001000
00010000
,  // measure 2
00001000
00000000
00010000
00000000
00001000
00010000
00001000
00010000
00001000
00010000
00001000
00010000
00001000
00000000
02002000
00000000
,  // measure 3
00000000
03003000
00000000
01100000
,  // measure 4
01100000
00000000
00000000
00000000
01100000
00000000
00000000
00000000
01100000
00000000
00000000
00000000
01100000
00000000
00000000
01000000
,  // measure 5
00000000
00000000
00010000
00100000
00010000
00000000
10000000
00000000
00001000
00000000
00010000
00000000
00011000
00000000
00000000
00000000
,  // measure 6
00011000
00000000
00000000
00000000
00011000
00000000
00000000
00000000
00011000
00000000
00000000
00000000
00011000
00000000
00000000
00010000
,  // measure 7
00000000
00000000
00010000
00000000
00000010
00001000
00000010
00000000
00000100
00000000
00000001
00000000
00000010
00000000
00000010
00000000
,  // measure 8
00000001
00001000
00000001
00000000
00000100
00000000
00000100
00000000
00000010
00010000
00000010
00000000
00010000
00000000
00001000
00000000
,  // measure 9
00100000
00010000
00100000
00000000
00010000
00000000
10000000
00000000
00100000
10000000
00100000
00000000
10000000
00010000
10000000
00010000
,  // measure 10
10000000
00010000
10000000
00010000
10000000
00010000
10000000
00010000
10000000
00010000
10000000
00010000
10000000
00000000
22000000
00000000
,  // measure 11
00000000
00000000
00000000
33000000
,  // measure 12
00000000
00000000
00000000
00000000
,  // measure 13
00011000
00000000
00000000
00000000
00011000
00000000
00000000
00000000
00011000
00000000
00000000
00000000
00010000
00001000
00010000
00001000
,  // measure 14
00010000
00000000
00000001
00001000
00000001
00000000
00000010
00000000
00000100
00000000
00001000
00000000
00000001
00000000
00010000
00000000
,  // measure 15
00000100
00000000
00010000
00001000
00010000
00000000
00001000
00000000
01000000
00000000
00100000
00000000
10000000
00000000
01000000
00000000
,  // measure 16
10000000
00000000
00001000
01000000
00001000
00000000
10000000
00000000
01000000
00000000
00100000
00000000
00001000
00000000
00010000
00000000
,  // measure 17
00000010
00000000
00001000
00000001
00001000
00000000
00000100
00000000
00000020
00000000
00000000
00000000
00000000
00000000
00000000
00000000
,  // measure 18
00000031
00000000
00010000
00000010
00010000
00000000
00000001
00000000
00000100
00000000
00000010
00000000
00010000
00000000
00001000
00000000
,  // measure 19
01000000
00000000
00100000
01000000
00100000
00000000
10000000
00000000
00010000
00000000
00100000
00000000
01000000
00000000
00100000
00000000
,  // measure 20
00001000
00000000
00010000
00000100
00010000
00000000
00000001
00000000
00000010
00000000
00000100
00000000
00000010
00000000
00000001
00000000
,  // measure 21
00001001
00001001
00001001
00000110
,  // measure 22
00000100
00000000
00010000
00001000
00010000
00000000
00000100
00000000
00010000
00000000
00001000
00000000
00100000
00000000
01000000
00000000
,  // measure 23
10000000
00000000
00001000
00100000
00001000
00000000
10000000
00000000
00100000
00000000
01000000
00001000
00000000
01000000
00001000
00000000
,  // measure 24
00010000
00000000
00000010
00000100
00000010
00000000
00001000
00000000
00000001
00000000
00000010
00000001
00000010
00000000
00000100
00001000
,  // measure 25
00000100
00010000
00001000
00100000
02000000
00000000
00000000
00000000
,  // measure 26
03100000
00000000
00010000
10000000
01000000
00000000
10000000
00000000
00010000
00000000
00010000
00000000
00100000
00000000
00100000
00000000
,  // measure 27
00001000
00000000
00010000
00000010
00000100
00000000
00000010
00000000
00001000
00000000
00001000
00000000
00000001
00000000
00000001
00000000
,  // measure 28
00000100
00000000
00000010
00010000
00001000
00000000
00010000
00000000
00001000
00000000
00001000
00000000
01000000
00000000
01000000
00000000
,  // measure 29
00010000
00000000
10000000
00100000
01000000
00000000
00100000
00000000
10000000
00001000
10000000
00000000
00001000
00000000
00001000
00000000
,  // measure 30
00010000
00000000
00000010
00000100
00000001
00000000
00000100
00000000
00000001
00000000
00000001
00000000
00001000
00000000
00001000
00000000
,  // measure 31
00000010
00000000
00000100
00000010
00010000
00000000
00001000
00000000
01000000
00000000
00010000
10000000
00000000
00010000
10000000
00000000
,  // measure 32
01000000
00000000
00100000
01000000
10000000
00000000
00010000
00000000
00100000
00000000
00001000
00010000
00001000
00000000
00010000
00000100
,  // measure 33
00010000
00000100
00000010
00000001
00001000
00000000
00000000
00000000
,  // measure 34
00001001
00000000
00000001
00000100
00000001
00000000
00001000
00000100
,  // measure 35
00001100
00000000
00001000
00000000
00011000
00000000
01000000
01000000
,  // measure 36
01100000
00000000
00100000
10000000
00100000
00000000
10000000
01000000
,  // measure 37
10000000
00010000
00100000
01000000
00100000
00001000
00010000
00000000
,  // measure 38
00011000
00000000
00010000
00000100
00010000
00000000
00000100
00000010
,  // measure 39
00000110
00000000
00000100
00000000
00000101
00000000
00010000
00010000
,  // measure 40
00011000
00000000
00001000
01000000
00100000
01000000
00001000
00010000
,  // measure 41
00011000
00020200
00000000
00000000
00030300
00000000
00000000
00000000
,  // measure 42
00002000
00000000
00000000
00000000
00000001
00000000
00000001
00000000
00003001
00000000
00000000
00000000
00001000
00000000
00000100
00100000
,  // measure 43
00020000
00000000
00000000
00000000
10000000
00000000
10000000
00000000
10030000
00000000
00000000
00000000
00010000
00000000
00100000
00001000
,  // measure 44
00020000
00000000
00000100
00000100
00030100
00000000
00001000
00000001
,  // measure 45
00000001
00001000
00000100
00000000
00000100
00000000
00001001
00000000
,  // measure 46
00000110
00000000
00000000
00000000
00000101
00000000
00000001
00010000
00000000
00010000
00001000
00000000
00011000
00000000
00100000
01000000
,  // measure 47
20000000
00000000
00000000
00000000
30010000
00000000
01000000
00010000
00000000
00010000
00100000
00000000
00011000
00000000
00000100
00000010
,  // measure 48
00000002
00000000
00000000
00000000
00001003
00000000
00000010
00000100
00000000
00000100
00000001
00000000
00010000
00000000
00001000
00000000
,  // measure 49
00011000
00010100
00010000
00001000
00011000
00010100
00000000
00000000
,  // measure 50
00011000
00011000
00011000
00010100
,  // measure 51
00011000
00011000
00011000
01001000
,  // measure 52
01000000
00100000
01000000
00020000
00000000
20030000
00000000
30010000
,  // measure 53
01000000
10000000
01000000
00010000
10000000
01000000
00100000
00001000
,  // measure 54
00010000
00000010
00000100
00000000
00000001
00001000
00000001
00000000
,  // measure 55
00010000
00000010
00000100
00000010
00020000
00000000
00000000
00000000
,  // measure 56
00030010
00000100
00000010
00002000
00000000
00003002
00000000
00001003
,  // measure 57
00000100
00000001
00000100
00000000
00001000
00000010
00000100
00000010
,  // measure 58
00010000
00001000
00100000
01000000
10000000
00000000
00001000
00010000
,  // measure 59
00011000
00011000
00011000
00010100
,  // measure 60
00010000
00000000
00000100
00010000
00000010
00000000
00010000
00000000
00000100
00000000
00000010
00000000
00000001
00000000
00000010
00000000
,  // measure 61
00000100
00000000
00010000
00000010
00010000
00000000
00001000
00000000
01000000
00000000
00100000
01000000
00000000
00100000
01000000
00000000
,  // measure 62
00010000
10000000
01000000
00100000
01100000
00000000
01100000
00000000
,  // measure 63
01000000
00000000
00001000
00100000
00001000
00000000
00100000
00000000
02000000
00000000
00000000
00000000
00000000
00000000
00000000
00000000
,  // measure 64
13000000
00000000
00001000
00010000
00001000
00000000
00010000
00000000
00000100
00000000
00000010
00000000
00000001
00000000
00000010
00000000
,  // measure 65
00000001
00000000
00000100
00000010
00001000
00000000
00000010
00000000
00010000
00000000
00001000
00010000
00001000
00000000
10000000
00000000
,  // measure 66
01000000
00000000
00100000
00010000
00100000
00000000
00010000
00000000
10000000
00000000
00001000
00100000
00001000
00000000
00010000
00000000
,  // measure 67
00000010
00000100
00000010
00000000
00001000
00000000
00000100
00000000
00001000
00000001
00001000
00000000
00000100
00000000
00010000
00000000
,  // measure 68
00000000
00011000
00011000
00011000
,  // measure 69
00001000
00000000
00010000
00000000
00001000
00000000
00010000
00000000
00001000
00010000
00001000
00010000
00001000
00010000
00001000
00010000
,  // measure 70
00001000
01001000
00000000
00000000
;
