#TITLE:Look at me;
#SUBTITLE:;
#ARTIST:Elizabeth Dobbs;
#TITLETRANSLIT:;
#SUBTITLETRANSLIT:;
#ARTISTTRANSLIT:;
#CREDIT:DigiMindAxel;
#BANNER:Look at me.png;
#BACKGROUND:Look at me-bg.png;
#LYRICSPATH:Look at me.lrc;
#CDTITLE:GUITARFREAKS & drummania.png;
#MUSIC:Look at me.ogg;
#METERTYPE:DDR X;
#OFFSET:-0.425;
#SAMPLESTART:26.399;
#SAMPLELENGTH:12.000;
#SELECTABLE:YES;
#BPMS:0.000=120.000;
#STOPS:;
#BGCHANGES:-12.000=Look at me.avi=1.000=1=1=0,
99999=-nosongbg-=1.000=0=0=0 // don't automatically add -songbackground-
;

//---------------dance-single - ----------------
#NOTES:
     dance-single:
     :
     Easy:
     3:
     0.151,0.186,0.112,0.032,0.000:
0000
0000
0000
0000
,
1000
0000
0100
0000
,
1000
0000
0001
0000
,
1000
0000
0001
0000
,
0010
0000
0001
0000
,
0100
0000
0100
0000
,
0010
0000
0010
0000
,
2000
0000
0000
0000
,
3002
0000
0000
0000
,
1003
0000
0100
0000
,
0010
0000
0010
0000
,
0110
0000
0110
0000
,
0110
0000
1001
0000
,
0001
0000
0100
0000
,
0001
0000
0100
0000
,
0010
0000
1000
0000
,
0001
0000
1000
0000
,
0100
0000
0010
0000
,
0100
0000
0010
0000
,
0001
0000
0010
0000
,
0001
0000
0001
0000
,
1001
0000
1000
0000
,
0010
0000
0100
0000
,
0001
0000
0100
0000
,
0010
0000
0010
0000
,
1001
0000
1000
0000
,
0100
0000
1000
0000
,
0001
0000
0100
0000
,
0010
0100
0010
0100
,
0110
0000
0000
0000
;

//---------------dance-single - ----------------
#NOTES:
     dance-single:
     :
     Medium:
     7:
     0.417,0.372,0.177,0.000,0.040:
0000
0000
0000
0000
,
1001
0100
0010
0001
,
1000
0100
0010
0000
0001
0010
0100
0000
,
1000
0010
0001
0010
,
1000
0100
0010
0000
0001
0010
0100
1000
,
0001
0000
0100
0000
0010
0100
0001
0000
,
0100
0000
0010
0000
0100
0001
0010
0000
,
0001
0001
0001
0000
1000
0100
0010
0000
,
0001
0001
0001
0000
1000
0010
0100
0000
,
1001
0000
1000
0000
0001
0010
0100
0000
,
0011
1100
0011
1100
,
1001
0000
0000
0001
0000
0000
0000
0000
1001
0000
0000
1000
0000
0000
0000
0000
,
1001
0000
0000
0001
0000
0000
0000
0000
1001
0000
0000
1000
0000
1000
0000
0000
,
0001
0010
0001
0100
0001
0010
0001
0000
,
1000
0100
1000
0010
1000
0100
1000
0000
,
0010
0100
0001
0010
0100
0010
0001
0000
,
1000
1000
0100
0100
1000
1000
0010
0000
,
0100
0100
0100
0000
0001
0010
0100
0000
,
0010
0010
0010
0000
0001
1000
0010
0000
,
0100
0100
0100
0000
0001
0010
0100
0000
,
1000
1000
0001
0001
0010
0010
0100
0000
,
1000
0010
0100
0010
1000
0001
1000
0000
,
0001
0010
0100
0010
0001
1000
0100
0000
,
1000
0010
0100
0010
1000
0100
0010
0000
,
0001
0001
0100
0100
0010
0010
1000
0000
,
0001
0010
0001
1000
0001
0010
0001
0000
,
0100
0010
1000
0010
0100
0010
1000
0000
,
0100
0010
0001
0010
0100
0010
0001
0000
,
1000
1000
0001
0001
0100
0100
0010
0000
,
1001
0000
0000
0000
;

//---------------dance-single - ----------------
#NOTES:
     dance-single:
     :
     Hard:
     11:
     0.521,0.489,0.177,0.128,0.401:
0000
0000
0000
0000
,
1000
0001
0100
1000
0100
0000
0010
0000
,
0001
0010
0100
0000
0010
0001
1000
0000
,
0001
1000
0010
0001
0010
0000
0100
0000
,
1000
0000
0001
0000
0010
0000
0001
0000
1000
0001
1000
0001
1000
0100
1000
0100
,
1000
0100
0010
0000
0010
0001
1000
0000
,
0001
1000
0100
0001
0100
1000
0001
0000
,
0010
0000
0000
0001
0010
0000
0000
0000
0100
2000
0000
0000
3010
0000
0000
0000
,
1000
0000
0000
0010
0100
0000
0000
0000
0001
1000
0000
1000
0001
0000
0000
0000
,
0120
0100
0000
0130
,
0101
0000
0000
0100
0001
0000
0000
0001
1000
0000
0000
1000
0100
0000
0000
0000
,
1000
0001
0000
0002
0000
0000
0000
0000
0013
0100
0000
0200
0000
0000
0000
0000
,
1300
0010
0000
0020
0000
0000
0000
0000
0130
0000
0000
1001
0000
1001
0000
0000
,
0010
0010
0110
0000
1000
0100
0001
0000
,
1000
1000
1001
0000
0001
0100
1000
0000
,
0100
0100
0110
0000
0001
1000
0100
0000
,
1000
0100
0000
0000
0001
0100
0000
0000
1000
0001
1000
0001
1000
0001
1000
0001
,
1000
1001
0110
0000
1000
0010
0001
0000
,
0010
0010
0110
0000
0001
0100
1000
0000
,
0001
0000
0001
0000
1001
0000
0000
0000
1000
0100
0000
0100
1000
0000
0000
0000
,
0001
0100
0000
0000
1000
0100
0000
0000
0001
0100
0000
0000
1000
0001
1000
0001
,
1000
0100
0001
0100
1000
0020
0130
0000
,
0001
0010
1000
0010
0001
0200
0301
0000
,
0001
0000
0010
0000
1000
0000
0010
0000
0001
1000
0000
1000
0001
0000
0000
0000
,
1000
0001
0000
0000
0010
0100
0000
0000
1000
0001
0000
0000
0100
0010
0100
0010
,
0100
0000
0001
0000
1000
0000
0100
0000
0010
0000
0001
1000
0010
0000
0000
0000
,
1000
0000
0010
0000
0100
0000
0001
0000
0010
0000
0100
1000
0010
0000
0000
0000
,
1000
0000
0100
0000
0001
0000
0100
0000
1000
0001
0000
0001
2000
0000
0000
0000
,
3010
0100
0010
0000
1000
0001
1000
0000
0100
1000
0100
1000
0001
1000
0001
1000
,
0001
0000
0000
0000
;

//---------------dance-double - ----------------
#NOTES:
     dance-double:
     :
     Easy:
     4:
     0.204,0.233,0.080,0.032,0.000: // measure 1
00000000
00000000
00000000
00000000
,  // measure 2
01000000
00000000
10000000
00000000
,  // measure 3
01000000
00000000
00100000
00000000
,  // measure 4
00001000
00000000
00010000
00000000
,  // measure 5
00001000
00000000
00000100
00000000
,  // measure 6
00000010
00000010
00000010
00000000
,  // measure 7
00000001
00000001
00000001
00000000
,  // measure 8
00002000
00000000
00003010
00000000
,  // measure 9
00020000
00000000
00031000
00000000
,  // measure 10
01000000
00100000
01000000
00000000
,  // measure 11
00010000
00010000
00010000
00010000
,  // measure 12
10010000
00000000
10010000
00000000
,  // measure 13
10010000
00000000
01100000
00000000
,  // measure 14
10000000
01000000
10000000
00000000
,  // measure 15
00001000
01000000
00001000
00000000
,  // measure 16
00010000
00001000
00010000
00000000
,  // measure 17
00000100
00000010
00000100
00000010
,  // measure 18
00000001
00001000
00000001
00000000
,  // measure 19
00010000
00000010
00010000
00000000
,  // measure 20
00000001
00000010
00000001
00000000
,  // measure 21
00010000
00001000
00010000
00001000
,  // measure 22
01000000
00100000
01000000
00000000
,  // measure 23
00001000
00100000
00001000
00000000
,  // measure 24
00010000
00001000
00010000
00000000
,  // measure 25
00000100
00000010
00000100
00000010
,  // measure 26
00000001
00000100
00000010
00000000
,  // measure 27
00010000
00001000
01000000
00000000
,  // measure 28
00010000
00100000
01000000
00000000
,  // measure 29
10000000
00010000
10000000
00010000
,  // measure 30
10010000
00000000
00000000
00000000
;

//---------------dance-double - ----------------
#NOTES:
     dance-double:
     :
     Medium:
     7:
     0.422,0.349,0.209,0.080,0.048: // measure 1
00000000
00000000
00000000
00000000
,  // measure 2
10000000
01000000
10000000
00100000
01000000
00000000
00010000
00000000
,  // measure 3
10010000
11000000
00110000
00000000
,  // measure 4
00001000
00010000
00001000
00000000
00010000
00000010
00000100
00000000
,  // measure 5
00000101
00001001
00000101
00000000
,  // measure 6
00001000
00001000
00001000
00000000
01000000
00100000
01000000
00000000
,  // measure 7
00010000
10000000
01000000
00000000
00110000
00000000
00110000
00000000
,  // measure 8
00002000
00000000
00013000
00000000
00000010
00000100
00000010
00000000
,  // measure 9
00020000
00000000
00000000
00000000
00031000
00000000
00000000
00000000
01000000
00000000
00000000
01100000
00000000
00000000
00000000
00000000
,  // measure 10
10000000
00000000
00100000
00000000
01000000
00001000
00010000
00000000
,  // measure 11
00000200
00000320
00000032
00001003
,  // measure 12
00000010
00000000
00000000
00000110
00000000
00000000
00000000
00000000
00010000
00000000
00000000
00011000
00000000
00000000
00000000
00000000
,  // measure 13
01000000
00000000
00000000
01100000
00000000
00000000
00000000
00000000
10000000
00000000
00000000
00010000
00000000
10000000
00000000
00000000
,  // measure 14
00001000
00100000
00001000
01000000
00001000
00100000
00001000
00000000
,  // measure 15
00010000
00000010
00010000
00000100
00010000
00000010
00010000
00000000
,  // measure 16
00000100
00001000
00000010
00000100
00001000
00000100
00000010
00000000
,  // measure 17
00010000
00010000
00001000
00001000
00010000
00010000
00001000
00000000
,  // measure 18
01000000
01000000
01000000
00000000
00010000
00100000
01000000
00000000
,  // measure 19
10000000
10000000
10000000
00000000
00100000
10000000
00001000
00000000
,  // measure 20
00010000
00010000
00010000
00000000
00000010
00000100
00000001
00000000
,  // measure 21
00001000
00001000
00000001
00000001
00000010
00000010
00000100
00000000
,  // measure 22
00010000
00000010
00000100
00000010
00010000
00001000
00010000
00000000
,  // measure 23
00001000
10000000
00100000
10000000
00001000
01000000
00001000
00000000
,  // measure 24
00010000
00000010
00000100
00000010
00010000
00000100
00000010
00000000
,  // measure 25
00000001
00000001
00001000
00001000
00000100
00000100
00010000
00000000
,  // measure 26
00001000
01000000
00001000
00100000
00001000
01000000
00001000
00000000
,  // measure 27
00010000
00000100
00000010
00000100
00010000
00000010
00010000
00000000
,  // measure 28
00001000
01000000
00100000
01000000
00001000
00100000
00001000
00000000
,  // measure 29
00100000
00100000
01000000
01000000
10000000
10000000
00001000
00000000
,  // measure 30
00011000
00000000
00000000
00000000
;

//---------------dance-double - ----------------
#NOTES:
     dance-double:
     :
     Hard:
     11:
     0.523,0.489,0.112,0.128,0.401: // measure 1
00000000
00000000
00000000
00000000
,  // measure 2
10000000
01000000
10000000
00010000
10000000
01000000
10000000
00000000
,  // measure 3
00200000
01300000
00002000
01003000
,  // measure 4
00001000
00010000
00000100
00000010
00000100
00010000
00001000
00000000
,  // measure 5
00010000
00000000
00000100
00000000
00000010
00000000
00000001
00000000
00010000
00000100
00010000
00000100
00010000
00001000
00010000
00001000
,  // measure 6
00010000
00001000
01000000
00100000
01000000
00001000
00010000
00000000
,  // measure 7
00001000
00010000
00000100
00000001
00000100
00010000
00001000
00000000
,  // measure 8
00100000
00000000
00000000
00100000
01000000
00000000
00000000
00000000
10000000
00020000
00000000
00000000
00130000
00000000
00000000
00000000
,  // measure 9
00001000
00000000
00000000
00001000
00010000
00000000
00000000
00000000
00000010
00000100
00000000
00000100
00000010
00000000
00000000
00000000
,  // measure 10
00001000
00000100
00001000
00000001
00001000
00000100
00010000
00000000
,  // measure 11
00001000
00000000
00000000
00001000
00100000
00000000
00000000
00100000
01000000
00000000
00000000
01000000
10000000
00000000
00000000
00000000
,  // measure 12
00100000
01000000
00000000
02000000
00000000
00000000
00000000
00000000
03001000
00010000
00000000
00020000
00000000
00000000
00000000
00000000
,  // measure 13
00030010
00000100
00000000
00000200
00000000
00000000
00000000
00000000
00000302
00000000
00000000
00001000
00000000
00001003
00000000
00000000
,  // measure 14
00000100
00000100
00000110
00000000
00010000
00001000
01000000
00000000
,  // measure 15
00100000
00100000
01100000
00000000
00001000
00010000
00000100
00000000
,  // measure 16
00000010
00000010
00000110
00000000
00001000
00010000
00100000
00000000
,  // measure 17
01000000
10000000
00000000
00000000
01000000
00100000
00000000
00000000
00001000
01000000
00001000
01000000
00001000
01000000
00001000
01000000
,  // measure 18
00001000
00011000
00011000
00000000
00000100
00000010
00000001
00000000
,  // measure 19
00000100
00000100
00000110
00000000
00010000
00001000
01000000
00000000
,  // measure 20
00100000
00000000
00100000
00000000
01100000
00000000
00000000
00000000
10000000
00010000
00000000
00010000
10000000
00000000
00000000
00000000
,  // measure 21
01000000
00100000
00000000
00000000
00001000
00010000
00000000
00000000
00000010
00000100
00000000
00000000
00000001
00001000
00000001
00001000
,  // measure 22
00000001
00001000
00000010
00001000
00010000
01000000
00100000
00000000
,  // measure 23
10000000
01000000
10000000
00010000
00001000
00000010
00000100
00000000
,  // measure 24
00000001
00000000
00000100
00000000
00000001
00000000
00010000
00000000
00001000
00010000
00000000
00010000
00001000
00000000
00000000
00000000
,  // measure 25
00100000
01000000
00000000
00000000
10000000
00100000
00000000
00000000
01000000
00010000
00000000
00000000
10000000
00010000
10000000
00010000
,  // measure 26
10000000
00000000
01000000
00000000
00100000
00000000
00001000
00000000
00010000
00000000
00000010
00000100
00000010
00000000
00000000
00000000
,  // measure 27
00001000
00000000
00000001
00000000
00000010
00000000
00000100
00000000
00010000
00000000
00001000
00100000
00001000
00000000
00000000
00000000
,  // measure 28
01000000
00000000
00100000
00000000
10000000
00000000
00001000
00000000
00010000
00000010
00000000
00000010
00020000
00000000
00000000
00000000
,  // measure 29
00030010
00000100
00000010
00000000
00001000
00000001
00001000
00000000
00000010
00000100
00000010
00000100
00000010
00000100
00000010
00000100
,  // measure 30
00000010
00000000
00000000
00000000
;

//---------------dance-single - ----------------
#NOTES:
     dance-single:
     :
     Beginner:
     1:
     0.099,0.116,0.096,0.000,0.000:
0000
0000
0000
0000
,
1000
0000
0000
0000
,
1000
0000
0000
0000
,
0001
0000
0000
0000
,
0001
0000
0000
0000
,
1000
0000
0000
0000
,
0100
0000
0000
0000
,
0010
0000
0000
0000
,
0010
0000
0000
0000
,
1001
0000
0000
0000
,
0000
0000
0000
0000
,
0010
0000
0010
0000
,
0010
0000
0110
0000
,
1000
0000
0000
0000
,
1000
0000
0000
0000
,
0001
0000
0000
0000
,
0001
0000
0000
0000
,
1001
0000
1000
0000
,
0001
0000
0000
0000
,
1000
0000
0001
0000
,
1000
0000
1000
0000
,
0010
0000
0100
0000
,
0010
0000
0100
0000
,
0001
0000
0010
0000
,
0100
0000
0000
0000
,
1001
0000
0000
0000
,
0001
0000
0000
0000
,
1001
0000
0000
0000
,
1000
0000
1000
0000
,
0110
0000
0000
0000
;
