#TITLE:Cosmic Cat;
#SUBTITLE:;
#ARTIST:8bit Moonside;
#TITLETRANSLIT:;
#SUBTITLETRANSLIT:;
#ARTISTTRANSLIT:;
#CREDIT:DigiMindAxel;
#BANNER:Cosmic Cat.png;
#BACKGROUND:Cosmic Cat-bg.png;
#LYRICSPATH:;
#CDTITLE:beatmania IIDX.png;
#MUSIC:Cosmic Cat.ogg;
#METERTYPE:DDR X;
#OFFSET:-13.063;
#SAMPLESTART:97.040;
#SAMPLELENGTH:12.000;
#SELECTABLE:YES;
#BPMS:0.000=160.000,160.000=80.000,176.000=160.000;
#STOPS:;
#BGCHANGES:;

//---------------dance-single - ----------------
#NOTES:
     dance-single:
     :
     Easy:
     6:
     0.233,0.326,0.252,0.173,0.000: // measure 1
0001
0000
0001
0000
,  // measure 2
0010
0000
0010
0000
,  // measure 3
0100
0000
0100
0000
,  // measure 4
1000
0000
1000
0000
,  // measure 5
0001
0000
0001
0000
,  // measure 6
0100
0000
0100
0000
,  // measure 7
0110
0000
0110
0000
,  // measure 8
0110
0000
0000
0000
,  // measure 9
1001
0000
0000
0000
,  // measure 10
1001
0000
0000
0000
,  // measure 11
0110
0000
0000
0000
,  // measure 12
0110
0000
0000
0000
,  // measure 13
1001
0000
0000
0000
,  // measure 14
1001
0000
0000
0000
,  // measure 15
0110
0000
0110
0000
,  // measure 16
0010
0100
0010
0000
,  // measure 17
1001
0000
0000
0000
,  // measure 18
1001
0000
0000
0000
,  // measure 19
0110
0000
0000
0000
,  // measure 20
0110
0000
0000
0000
,  // measure 21
0100
0010
0100
0010
,  // measure 22
1000
0001
1000
0001
,  // measure 23
1000
0000
1001
0000
,  // measure 24
0001
0010
0100
1000
,  // measure 25
0002
0000
1003
0000
,  // measure 26
0200
0000
1300
0000
,  // measure 27
0020
0000
0130
0000
,  // measure 28
0001
1000
0001
0000
,  // measure 29
0020
0000
0031
0000
,  // measure 30
0200
0000
0310
0000
,  // measure 31
2000
0000
3100
0000
,  // measure 32
1000
0001
1000
0000
,  // measure 33
0110
0100
0010
0000
,  // measure 34
1000
0001
0010
0000
,  // measure 35
0100
1000
0001
0000
,  // measure 36
1000
0001
1000
0001
,  // measure 37
0010
0001
0100
0000
,  // measure 38
0010
1000
0100
0000
,  // measure 39
1000
0001
1000
0001
,  // measure 40
0010
0000
0010
0000
,  // measure 41
1001
0001
0010
0100
,  // measure 42
2000
0000
3001
0000
,  // measure 43
1000
0100
0010
0001
,  // measure 44
2000
0000
3001
0000
,  // measure 45
1000
0000
0010
0000
,  // measure 46
0100
0000
0001
0000
,  // measure 47
0100
0000
0010
0000
,  // measure 48
1000
0000
0001
0000
,  // measure 49
1000
0000
0100
0000
,  // measure 50
0010
0000
0100
0000
,  // measure 51
1000
0000
1001
0000
,  // measure 52
1001
0000
0000
0000
,  // measure 53
2002
0000
0000
3003
,  // measure 54
0220
0000
0000
0330
,  // measure 55
2002
0000
0000
3003
,  // measure 56
0220
0000
0000
0330
0000
0110
0000
0000
,  // measure 57
0220
0000
0000
0330
,  // measure 58
2002
0000
0000
3003
,  // measure 59
0110
0000
0110
0000
,  // measure 60
0010
0100
0001
0000
,  // measure 61
2000
0000
3001
0001
,  // measure 62
1000
1000
0010
0100
,  // measure 63
0001
0001
1000
1000
,  // measure 64
0010
0000
0100
0000
0000
0110
0000
0000
,  // measure 65
1001
0000
1000
0001
,  // measure 66
0010
0000
0100
1000
,  // measure 67
0010
0000
0110
0000
,  // measure 68
0010
0100
1000
0001
,  // measure 69
2000
0000
0000
0000
,  // measure 70
3000
0000
0000
0000
;

//---------------dance-single - ----------------
#NOTES:
     dance-single:
     :
     Medium:
     8:
     0.381,0.489,0.393,0.330,0.043:
1000
1000
1000
1000
,
0001
0001
0001
0001
,
1000
1000
1000
1000
,
0100
0100
0100
0100
,
1000
1000
1000
1000
,
0010
0010
0010
0010
,
0110
0000
0110
0000
,
1001
0001
0001
0000
,
2002
0000
0000
3003
,
2200
0000
0000
3300
,
0202
0000
0000
0303
,
2020
0000
0000
0000
3030
1010
0000
0000
,
0220
0000
0000
0330
,
2002
0000
0000
3003
,
0101
0000
1010
0000
,
0110
0000
0010
0000
1000
0001
0000
0000
,
0220
0000
0000
0330
,
0022
0000
0000
0033
,
2002
0000
0000
3003
,
2020
0000
0000
3030
0000
1010
0000
0000
,
1001
0000
1000
0000
0001
0000
1000
0100
,
0010
0000
0001
0000
0100
0000
0010
1000
,
0100
0100
1100
1000
,
1001
0000
0001
0000
0010
0100
0000
0000
,
1001
0000
1000
0000
0020
0100
0000
0130
,
0001
0000
0010
0000
0100
0000
0010
0001
,
2000
0001
0000
3001
1000
0000
0010
0000
,
0100
0001
0000
0010
0000
0200
0000
0000
,
1300
0000
0001
0000
0020
0001
0000
0031
,
1000
0000
0010
0000
0100
0000
0010
1000
,
0010
1000
0002
1000
0000
1003
0001
0000
,
0010
0100
0010
0001
,
1200
0000
0000
0000
0000
1000
0000
1300
,
0020
0000
0000
0000
0100
0000
0000
0130
,
0001
1000
0000
1000
0000
0000
0001
0000
,
0100
0001
0000
0010
0000
0200
0000
0000
,
2300
0000
0000
0000
0000
0001
0000
3001
,
0200
0000
0000
0000
0010
0000
0000
0310
,
0100
0010
0100
0010
0000
1000
0001
0000
,
0020
0000
0230
0000
1300
0001
1000
0000
,
1200
1300
0120
0130
,
0012
0000
0000
0000
0013
0000
0000
0001
0000
1000
0000
0010
0000
0100
0000
0000
,
0201
0301
0210
0310
,
2010
0000
0000
0000
3010
0000
0000
1000
0000
0100
0000
0010
0000
0001
0000
0000
,
0101
0000
0100
0000
0100
0010
1000
0100
,
1000
1000
1000
1000
,
0001
0000
0001
0000
0001
0000
0001
1000
,
0000
0100
0000
0010
0000
0001
1000
0000
,
0100
0000
0100
0000
0100
1000
0100
1000
,
0010
0000
0010
0000
0010
0100
0010
0100
,
0010
0000
0110
0000
,
1001
0000
0001
0000
1000
0001
0000
0000
,
0101
0000
0000
0101
0000
0000
0000
0000
,
1001
0000
0000
1001
0000
0000
0000
0000
,
1100
0000
0000
1100
0000
0000
0000
0000
,
0110
0000
0000
0110
0000
0101
0000
0000
,
1001
0000
0000
1001
0000
0000
0000
0000
,
1100
0000
0000
1100
0000
0000
0000
0000
,
0011
0010
0011
0001
,
1001
0000
1000
0000
0010
0100
0000
0000
,
0002
0000
0000
1003
0000
0000
0010
0100
,
0001
0000
0000
0001
0000
0000
0010
0100
,
1000
0000
0000
1000
0000
0000
0100
1000
,
0010
0000
0000
0000
0000
0010
0000
0000
0000
0000
0101
0000
0000
0000
0000
0000
,
0120
0000
0000
0000
0000
0000
1030
0000
0010
0100
0000
0001
,
0020
0000
0000
0000
0031
1000
0001
1000
,
0100
0000
0000
0100
1000
0000
0000
1000
,
0001
0000
0010
0000
0100
1000
0000
0000
,
0200
0000
0000
0000
,
0300
0000
0000
0000
;

//---------------dance-single - ----------------
#NOTES:
     dance-single:
     :
     Hard:
     11:
     0.468,0.489,0.307,0.228,0.240:
0002
1000
1000
1003
,
0200
1000
1000
1300
,
0020
0100
0100
0130
,
0002
1000
1000
1003
,
0020
1000
1000
1030
,
0002
0010
0010
0013
,
1001
0000
1001
0000
,
1001
0000
0001
0010
0100
1000
0001
0000
,
0101
0000
0000
0100
0000
0000
0100
0000
0000
0100
0000
0000
0000
0000
0000
0000
,
0110
0000
0000
0010
0000
0000
0010
0000
0000
0010
0000
0000
0000
0000
0000
0000
,
1001
0000
0000
1000
0000
0000
1000
0000
0000
1000
0000
0000
0000
0000
0000
0000
,
0110
0000
0000
0100
0000
0000
0100
0000
0000
0000
0101
0000
0000
0000
0000
0000
,
1001
0000
0000
0001
0000
0000
0001
0000
0000
0001
0000
0000
0000
0000
0000
0000
,
0011
0000
0000
0010
0000
0000
0010
0000
0000
0010
0000
0000
0000
0000
0000
0000
,
1001
0000
0000
0001
0000
0000
0001
0000
0100
0000
0000
0100
0000
0000
0100
0000
,
0020
0000
2030
0000
3100
0010
0000
0000
,
1001
0000
0000
0001
0000
0000
0001
0000
0000
0001
0000
0000
0000
0000
0000
0000
,
0110
0000
0000
0100
0000
0000
0100
0000
0000
0100
0000
0000
0000
0000
0000
0000
,
1001
0000
0000
1000
0000
0000
1000
0000
0000
1000
0000
0000
0000
0000
0000
0000
,
1100
0000
0000
0100
0000
0000
0100
0000
0000
0000
1001
0000
0000
0000
0000
0000
,
1010
0000
0000
0010
0000
0000
0010
0000
0000
0010
0000
0000
0010
0000
0100
0000
,
0001
0000
0000
0001
0000
0000
0001
0000
0000
0001
0000
0000
0001
0000
0010
0000
,
0100
0000
0000
0100
0000
0000
0100
0000
1000
0000
0000
1000
0000
0000
1000
0000
,
0020
0000
0230
0000
0301
1000
0000
0000
,
1001
0000
1000
0000
0001
0100
0001
0100
,
0010
0000
1000
0000
0100
0000
0010
0001
,
1000
0100
0001
0100
1000
0000
0001
0000
,
1000
0100
0010
0001
1000
0020
0000
0000
,
1030
0000
0001
0000
0010
0001
0010
0001
,
0100
0000
0010
0000
1000
0000
0010
0100
,
0001
0010
1000
0010
0001
1000
0001
0000
,
0100
0010
0100
0001
1000
0100
1000
0001
,
0200
0000
0001
0000
0000
0010
0000
0310
,
2000
0000
0001
0000
0000
0000
3001
1000
,
0100
0010
0001
0100
0001
0000
0100
0000
,
0010
1000
0001
0010
0001
2000
0000
0000
,
3002
0000
1000
0000
0000
0100
0000
0103
,
0020
0000
1000
0000
0000
0000
1030
0001
,
0010
0100
1000
0001
0000
0100
0010
0000
,
0100
0001
0100
0001
0010
0100
1000
0001
,
0100
0000
0101
0001
1000
0000
1001
0000
,
0200
0000
0000
0000
1300
0000
0001
1000
0000
0010
0000
0100
0000
0101
0000
0000
,
1001
0000
1100
1000
0001
0000
1001
0000
,
0200
0000
0000
0000
0301
0000
1000
0001
0000
0010
0000
0100
0000
1000
0001
0000
,
1000
0010
1000
0000
1000
0001
0100
0010
,
1000
0001
1000
0000
1000
0100
1000
0001
,
0010
0100
0010
0000
0010
0001
0010
0100
,
0000
1000
0000
0010
0000
0200
0000
0000
,
0301
1000
0001
0000
0001
0010
0001
1000
,
0010
0100
0010
0000
0010
0100
0010
0001
,
1001
0000
1001
0000
,
1002
0000
2003
0000
3100
0010
0000
0000
,
0101
0000
0000
0001
0000
0000
0001
0000
0000
1001
0000
0000
0000
0000
0000
0000
,
1010
0000
0000
0010
0000
0000
0010
0000
0000
0110
0000
0000
0000
0000
0000
0000
,
1001
0000
0000
1000
0000
0000
1000
0000
0000
1100
0000
0000
0000
0000
0000
0000
,
1001
0000
0000
0001
0000
0000
0001
0000
0000
0000
0101
0000
0000
0000
0000
0000
,
0110
0000
0000
0010
0000
0000
0010
0000
0000
0010
0000
0000
0010
0000
0100
0000
,
0001
0000
0000
0001
0000
0000
0001
0000
0000
0001
0000
0000
0001
0000
1000
0000
,
1100
0000
0000
0100
0000
0000
0100
0000
0010
0000
0000
0010
0000
0000
0010
0000
,
0002
0000
0203
0000
0301
1000
0100
0001
,
0200
0000
0000
0000
0000
0000
1300
0000
0000
0001
0000
0000
0100
0000
0001
0000
,
1000
0000
0000
0100
0000
0000
1000
0000
0000
0100
0000
0000
1000
0000
0001
0000
,
0100
0000
0000
0010
0000
0000
0100
0000
0000
0010
0000
0000
0100
0000
0001
0000
,
0010
0000
0000
0001
0000
0001
0000
0000
0000
0000
1001
0000
0000
0000
0000
0000
,
1002
0000
0000
0000
0000
0000
0013
0001
0010
0001
1000
0010
,
2000
0000
0000
0000
0000
0000
0000
0000
3010
0000
0000
1000
0001
0000
0010
0000
,
0100
0000
0000
0100
0000
0000
0100
0000
1000
0000
0000
1000
0000
0000
1000
0000
,
0020
0000
2030
0000
3001
0010
0000
0000
,
0002
0000
0000
0000
,
0003
0000
0000
0000
;

//---------------dance-single - ----------------
#NOTES:
     dance-single:
     :
     Challenge:
     13:
     0.639,0.679,1.000,0.087,0.401:
1000
0001
0100
0000
0001
1000
0001
1000
,
0100
0010
0100
0000
1000
0010
0100
0000
,
0001
0010
0001
0000
0010
0001
1000
0001
,
0010
0100
0000
1000
0000
0002
0000
0000
,
1003
0100
1000
0000
0100
1000
0100
1000
,
0001
0000
0100
0000
0010
0000
0000
0000
1000
0000
0001
0100
0001
0100
0001
0000
,
1001
0000
1001
0000
,
1010
0000
0110
0000
0101
0001
1000
0000
,
1100
0000
0000
1100
0000
0000
1100
0000
0000
1100
0000
0000
0000
0000
0000
0000
,
0101
0000
0000
0101
0000
0000
0101
0000
0000
0101
0000
0000
0000
0000
0000
0000
,
1001
0000
0000
1001
0000
0000
1001
0000
0000
1001
0000
0000
0000
0000
0000
0000
,
0011
0000
0000
0011
0000
0000
0011
0000
0000
0000
1001
0000
0000
0000
0000
0000
,
0110
0000
0000
0110
0000
0000
0110
0000
0000
0110
0000
0000
0000
0000
0000
0000
,
1010
0000
0000
1010
0000
0000
1010
0000
0000
1010
0000
0000
0000
0000
0000
0000
,
0011
0000
0000
0011
0000
0000
0011
0000
1001
0000
0000
1001
0000
0000
1001
0000
,
1100
0000
0110
0000
0011
0001
1000
0000
,
1010
0000
0000
1010
0000
0000
1010
0000
0000
1010
0000
0000
0100
0000
0000
0000
,
1001
0000
0000
1001
0000
0000
1001
0000
0000
1001
0000
0000
0010
0000
0100
0000
,
0101
0000
0000
0101
0000
0000
0101
0000
0000
0101
0000
0000
0000
0000
0000
0000
,
1001
0000
0000
1001
0000
0000
1001
0000
0000
0000
1100
0000
0000
0000
0000
0000
,
1001
0000
0000
1001
0000
0000
1001
0000
0000
1001
0000
0000
0001
0000
0100
0000
,
0110
0000
0000
0110
0000
0000
0110
0000
0000
0110
0000
0000
0010
0000
0100
0000
,
1100
0000
0000
1100
0000
0000
1100
0000
1001
0000
0000
1001
0000
0000
1001
0000
,
0101
0000
0110
0000
1010
1000
0001
0000
,
0011
0000
0000
0010
0000
0000
0100
0000
0000
0100
0000
0000
1000
0000
0001
0000
,
0100
0000
0000
0100
0000
0000
0010
0000
0000
0010
0000
0000
1000
0000
0001
0000
,
0010
0000
0000
0010
0000
0000
0100
0000
0000
0100
0000
0000
1000
0000
0001
0000
,
0100
0000
0000
0100
0000
0000
0100
0000
0000
0000
1002
0000
0000
0000
0000
0000
,
1003
0000
0000
1000
0000
0000
0100
0000
0000
0100
0000
0000
1000
0000
0001
0000
,
0100
0000
0000
0100
0000
0000
0010
0000
0000
0010
0000
0000
1000
0000
0001
0000
,
0010
0000
0000
0010
0000
0000
0100
0000
0000
0100
0000
0000
1000
0000
0001
0000
,
0100
0000
0000
0100
0000
0000
0010
0000
0000
0010
0000
0000
1000
0000
0001
0000
,
0010
0100
1000
0001
0010
0001
1000
0000
,
0100
1000
0010
0100
0001
1000
0100
0000
,
1000
0001
0010
0100
0010
0001
1000
0000
,
0010
0100
0001
1000
0010
2010
0000
0000
,
3001
0010
0100
0010
0001
1000
0010
0000
,
0100
0001
1000
0100
0010
0100
1000
0000
,
1001
0001
1000
1010
0000
0100
0110
0000
,
0010
0000
0001
1000
0000
1000
0001
0000
0010
0000
0100
0000
1000
0001
1000
0001
,
1000
0000
0100
0000
0000
0000
0000
0000
1000
0000
0001
0000
1000
0000
0010
0000
0000
0000
0100
0000
0000
0100
0000
0000
0110
0000
0000
0000
0000
0000
0000
0000
,
1000
0001
0000
0000
0010
0000
0100
1000
0000
0010
0000
0100
0000
0101
0000
0000
,
0001
0000
1000
0000
0000
0000
0000
0000
0100
0000
1000
0000
0001
0000
0010
0000
0000
0000
0100
0000
0000
0100
0000
0000
0110
0000
0000
0000
0000
0000
0000
0000
,
0001
0010
0000
0000
0001
0000
1000
0010
0000
0100
0000
0001
1000
0100
1000
0000
,
0001
0100
0001
0100
0001
1000
0001
0000
,
0010
0100
0010
0100
1000
0010
1000
0000
,
0001
1000
0001
1000
0010
0100
0010
0000
,
1000
0100
0010
0001
1000
0020
0000
0000
,
1030
0001
1000
0001
0010
0100
0010
0000
,
0001
0000
0100
0000
0001
0000
0100
0000
0001
0000
1000
0001
1000
0001
1000
0000
,
1001
0000
1001
0000
,
0011
0000
0110
0000
1100
1000
0001
0000
,
0101
0000
0000
0101
0000
0000
0101
0000
0000
0101
0000
0000
0100
0000
0001
0000
,
1001
0000
0000
1001
0000
0000
1001
0000
0000
1001
0000
0000
1000
0000
0100
0000
,
1100
0000
0000
1100
0000
0000
1100
0000
0000
1100
0000
0000
1000
0000
0010
0000
,
0110
0000
0000
0110
0000
0000
0110
0000
0000
0000
2002
0000
0000
0000
3003
0000
,
0101
0000
0000
0101
0000
0000
0101
0000
0000
0101
0000
0000
0001
0000
1000
0000
,
1100
0000
0000
1100
0000
0000
1100
0000
0000
1100
0000
0000
1000
0000
0010
0000
,
0110
0000
0000
0110
0000
0000
0110
0000
0101
0000
0000
0101
0000
0000
0101
0000
,
1001
0000
0000
0000
1100
0000
0000
0000
0011
0000
0001
0000
1000
0000
0100
1000
,
0100
1000
0100
1000
0100
0000
1001
0000
0000
0101
0000
0000
1001
0000
1000
0000
,
1010
0000
0000
0110
0000
0000
1010
0000
0000
0110
0000
0000
1010
0000
1000
0000
,
1001
0000
0000
0011
0000
0000
1001
0000
0000
0011
0000
0000
1001
0000
0001
0000
,
0101
0000
0000
0100
0000
0100
0000
0000
0000
0000
2002
0000
0000
0000
3003
0000
,
1200
0000
0000
0000
0000
0000
1300
0001
0010
0100
1000
0001
,
0200
0000
0000
0000
0000
0000
0000
0000
0301
1000
0000
1000
0010
0000
0100
0000
,
0101
0000
0000
0101
0000
0000
0101
0000
1001
0000
0000
1001
0000
0000
1001
0000
,
1100
0000
0000
0000
0110
0000
0000
0000
0011
0000
0001
0000
1000
0010
1000
0010
,
0200
0000
0000
0000
,
0300
0000
0000
0000
;

//---------------dance-double - ----------------
#NOTES:
     dance-double:
     :
     Easy:
     5:
     0.269,0.353,0.236,0.393,0.000:
10000000
00000000
10000000
00000000
,
00100000
00000000
00100000
00000000
,
01000000
00000000
01000000
00000000
,
00001000
00000000
00001000
00000000
,
00010000
00000000
00010000
00000000
,
00000100
00000000
00000100
00000000
,
00000110
00000000
00000110
00000000
,
00000220
00000000
00000000
00000330
,
00002002
00000000
00000000
00003003
,
00002002
00000000
00000000
00003003
,
00002002
00000000
00000000
00003003
,
00002002
00000000
00000000
00000000
00000000
00003003
00000000
00000000
,
00022000
00000000
00000000
00033000
,
00022000
00000000
00000000
00033000
,
01100000
00000000
01100000
00000000
,
00100000
01000000
00100000
00000000
,
20020000
00000000
00000000
30030000
,
20020000
00000000
00000000
30030000
,
20020000
00000000
00000000
30030000
,
20020000
00000000
00000000
00000000
00000000
30030000
00000000
00000000
,
00001000
00010000
00001000
00010000
,
00000100
00000010
00000100
00000010
,
00000100
00000000
00000110
00000000
,
00000100
00000001
00000010
00000100
,
00020000
00000000
00031000
00000000
,
00200000
00000000
00310000
00000000
,
02000000
00000000
03100000
00000000
,
10000000
01000000
10000000
01000000
,
00200000
00000000
00301000
00000000
,
00020000
00000000
00031000
00000000
,
00000020
00000000
00000130
00000000
,
00000001
00001000
00000001
00000000
,
00001001
00001000
00000100
00000000
,
00010000
00001000
01000000
00000000
,
00100000
10000000
01000000
00000000
,
10000000
00010000
10000000
01000000
,
00100000
00001000
00010000
00000000
,
00001000
00010000
00000100
00000000
,
00001000
00000001
00000010
00000100
,
00010000
00001000
00010000
00001000
,
02000000
03100000
20000000
30010000
,
02000000
03010000
00200000
00301000
,
00020000
00031000
00000020
00000130
,
00000002
00001003
00000020
00000130
,
00000001
00000000
00001000
00000000
,
00000001
00000000
00000010
00000000
,
00000001
00000000
00010000
00000000
,
00000100
00000000
00000010
00000000
,
00000001
00000000
00000010
00000000
,
00000100
00000000
00010000
00000000
,
00001000
00000000
00011000
00000000
,
00011000
00000000
00000000
00000000
,
20020000
00000000
00000000
30030000
,
20020000
00000000
00000000
30030000
,
20020000
00000000
00000000
30030000
,
20020000
00000000
00000000
30030000
00000000
00000000
00000000
00000000
,
00022000
00000000
00000000
00033000
,
00022000
00000000
00000000
00033000
,
00011000
00000000
00011000
00000000
,
00001000
00010000
00000010
00000000
,
00000200
00000000
00000301
00000001
,
00001000
00001000
00000100
00010000
,
00001000
00001000
01000000
01000000
,
00010000
00000000
10000000
00000000
00000000
10010000
00000000
00000000
,
10010000
00000000
10000000
01000000
,
00100000
00000000
00001000
00010000
,
00000010
00000000
00000110
00000000
,
00000100
00000010
00000001
00010000
,
00002000
00000000
00000000
00000000
,
00003000
00000000
00000000
00000000
;

//---------------dance-double - ----------------
#NOTES:
     dance-double:
     :
     Medium:
     8:
     0.391,0.489,0.385,0.244,0.043:
10000000
01000000
10000000
01000000
,
00100000
00010000
00100000
00010000
,
01000000
00100000
01000000
00100000
,
01000000
00001000
01000000
00001000
,
00010000
00001000
00010000
00001000
,
00010000
00000010
00010000
00000010
,
00000110
00000000
00000110
00000000
,
00000110
00000100
00000100
00000000
,
00002002
00000000
00000000
00003003
,
00000220
00000000
00000000
00000330
,
00020020
00000000
00000000
00030030
,
00022000
00000000
00000000
00033000
00000000
00011000
00000000
00000000
,
02200000
00000000
00000000
03300000
,
22000000
00000000
00000000
33000000
,
10010000
00000000
10010000
00000000
,
10010000
00000000
10000000
00000000
00001000
00010000
00000000
00000000
,
00022000
00000000
00000000
00033000
,
00020020
00000000
00000000
00030030
,
00000220
00000000
00000000
00000330
,
00002002
00000000
00000000
00003003
00000000
00001001
00000000
00000000
,
00000011
00000000
00000001
00000000
00001000
00000000
00000001
00000100
,
00001000
00000000
00000100
00000000
00000001
00000000
00001000
00000100
,
00010000
00010000
00011000
00001000
,
01001000
00000000
01000000
00000000
00100000
01000000
00000000
00000000
,
00010000
10000000
00010000
00000000
10000000
01000000
10000000
01000000
,
00010000
00000000
01000000
00000000
10000000
00000000
00100000
01000000
,
00001000
00010000
00001000
00010000
00001000
00000000
00010000
00000000
,
00000001
00001000
00000000
00000100
00000000
00002000
00000000
00000000
,
00003001
00001000
00000001
00000000
00000100
00000010
00000100
00000010
,
00010000
00000000
00001000
00000000
00100000
00000000
01000000
10000000
,
01000000
10000000
00001000
01000000
00001000
01000000
00001000
00000000
,
00010000
00000100
00000001
00000100
,
00010000
00001000
01000000
10000000
,
01000000
00000000
00001000
00000000
00010000
00000000
00000010
00000100
,
00000010
00000100
00000001
00000010
00000001
00000000
00000100
00000000
,
00001000
00000100
00000000
00000001
00000000
00010000
00001000
00000000
,
00010000
00000000
00000010
00000000
00000001
00000010
00000001
00000010
,
00010000
00000000
00001000
00000000
01000000
00000000
00010000
10000000
,
00001000
00100000
00001000
00100000
00001000
00010000
00000010
00000000
,
00000100
00000001
00000100
00000001
00010000
00001000
00010000
00000000
,
00012000
01003000
10200000
01300000
,
00021000
00000000
00000000
00000000
00031000
00000000
00000000
00010000
00000000
00000010
00000000
00000100
00000000
00000001
00000000
00000000
,
00002001
00003100
00020100
00031000
,
02100000
00000000
00000000
00000000
03010000
00000000
00000000
10000000
00000000
01000000
00000000
00100000
00000000
00001000
00000000
00000000
,
00011000
00000000
00010000
00000000
00010000
00000100
00000010
00000001
,
00000100
00000000
00000100
00000000
00000100
00000001
00000010
00000100
,
00010000
00000000
00010000
00000000
00010000
00000000
00010000
00001000
,
00000000
01000000
00000000
00100000
00000000
10100000
00000000
00000000
,
10000000
00000000
10000000
00000000
10000000
00100000
01000000
00001000
,
00010000
00000000
00001000
00000000
00001000
00010000
00000100
00000010
,
00000001
00000000
00001001
00000000
,
00001001
00000000
00000001
00000000
00000100
00000010
00000000
00000000
,
00000110
00000000
00000000
00000110
00000000
00000000
00000000
00000000
,
00011000
00000000
00000000
00011000
00000000
00000000
00000000
00000000
,
01100000
00000000
00000000
01100000
00000000
00000000
00000000
00000000
,
10010000
00000000
00000000
10010000
00000000
01010000
00000000
00000000
,
00011000
00000000
00000000
00011000
00000000
00000000
00000000
00000000
,
00000110
00000000
00000000
00000110
00000000
00000000
00000000
00000000
,
00001001
00001000
00001001
00000001
,
00000110
00000000
00001000
00000000
00010000
00001000
00000000
00000000
,
00020000
00000000
00000000
00031000
00000000
00000000
00010000
00001000
,
01000000
00000000
00000000
01000000
00000000
00000000
00100000
10000000
,
00001000
00000000
00000000
00001000
00000000
00000000
00001000
00000100
,
00000010
00000000
00000000
00000000
00000000
00000010
00000000
00000000
00000000
00000000
00000110
00000000
00000000
00000000
00000000
00000000
,
00002001
00000000
00000000
00000000
00000000
00000000
00003001
00000000
00001000
00000100
00000000
00010000
,
00002000
00000000
00000000
00000000
00103000
01000000
00100000
01000000
,
10000000
00000000
00000000
10000000
00100000
00000000
00000000
00100000
,
01000000
00000000
00001000
00000000
00010000
00000100
00000000
00000000
,
00002000
00000000
00000000
00000000
,
00003000
00000000
00000000
00000000
;

//---------------dance-double - ----------------
#NOTES:
     dance-double:
     :
     Hard:
     11:
     0.464,0.434,0.346,0.142,0.240:
00002000
00000001
00000001
00003001
,
00000020
00000001
00000001
00000031
,
00000200
00000010
00000010
00000310
,
00020000
00001000
00001000
00031000
,
02000000
00001000
00001000
03001000
,
20000000
00010000
00010000
30010000
,
10010000
00000000
10010000
00000000
,
10010000
00110000
11000000
10000000
,
01100000
00000000
00000000
00100000
00000000
00000000
00100000
00000000
00000000
00100000
00000000
00000000
00000000
00000000
00000000
00000000
,
00011000
00000000
00000000
00001000
00000000
00000000
00001000
00000000
00000000
00001000
00000000
00000000
00000000
00000000
00000000
00000000
,
00000110
00000000
00000000
00000100
00000000
00000000
00000100
00000000
00000000
00000100
00000000
00000000
00000000
00000000
00000000
00000000
,
00001001
00000000
00000000
00001000
00000000
00000000
00001000
00000000
00000000
00000000
00010100
00000000
00000000
00000000
00000000
00000000
,
10001000
00000000
00000000
10000000
00000000
00000000
10000000
00000000
00000000
10000000
00000000
00000000
00000000
00000000
00000000
00000000
,
01100000
00000000
00000000
00100000
00000000
00000000
00100000
00000000
00000000
00100000
00000000
00000000
00000000
00000000
00000000
00000000
,
01010000
00000000
00000000
01000000
00000000
00000000
01000000
00000000
00001000
00000000
00000000
00001000
00000000
00000000
00001000
00000000
,
00020000
00000000
00030200
00000000
00000310
00000001
00000000
00000000
,
00001001
00000000
00000000
00000001
00000000
00000000
00000001
00000000
00000000
00000001
00000000
00000000
00000000
00000000
00000000
00000000
,
00000110
00000000
00000000
00000100
00000000
00000000
00000100
00000000
00000000
00000100
00000000
00000000
00000000
00000000
00000000
00000000
,
00010001
00000000
00000000
00010000
00000000
00000000
00010000
00000000
00000000
00010000
00000000
00000000
00000000
00000000
00000000
00000000
,
01100000
00000000
00000000
01000000
00000000
00000000
01000000
00000000
00000000
00000000
01001000
00000000
00000000
00000000
00000000
00000000
,
00011000
00000000
00000000
00001000
00000000
00000000
00001000
00000000
00000000
00001000
00000000
00000000
00001000
00000000
00010000
00000000
,
00000010
00000000
00000000
00000010
00000000
00000000
00000010
00000000
00000000
00000010
00000000
00000000
00000010
00000000
00000100
00000000
,
00000001
00000000
00000000
00000001
00000000
00000000
00000001
00000000
00001000
00000000
00000000
00001000
00000000
00000000
00001000
00000000
,
00000200
00000000
00020300
00000000
00031000
01000000
00000000
00000000
,
01100000
00000000
00100000
00000000
10000000
01000000
00100000
00010000
,
10000000
00000000
00100000
00000000
10000000
00000000
00010000
00100000
,
00001000
00010000
00000010
00000100
00000010
00000000
00000100
00000000
,
00000001
00000100
00000010
00010000
00001000
00020000
00000000
00000000
,
00031000
00000000
01000000
00000000
00100000
10000000
01000000
00100000
,
00010000
00000000
01000000
00000000
00001000
00000000
00010000
00001000
,
01000000
00100000
10000000
01000000
00000000
01000000
10000000
00000000
,
00010000
10000000
00010000
00100000
01000000
00100000
00010000
01000000
,
00001000
00000000
00010000
00000000
00000100
00000010
00000001
00000010
,
00000100
00000000
00010000
00000000
00001000
00000000
01000000
00010000
,
00100000
10000000
00100000
00010000
01000000
00000000
00100000
00000000
,
10000000
01000000
00100000
00001000
00010000
00001000
00000000
00000000
,
00011000
00000000
00000100
00000000
00000010
00000001
00000100
00000001
,
00000010
00000000
00000100
00000000
00010000
00000000
00001000
00100000
,
01000000
10000000
00010000
00100000
00000000
00100000
00010000
00000000
,
00100000
00001000
00100000
00001000
00010000
00000010
00000100
00000001
,
00001000
00000000
00001001
00000001
00000010
00000000
00000010
00000000
,
00011000
00000000
00000000
00000000
00001000
00000000
01000000
00100000
00000000
10000000
00000000
00010000
00000000
10010000
00000000
00000000
,
00100000
00000000
00110000
00100000
00001000
00000000
00001000
00000000
,
00000110
00000000
00000000
00000000
00000010
00000000
00000100
00000001
00000000
00000010
00000000
00000100
00000000
00001000
00000001
00000000
,
00010000
00000100
00010000
00000000
00010000
00000001
00000010
00000100
,
00010000
00001000
01000000
00000000
01000000
00100000
01000000
00010000
,
10000000
01000000
00100000
00000000
00100000
00001000
00100000
00001000
,
00000000
00010000
00000000
00000010
00000000
00000200
00000000
00000000
,
00000301
00001000
00000001
00000000
00000001
00000010
00000001
00001000
,
00000010
00000100
00000010
00000000
00000010
00000100
00000010
00010000
,
00011000
00000000
00011000
00000000
,
00011000
00000000
01001000
00000000
01000000
00100000
10000000
00000000
,
10010000
00000000
00000000
00010000
00000000
00000000
00010000
00000000
00000000
01010000
00000000
00000000
00000000
00000000
00000000
00000000
,
00101000
00000000
00000000
00001000
00000000
00000000
00001000
00000000
00000000
00011000
00000000
00000000
00000000
00000000
00000000
00000000
,
00000110
00000000
00000000
00000100
00000000
00000000
00000100
00000000
00000000
00000101
00000000
00000000
00000000
00000000
00000000
00000000
,
00001010
00000000
00000000
00000010
00000000
00000000
00000010
00000000
00000000
00000000
00000110
00000000
00000000
00000000
00000000
00000000
,
00011000
00000000
00000000
00010000
00000000
00000000
00010000
00000000
00000000
00010000
00000000
00000000
00010000
00000000
00001000
00000000
,
00100000
00000000
00000000
00100000
00000000
00000000
00100000
00000000
00000000
00100000
00000000
00000000
00100000
00000000
01000000
00000000
,
10000000
00000000
00000000
10000000
00000000
00000000
10000000
00000000
00010000
00000000
00000000
00010000
00000000
00000000
00010000
00000000
,
00110000
00000000
00011000
00000000
00010010
00000000
00000010
00000100
,
00000002
00000000
00000000
00000000
00000000
00000000
00001003
00000000
00000000
00000001
00000000
00000000
00000010
00000000
00000100
00000000
,
00010000
00000000
00000000
00001000
00000000
00000000
01000000
00000000
00000000
00100000
00000000
00000000
01000000
00000000
00010000
00000000
,
10000000
00000000
00000000
01000000
00000000
00000000
10000000
00000000
00000000
00010000
00000000
00000000
00100000
00000000
00001000
00000000
,
00010000
00000000
00000000
00001000
00000000
00001000
00000000
00000000
00000000
00000000
00011000
00000000
00000000
00000000
00000000
00000000
,
00000120
00000000
00000000
00000000
00000000
00000000
00000130
00000001
00000100
00000001
00000010
00000100
,
00020000
00000000
00000000
00000000
00000000
00000000
00000000
00000000
00031000
00000000
00000000
00010000
00001000
00000000
00100000
00000000
,
01000000
00000000
00000000
01000000
00000000
00000000
01000000
00000000
10000000
00000000
00000000
10000000
00000000
00000000
10000000
00000000
,
00200000
00000000
02300000
00000000
03001000
00010000
00000000
00000000
,
00002000
00000000
00000000
00000000
,
00003000
00000000
00000000
00000000
;

//---------------dance-double - ----------------
#NOTES:
     dance-double:
     :
     Challenge:
     13:
     0.648,0.679,1.000,0.094,0.401:
10000000
01000000
10000000
00000000
00100000
01000000
00100000
01000000
,
00010000
00100000
00010000
00000000
10000000
00100000
10000000
00000000
,
00001000
00010000
00001000
00000000
00010000
00000010
00000100
00000010
,
00010000
00000001
00000000
00000010
00000000
00000200
00000000
00000000
,
00010300
00000100
00010000
00000000
00001000
00100000
01000000
00100000
,
00001000
00000000
10000000
00000000
00001000
00000000
00000000
00000000
10000000
00000000
01000000
10000000
01000000
10000000
01000000
00000000
,
10010000
00000000
10010000
00000000
,
11000000
00000000
01100000
00000000
00110000
00010000
10000000
00000000
,
10100000
00000000
00000000
10100000
00000000
00000000
10100000
00000000
00000000
10100000
00000000
00000000
00000000
00000000
00000000
00000000
,
00011000
00000000
00000000
00011000
00000000
00000000
00011000
00000000
00000000
00011000
00000000
00000000
00000000
00000000
00000000
00000000
,
00000110
00000000
00000000
00000110
00000000
00000000
00000110
00000000
00000000
00000110
00000000
00000000
00000000
00000000
00000000
00000000
,
00000101
00000000
00000000
00000101
00000000
00000000
00000101
00000000
00000000
00000000
00010001
00000000
00000000
00000000
00000000
00000000
,
00010100
00000000
00000000
00010100
00000000
00000000
00010100
00000000
00000000
00010100
00000000
00000000
00000000
00000000
00000000
00000000
,
00011000
00000000
00000000
00011000
00000000
00000000
00011000
00000000
00000000
00011000
00000000
00000000
00000000
00000000
00000000
00000000
,
01010000
00000000
00000000
01010000
00000000
00000000
01010000
00000000
10010000
00000000
00000000
10010000
00000000
00000000
10010000
00000000
,
00110000
00000000
01100000
00000000
11000000
10000000
00010000
00000000
,
01001000
00000000
00000000
01001000
00000000
00000000
01001000
00000000
00000000
01001000
00000000
00000000
00001000
00000000
00000000
00000000
,
00011000
00000000
00000000
00011000
00000000
00000000
00011000
00000000
00000000
00011000
00000000
00000000
00010000
00000000
00000010
00000000
,
00000110
00000000
00000000
00000110
00000000
00000000
00000110
00000000
00000000
00000110
00000000
00000000
00000000
00000000
00000000
00000000
,
00000101
00000000
00000000
00000101
00000000
00000000
00000101
00000000
00000000
00000000
00010001
00000000
00000000
00000000
00000000
00000000
,
00011000
00000000
00000000
00011000
00000000
00000000
00011000
00000000
00000000
00011000
00000000
00000000
00001000
00000000
10000000
00000000
,
10100000
00000000
00000000
10100000
00000000
00000000
10100000
00000000
00000000
10100000
00000000
00000000
00100000
00000000
01000000
00000000
,
01001000
00000000
00000000
01001000
00000000
00000000
01001000
00000000
00011000
00000000
00000000
00011000
00000000
00000000
00011000
00000000
,
00010100
00000000
00000110
00000000
00000011
00000001
00001000
00000000
,
00000101
00000000
00000000
00000001
00000000
00000000
00000010
00000000
00000000
00000010
00000000
00000000
00000100
00000000
00000010
00000000
,
00000001
00000000
00000000
00000001
00000000
00000000
00001000
00000000
00000000
00001000
00000000
00000000
00000100
00000000
00010000
00000000
,
00001000
00000000
00000000
00001000
00000000
00000000
00100000
00000000
00000000
00100000
00000000
00000000
00010000
00000000
10000000
00000000
,
01000000
00000000
00000000
01000000
00000000
00000000
01000000
00000000
00000000
00000000
10020000
00000000
00000000
00000000
00000000
00000000
,
10030000
00000000
00000000
10000000
00000000
00000000
00100000
00000000
00000000
00100000
00000000
00000000
01000000
00000000
00100000
00000000
,
10000000
00000000
00000000
10000000
00000000
00000000
00010000
00000000
00000000
00010000
00000000
00000000
00100000
00000000
00001000
00000000
,
00010000
00000000
00000000
00010000
00000000
00000000
00000010
00000000
00000000
00000010
00000000
00000000
00000100
00000000
00000001
00000000
,
00001000
00000000
00000100
00000000
00000010
00000000
00000100
00000000
00010000
00000000
00001000
00010000
00001000
00010000
00001000
00000000
,
10000000
00010000
01000000
00100000
10000000
00100000
01000000
00000000
,
00001000
00100000
01000000
00100000
00001000
00010000
00000100
00000000
,
00001000
00000100
00000010
00000001
00001000
00000001
00000010
00000000
,
00000100
00010000
00001000
01000000
00100000
20100000
00000000
00000000
,
30010000
01000000
00100000
01000000
00010000
00001000
00010000
00000000
,
00000010
00000100
00000001
00001000
00000001
00000100
00000010
00000000
,
00001001
00000001
00000100
00000110
00000000
00010000
00011000
00000000
,
00001000
00000000
01000000
00010000
00000000
00010000
01000000
00000000
00100000
00000000
10000000
00000000
00010000
10000000
00010000
10000000
,
00010000
00000000
00100000
00000000
00000000
00000000
00000000
00000000
00110000
00000000
00010000
00000000
10000000
00000000
01000000
00000000
00000000
00000000
00100000
00000000
00000000
00100000
00000000
00000000
00101000
00000000
00000000
00000000
00000000
00000000
00000000
00000000
,
00000010
00000100
00000000
00000000
00000101
00000000
00000100
00000010
00000000
00001000
00000000
00000100
00000000
00010100
00000000
00000000
,
01000000
00000000
00100000
00000000
00000000
00000000
00000000
00000000
10010000
00000000
10000000
00000000
00010000
00000000
01000000
00000000
00000000
00000000
00100000
00000000
00000000
00100000
00000000
00000000
01100000
00000000
00000000
00000000
00000000
00000000
00000000
00000000
,
00001000
00010000
00000000
00000000
00000010
00000000
00001000
00000001
00000000
00000010
00000000
00000100
00010000
00001000
00010000
00000000
,
00000010
00000100
00000010
00000100
00000001
00000010
00000100
00000000
,
00010000
00000100
00010000
00000100
00100000
00010000
00100000
00000000
,
00010000
10000000
00010000
10000000
01000000
00100000
01000000
00000000
,
10000000
00100000
00010000
00100000
10000000
00002000
00000000
00000000
,
00013000
00000010
00000100
00000010
00010000
00000001
00001000
00000000
,
00000001
00000000
00001000
00000000
00000100
00000000
00001000
00000000
00000001
00000000
00000100
00000010
00000100
00000010
00000100
00000000
,
00000110
00000000
00000110
00000000
,
00001010
00000000
00001001
00000000
00000101
00000001
00001000
00000000
,
00001100
00000000
00000000
00001100
00000000
00000000
00001100
00000000
00000000
00001100
00000000
00000000
00000100
00000000
00010000
00000000
,
00011000
00000000
00000000
00011000
00000000
00000000
00011000
00000000
00000000
00011000
00000000
00000000
00001000
00000000
01000000
00000000
,
01100000
00000000
00000000
01100000
00000000
00000000
01100000
00000000
00000000
01100000
00000000
00000000
00100000
00000000
10000000
00000000
,
10010000
00000000
00000000
10010000
00000000
00000000
10010000
00000000
00000000
00000000
02200000
00000000
00000000
00000000
03300000
00000000
,
10100000
00000000
00000000
10100000
00000000
00000000
10100000
00000000
00000000
10100000
00000000
00000000
10000000
00000000
00001000
00000000
,
00011000
00000000
00000000
00011000
00000000
00000000
00011000
00000000
00000000
00011000
00000000
00000000
00010000
00000000
00000010
00000000
,
00000110
00000000
00000000
00000110
00000000
00000000
00000110
00000000
00000101
00000000
00000000
00000101
00000000
00000000
00000101
00000000
,
00001001
00000000
00000000
00000000
00000110
00000000
00000000
00000000
00010010
00000000
00010000
00000000
00001000
00000000
01000000
00010000
,
01000000
00010000
01000000
00010000
01000000
00000000
10010000
00000000
00000000
11000000
00000000
00000000
10010000
00000000
10000000
00000000
,
10001000
00000000
00000000
00101000
00000000
00000000
10001000
00000000
00000000
00101000
00000000
00000000
10001000
00000000
00001000
00000000
,
00011000
00000000
00000000
00010010
00000000
00000000
00011000
00000000
00000000
00010010
00000000
00000000
00011000
00000000
00010000
00000000
,
00010002
00000000
00000000
00000010
00000000
00000013
00000000
00000000
00000000
00000000
00002002
00000000
00000000
00000000
00003003
00000000
,
00002100
00000000
00000000
00000000
00000000
00000000
00003001
00000010
00000100
00010000
00001000
01000000
,
00020000
00000000
00000000
00000000
00000000
00000000
00000000
00000000
10030000
01000000
00000000
01000000
10000000
00000000
00100000
00000000
,
01100000
00000000
00000000
01100000
00000000
00000000
01100000
00000000
01001000
00000000
00000000
01001000
00000000
00000000
01001000
00000000
,
00011000
00000000
00000000
00000000
00010100
00000000
00000000
00000000
00000110
00000000
00000100
00000000
00000001
00000010
00000001
00000010
,
00000200
00000000
00000000
00000000
,
00000300
00000000
00000000
00000000
;

//---------------dance-single - ----------------
#NOTES:
     dance-single:
     :
     Beginner:
     3:
     0.107,0.160,0.165,0.000,0.000: // measure 1
0001
0000
0000
0000
,  // measure 2
0001
0000
0000
0000
,  // measure 3
1000
0000
0000
0000
,  // measure 4
1000
0000
0000
0000
,  // measure 5
0100
0000
0000
0000
,  // measure 6
0100
0000
0000
0000
,  // measure 7
0110
0000
0010
0000
,  // measure 8
0010
0000
0000
0000
,  // measure 9
1001
0000
0000
0000
,  // measure 10
1000
0000
0000
0000
,  // measure 11
1001
0000
0000
0000
,  // measure 12
0001
0000
0000
0000
,  // measure 13
0110
0000
0000
0000
,  // measure 14
0100
0000
0000
0000
,  // measure 15
0110
0000
0000
0000
,  // measure 16
0010
0000
0000
0000
,  // measure 17
1001
0000
0000
0000
,  // measure 18
1000
0000
0000
0000
,  // measure 19
1001
0000
0000
0000
,  // measure 20
0001
0000
0000
0000
,  // measure 21
0110
0000
0000
0000
,  // measure 22
0010
0000
0000
0000
,  // measure 23
0110
0000
0100
0000
,  // measure 24
0100
0000
0000
0000
,  // measure 25
0001
0000
0000
0000
,  // measure 26
0010
0000
0000
0000
,  // measure 27
0100
0000
0000
0000
,  // measure 28
1000
0000
0000
0000
,  // measure 29
0001
0000
0000
0000
,  // measure 30
0010
0000
0000
0000
,  // measure 31
0100
0000
0000
0000
,  // measure 32
1000
0000
0000
0000
,  // measure 33
1001
0000
0000
0000
,  // measure 34
0001
0000
0000
0000
,  // measure 35
0010
0000
0000
0000
,  // measure 36
0010
0000
0000
0000
,  // measure 37
0001
0000
0000
0000
,  // measure 38
0001
0000
0000
0000
,  // measure 39
0100
0000
0000
0000
,  // measure 40
0100
0000
0000
0000
,  // measure 41
0110
0000
0000
0000
,  // measure 42
0010
0000
0000
0000
,  // measure 43
1001
0000
0000
0000
,  // measure 44
1000
0000
0000
0000
,  // measure 45
1001
0000
0000
0000
,  // measure 46
0001
0000
0000
0000
,  // measure 47
0001
0000
0000
0000
,  // measure 48
0001
0000
0000
0000
,  // measure 49
1000
0000
0000
0000
,  // measure 50
1000
0000
0000
0000
,  // measure 51
1001
0000
1000
0000
,  // measure 52
1000
0000
0000
0000
,  // measure 53
0110
0000
0000
0000
,  // measure 54
0010
0000
0000
0000
,  // measure 55
0110
0000
0000
0000
,  // measure 56
0010
0000
0000
0000
,  // measure 57
1001
0000
0000
0000
,  // measure 58
1000
0000
0000
0000
,  // measure 59
1000
0000
0000
0000
,  // measure 60
1001
0000
0000
0000
,  // measure 61
0000
0001
0000
0000
,  // measure 62
0100
0000
0000
0000
,  // measure 63
0010
0000
0000
0000
,  // measure 64
0100
0000
0000
0000
,  // measure 65
0110
0000
0000
0000
,  // measure 66
1001
0000
0000
0000
,  // measure 67
1000
0000
0100
0000
,  // measure 68
1000
0000
1000
0000
,  // measure 69
1001
0000
0000
0000
;
