#TITLE:Cookie Bouquets;
#SUBTITLE:;
#ARTIST:L.E.D. vs TOMOSUKE fw. crimm;
#TITLETRANSLIT:;
#SUBTITLETRANSLIT:;
#ARTISTTRANSLIT:;
#CREDIT:DigiMindAxel;
#BANNER:Cookie Bouquets.png;
#BACKGROUND:Cookie Bouquets-bg.png;
#LYRICSPATH:Cookie Bouquets.lrc;
#CDTITLE:beatmania IIDX.png;
#MUSIC:Cookie Bouquets.ogg;
#METERTYPE:DDR X;
#OFFSET:-9.646;
#SAMPLESTART:18.980;
#SAMPLELENGTH:12.000;
#SELECTABLE:YES;
#BPMS:0.000=102.500,16.000=205.000,248.000=102.500,280.000=205.000;
#STOPS:;
#BGCHANGES:-20.000=Cookie Bouquets.AVI=1.000=1=1=0,
99999=-nosongbg-=1.000=0=0=0 // don't automatically add -songbackground-
;

//---------------dance-single - ----------------
#NOTES:
     dance-single:
     :
     Easy:
     7:
     0.275,0.363,0.331,0.108,0.000:
1001
0001
0001
0000
,
1000
1000
1000
0000
,
0100
0100
0100
0000
,
0010
0010
0010
0000
,
1001
0000
0010
0000
,
0001
0000
0010
0000
,
0001
0000
0010
0000
,
0100
0000
1000
0000
,
0010
0000
1000
0000
,
0010
0000
0100
0000
,
0001
0000
0010
0000
,
0100
0000
1000
0000
,
0220
0000
0000
0000
,
0330
0000
0000
0000
,
2002
0000
0000
0000
,
3003
0000
0000
0000
,
0220
0000
0000
0000
,
0330
0000
0000
0000
,
2002
0000
0000
0000
,
3003
0000
0000
0000
,
0001
0000
0010
0000
,
0100
0000
1000
0000
,
0010
0000
1000
0000
,
0010
0000
0100
0000
,
0001
0000
0001
0000
,
1000
0000
1000
0000
,
0100
0000
1000
0000
,
0100
0000
0010
0000
,
0001
0000
0001
0000
,
1000
0000
1000
0000
,
0001
0000
0100
0000
,
0010
0000
1000
0000
,
0010
0000
0010
0000
,
0100
0000
0100
0000
,
0001
0000
0100
0000
,
0010
0000
1000
0000
,
1001
0000
0000
0001
0000
0000
0000
0000
,
0000
0000
0000
0110
0000
0000
0000
0000
,
1001
0000
0000
1000
0000
0000
0000
0000
,
0000
0000
0000
0110
0000
0000
0000
0000
,
1001
0000
0000
0001
0000
0000
0000
0000
,
0000
0000
0000
0110
0000
0000
0000
0000
,
1001
0000
0000
1000
0000
0000
0000
1001
,
0000
0000
0000
1001
0000
0000
0000
0000
,
1001
0000
0001
0010
,
0001
0000
1001
0000
,
0100
1000
0010
0000
,
1000
0001
1000
0000
,
1001
0000
0001
0100
,
0001
0000
1000
0100
,
1000
0001
1000
0000
,
0010
0100
0010
1000
,
0220
0000
0000
0000
,
0330
0000
0010
0000
,
1000
0010
0100
0000
,
0220
0000
0000
0330
,
0100
0000
0001
0000
,
2002
0000
0000
3003
,
0010
0001
0010
0000
,
0100
1000
0100
0000
,
1000
0000
0000
1001
0000
0000
1001
0000
,
0000
0000
0000
0000
,
1001
0000
0000
0000
,
0010
0000
0000
0000
,
0010
0000
0000
0000
,
0010
0000
0000
1001
,
1100
0010
0001
0010
,
0100
1000
0010
0100
,
0010
1000
0100
0010
,
0001
0010
0001
0000
,
1001
0100
1000
0100
,
0010
0001
0100
0000
,
1001
0001
0100
0010
,
1000
0010
0100
0000
,
1001
0001
0010
0100
,
1000
0100
1000
0000
,
1001
0001
1000
0010
,
0100
0001
0010
0001
,
1000
0000
0000
1001
0000
1001
0000
1001
,
0000
0000
0000
0100
0000
0000
0001
0000
,
1000
0000
0000
1001
0000
1001
0000
1001
,
0000
0000
0000
0010
0000
0000
1000
0000
,
0001
0000
0000
1001
0000
1001
0000
1001
,
0000
0000
0000
0010
0000
0000
1000
0000
,
0001
0000
0000
1001
0000
1001
0000
1001
,
0000
0100
0100
0110
;

//---------------dance-single - ----------------
#NOTES:
     dance-single:
     :
     Hard:
     14:
     0.634,0.826,0.408,0.177,0.150:
1001
0000
0000
0000
0110
0000
0000
0001
0000
0001
0000
0001
1000
0000
0000
0000
,
1100
0000
0000
0000
0011
0000
0000
0001
0000
0001
1000
0001
0000
0001
0000
0000
,
1000
0000
0010
0100
0001
0100
0001
0000
1000
0000
0100
1000
0100
1000
0001
0000
,
0010
0000
0100
0000
0010
0000
0001
0000
1000
0010
0100
0001
0100
0010
1000
0000
,
1002
0000
0100
0000
0103
0000
0010
0110
,
0000
0100
0010
1000
0000
0001
1000
0000
,
1001
0000
0001
0010
0100
0010
0001
0100
,
0000
0010
0100
0001
0000
0010
0100
0010
,
0002
0000
0100
0000
0103
0000
0010
0110
,
0000
0100
0010
1000
0000
0001
1000
0000
,
1001
0000
0100
1000
0100
1000
0010
0100
,
0010
0000
0100
0001
0010
0000
0100
0000
,
1000
0100
0010
0001
0000
0011
0000
1001
,
0000
1000
0001
0010
0000
0010
0001
0000
,
1000
0010
0100
0001
0000
0101
0000
1001
,
0000
1000
0001
0100
0000
0100
0001
0000
,
1000
0100
0010
0001
0000
0011
0000
1001
,
0000
1000
0001
0100
0000
0100
0001
0000
,
1000
0001
0000
0010
0000
0100
0000
2000
,
0000
0000
0010
0000
0010
0000
3010
0100
,
0001
1000
0001
1000
0001
0000
0010
0001
,
0010
0001
0100
0000
0100
0000
0110
0000
,
0001
0100
0001
0100
0001
0000
1000
0001
,
1000
0001
0010
0000
0010
0000
0011
0000
,
0100
1000
0100
0000
1000
0100
0010
0000
,
0001
0100
0001
0000
0100
0010
1000
0000
,
0001
0100
0001
0100
0001
0000
1000
0001
,
1000
0001
0100
0000
0100
0000
0110
0000
,
0101
0000
0001
1000
0100
1000
0001
0000
,
0010
0200
1000
1300
,
1001
0000
0001
1000
0000
0100
0000
0010
,
0000
0001
1000
0100
0010
0100
1000
0000
,
0001
0010
0100
0000
0010
0001
0010
0000
,
0100
1000
0010
0000
0100
0010
0100
0000
,
0001
0000
1000
0001
0000
0100
0000
0020
,
1000
1000
1030
0110
,
0001
0010
0100
1000
0000
1100
0000
1001
,
0000
0000
0000
0200
0000
0320
0000
0000
,
1030
0100
0010
0001
0000
0011
0000
1001
,
0000
0000
0010
0200
0000
0320
0000
0000
,
1030
0010
0100
0001
0000
0101
0000
1001
,
0000
0000
0000
0020
0000
0230
0000
0000
,
0301
0100
0010
1000
0000
1010
0000
1001
,
0000
1000
0001
0020
0000
0032
0000
1003
,
0001
0000
1000
0001
0010
0001
1000
0001
,
0010
0000
0010
0100
1000
0000
1100
0000
,
1001
0000
0001
1000
0010
1000
0001
1000
,
0010
0000
0010
0100
0001
1000
0100
0010
,
0001
0000
1000
0001
0010
0001
1000
0001
,
0010
0000
0010
0100
1000
0000
1100
0000
,
1001
0000
0001
0010
0100
0010
0001
1000
,
0100
0000
0100
1000
0010
0100
0001
0000
,
1001
0000
0000
0001
1000
0001
1000
0001
,
0020
0100
0000
0100
0000
0130
0000
0000
,
1001
0000
0000
1000
0001
1000
0001
1000
,
0200
0010
0000
0010
0000
0310
0000
0000
,
1001
0000
0000
0001
0010
0001
0010
0001
,
2000
0010
0000
0010
0000
3010
0000
0000
,
1000
0100
1000
0100
2000
0000
0001
0000
,
3001
0100
0010
0100
0010
1000
0002
0000
,
1003
0000
0000
0110
0000
0000
1000
0001
,
1000
0100
0010
0001
0010
0100
1000
0001
,
1000
0000
0000
0000
0100
0000
0000
0001
0000
1000
0000
0001
0000
0000
0000
0000
,
0100
0000
0000
0000
1000
0000
0000
0010
0000
0100
0000
0010
0000
0000
0000
0000
,
1000
0000
0000
0000
0010
0000
0000
0001
0000
1000
0000
0001
0000
0000
0000
0000
,
0010
0000
0000
0000
1000
0000
0000
0010
0000
0100
0000
0010
1000
0000
0000
0000
,
1001
0000
0001
0000
0010
0000
0000
0001
0000
0001
0000
0001
1000
0000
0000
0000
,
0010
0000
0100
0001
0000
0000
0000
1000
0000
1000
0001
1000
0000
0000
0000
0000
,
0100
0000
0010
0000
0001
0000
0000
1000
0000
0100
0000
1000
0001
0000
0000
0000
,
0100
0000
0010
0000
1000
0000
0000
0001
0000
0100
0000
0001
2000
0000
0000
0000
,
3001
0000
0001
1000
0010
1000
0001
1001
,
0000
1000
0100
1000
0001
0100
0101
0000
,
1001
0000
1000
0001
0100
0001
1000
1001
,
0000
0001
1000
0010
1000
0100
0010
0000
,
1001
0000
1000
0001
0100
0001
1000
1001
,
0000
1001
0000
0001
1000
0100
1100
0000
,
1001
0000
0001
1000
0100
1000
0001
1000
,
0100
0000
1000
0001
0010
0001
1000
0001
,
1000
0100
0010
0001
0000
0011
0000
1001
,
0000
0010
0100
0001
0000
0001
1000
0000
,
0001
0010
0100
1000
0000
1100
0000
1001
,
0000
0100
0010
1000
0000
1000
0001
0000
,
1000
0100
0010
0001
0000
0011
0000
1001
,
0000
0010
0100
0001
0000
0001
1000
0010
,
0100
0002
0000
0203
0000
0320
0000
2030
,
0000
0000
3001
0010
0001
0010
1000
0010
;

//---------------dance-single - ----------------
#NOTES:
     dance-single:
     :
     Beginner:
     4:
     0.129,0.198,0.123,0.000,0.000:
1001
0000
1000
0000
,
1000
0000
0001
0000
,
0001
0000
0100
0000
,
0100
0000
0000
0000
,
0010
0000
0000
0000
,
0010
0000
0000
0000
,
0100
0000
0000
0000
,
0100
0000
0000
0000
,
0010
0000
0000
0000
,
0010
0000
0000
0000
,
1000
0000
0000
0000
,
1000
0000
0000
0000
,
1001
0000
0000
0000
,
0000
0000
0000
0000
,
0110
0000
0000
0000
,
0000
0000
0000
0000
,
1001
0000
0000
0000
,
0000
0000
0000
0000
,
0110
0000
0000
0000
,
0000
0000
0000
0000
,
0010
0000
0100
0000
,
0010
0000
0000
0000
,
1000
0000
0001
0000
,
1000
0000
0000
0000
,
0001
0000
1000
0000
,
0001
0000
0000
0000
,
0100
0000
0001
0000
,
0100
0000
0000
0000
,
0010
0000
1000
0000
,
0010
0000
0000
0000
,
1000
0000
0100
0000
,
1000
0000
0000
0000
,
0001
0000
0010
0000
,
0001
0000
0000
0000
,
0100
0000
0010
0000
,
0100
0000
0000
0000
,
1001
0000
0000
0000
,
0000
0000
0000
0000
,
0110
0000
0000
0000
,
0000
0000
0000
0000
,
1001
0000
0000
0000
,
0000
0000
0000
0000
,
0110
0000
0000
0000
,
0000
0000
0000
0000
,
0001
0000
1000
0000
,
0001
0000
1000
0000
,
0001
0000
0100
0000
,
0010
0000
0100
0000
,
0001
0000
0010
0000
,
0001
0000
1000
0000
,
0100
0000
1000
0000
,
0100
0000
1000
0000
,
0001
0000
0000
0000
,
0000
0000
0000
0000
,
1000
0000
0000
0000
,
0000
0000
0000
0000
,
0001
0000
0000
0000
,
0000
0000
0000
0000
,
1000
0000
0000
0000
,
0000
0000
0000
0000
,
0110
0000
0000
0000
,
0000
0000
0000
0000
,
0110
0000
0000
0000
,
0000
0000
0000
0000
,
1000
0000
0000
0000
,
0000
0000
0000
0000
,
1001
0000
0001
0000
,
1000
0000
0001
0000
,
0010
0000
0100
0000
,
1000
0000
0000
0000
,
1001
0000
0001
0000
,
1000
0000
0001
0000
,
0100
0000
0010
0000
,
0100
0000
0010
0000
,
1000
0000
0010
0000
,
1000
0000
0010
0000
,
0100
0000
0001
0000
,
0100
0000
0001
0000
,
1001
0000
0000
0000
,
0000
0000
0000
0000
,
0110
0000
0000
0000
,
0000
0000
0000
0000
,
1001
0000
0000
0000
,
0000
0000
0000
0000
,
0100
0000
0010
0000
,
0100
0000
0001
1000
;

//---------------dance-single - ----------------
#NOTES:
     dance-single:
     :
     Medium:
     12:
     0.519,0.628,0.439,0.092,0.054:
1001
0000
0100
0000
0001
0010
0100
0000
,
1000
0010
0100
0000
0001
0100
0010
0000
,
1000
0100
0010
0010
0001
0100
0010
1000
,
0001
0010
0100
0010
0001
1000
0100
1001
,
2001
0000
0000
0000
3010
0000
1000
0001
,
0000
0010
0000
0100
0000
1000
0001
0000
,
0100
0010
0100
0010
0100
0000
0001
1000
,
0000
1000
0001
1000
0000
1000
0001
0000
,
0200
0000
0000
0000
0310
0000
1000
0001
,
0000
0001
1000
0001
0000
0001
1000
0000
,
1001
0000
0010
0100
0010
0100
0010
0000
,
1000
0010
0100
0001
,
1000
0100
0010
0001
0000
0001
0000
1001
,
0000
1000
0010
1000
0000
0001
1000
0000
,
0001
0010
0100
1000
0000
1000
0000
1001
,
0000
0001
0100
0001
0000
1000
0001
0000
,
1000
0100
0010
0001
0000
0001
0000
1001
,
0000
1000
0010
1000
0000
0001
1000
0000
,
0010
0100
0000
0001
0000
0001
0000
2002
,
0000
0000
0000
3003
,
0001
0010
0001
0000
0001
0000
1000
0001
,
0000
1000
0010
0100
0010
0000
0010
0000
,
1000
0100
1000
0000
1000
0000
0001
1000
,
0000
0001
0010
0100
0010
0000
0010
0000
,
1001
0000
0001
0000
0001
1000
0100
0000
,
1000
0000
0010
0100
0010
0000
0010
0000
,
1001
0000
1000
0000
0001
0100
0010
0000
,
0010
0000
0100
0010
0100
0001
1000
0000
,
1001
0000
0001
0100
0001
0000
0010
0100
,
1000
0010
0000
1000
0001
0000
0001
0000
,
0110
0000
1000
0001
0000
0010
0000
0100
,
0000
1000
0010
0100
0010
0000
0010
0000
,
1000
0100
0010
0000
0100
1000
0100
0000
,
1000
0100
0010
0000
0100
1000
0100
0000
,
1001
0000
1000
0001
0000
0010
0000
0100
,
0020
0000
0000
0130
,
1001
0000
0000
1001
0000
0100
0000
1001
,
0000
0000
0000
0110
0000
0100
0000
0000
,
1001
0000
0000
1001
0000
0100
0000
1001
,
0000
0000
0000
0110
0000
0100
0000
0000
,
1001
0000
0000
1001
0000
0010
0000
1001
,
0000
0000
0000
0110
0000
0010
0000
0000
,
1001
0000
0000
1001
0000
0010
0000
1001
,
0000
0000
0000
0110
0000
0010
0000
0000
,
1001
0000
1000
0000
1000
0100
0010
0000
,
0001
0000
0001
0000
0001
0100
0010
0000
,
0110
0000
0010
0001
0010
0001
0010
0000
,
0001
0000
1000
0000
0001
0010
0100
1000
,
0001
0000
0001
0000
0001
1000
0010
0000
,
1000
0000
1000
0000
1000
0100
0010
0000
,
0110
0000
0010
1000
0010
1000
0010
0000
,
1000
0000
0001
0000
1000
0010
0100
0000
,
0110
0000
0000
0010
0100
0010
0000
1000
,
0002
0000
0000
1000
0000
1003
0000
0000
,
1001
0000
0000
0010
0100
0010
0000
1000
,
0002
0000
0000
1000
0000
1003
0000
0000
,
1001
0000
0000
0100
0010
0100
0000
0001
,
2000
0000
0000
0001
0000
3001
0000
0000
,
1000
0100
0000
1000
0100
0000
1000
0000
,
0010
0100
0000
0010
0100
0000
0001
0000
,
1001
0000
0000
0110
0000
0000
2002
0000
,
0000
0000
0000
3003
,
1001
1000
0001
0000
,
0010
0001
1000
0000
,
0100
0010
0001
0000
,
1000
0000
0000
0000
1001
0000
0000
0001
0000
0000
0000
0100
0010
0000
0000
0000
,
0110
0000
0000
0000
0010
0000
0000
1000
0000
0100
0000
1000
0000
0000
0000
0000
,
1001
0000
0000
0000
0001
0000
0000
0100
0000
0010
0000
0100
0000
0000
0000
0000
,
1001
0000
0000
0000
1000
0000
0000
0001
0000
0010
0000
0001
0000
0000
0000
0000
,
1001
0000
0000
0000
1000
0000
0000
0001
0000
0100
0000
0001
2000
0000
0000
0000
,
3001
0000
0100
0001
0100
0001
1000
0100
,
1000
0001
0100
0110
,
0110
0000
1000
0001
1000
0001
0010
0000
,
0001
0000
1000
0000
0010
0100
0010
0100
,
0001
0000
1000
0000
0100
0000
1000
0001
,
1000
0000
0001
0010
0001
0000
1001
0000
,
1001
0000
0001
0010
0001
0010
0001
0000
,
1000
0000
0010
0100
0010
0000
1000
0000
,
0001
0010
0100
1000
0000
1000
0000
1001
,
0000
0000
0000
0110
0000
0000
0110
0000
,
1000
0100
0010
0001
0000
0001
0000
1001
,
0000
0000
0000
0110
0000
0000
0110
0000
,
0001
0100
0010
1000
0000
1000
0000
1001
,
0000
0000
0000
0110
0000
0000
1001
0000
,
0001
1000
0000
0010
0000
0100
0000
0002
,
0000
0000
1000
0000
1000
0000
1003
0100
;

//---------------dance-double - ----------------
#NOTES:
     dance-double:
     :
     Easy:
     7:
     0.309,0.396,0.339,0.069,0.000:
10010000
10000000
10000000
00000000
,
01000000
00100000
00001000
00010000
,
00001000
00001000
00001000
00000000
,
00010000
00000010
00000100
00000010
,
00000110
00000000
00010000
00000000
,
00001000
00000000
00010000
00000000
,
00010000
00000000
00000100
00000000
,
00000010
00000000
00000001
00000000
,
00000001
00000000
00001000
00000000
,
00000001
00000000
00001000
00000000
,
00000001
00000000
00000010
00000000
,
00000100
00000000
00010000
00000000
,
00011000
00000000
00000000
00001000
00000000
01000000
00000000
00001000
,
00000000
00000000
00000000
00011000
00000000
00000000
00000000
00000000
,
00011000
00000000
00000000
00010000
00000000
00000100
00000000
00010000
,
00000000
00000000
00000000
00011000
00000000
00000000
00000000
00000000
,
00011000
00000000
00000000
00001000
00000000
01000000
00000000
00001000
,
00000000
00000000
00000000
00011000
00000000
00000000
00000000
00000000
,
00011000
00000000
00000000
00010000
00000000
00000100
00000000
00010000
,
00000000
00000000
00000000
00000000
,
00001000
00000000
00100000
00000000
,
01000000
00000000
10000000
00000000
,
00100000
00000000
10000000
00000000
,
00100000
00000000
01000000
00000000
,
00001000
00010000
00001000
00000000
,
00010000
00001000
00010000
00000000
,
00000100
00000000
00000010
00000000
,
00000001
00000000
00000010
00000000
,
00000001
00000000
00000100
00000000
,
00000001
00000000
00000010
00000000
,
00000100
00000000
00010000
00000000
,
00001000
00000000
00000000
00000000
,
00010000
00001000
00010000
00000000
,
00001000
00010000
00001000
00000000
,
00100000
00000000
01000000
00000000
,
01100000
00000000
00000000
00000000
,
10010000
00000000
00000000
10000000
00000000
00010000
00000000
10000000
,
00000000
00000000
00000000
00011000
00000000
00000000
00000000
00000000
,
00001001
00000000
00000000
00000001
00000000
00001000
00000000
00000001
,
00000000
00000000
00000000
00011000
00000000
00000000
00000000
00000000
,
10010000
00000000
00000000
10000000
00000000
00010000
00000000
10000000
,
00000000
00000000
00000000
00011000
00000000
00000000
00000000
00000000
,
00001001
00000000
00000000
00000001
00000000
00001000
00000000
00000001
,
00000000
00000000
00000000
00011000
00000000
00000000
00000000
00000000
,
00001000
00100000
01000000
10000000
,
01000000
00100000
00001000
00011000
,
00011000
00010000
00000100
00000010
,
00000001
00000010
00000100
00011000
,
00011000
00001000
01000000
00100000
,
10000000
00100000
01000000
00011000
,
00011000
00010000
00000010
00000100
,
00000001
00000100
00000010
00010000
,
00022000
00000000
00000000
00000000
,
00033000
00000000
00000000
00000000
,
02200000
00000000
00000000
00000000
,
03300000
00000000
00000000
00000000
,
00022000
00000000
00000000
00000000
,
00033000
00000000
00000000
00000000
,
00000220
00000000
00000000
00000000
,
00000330
00000000
00000000
00000000
,
00001001
00000000
00000000
00000001
00000000
00000000
00000001
00000000
,
00000010
00000100
00010000
00011000
,
00001000
00010000
00000100
00000000
,
00010000
00001000
00010000
00000000
,
00001000
01000000
00100000
00000000
,
10000000
00010000
10000000
10010000
,
10010000
10000000
00010000
00010000
,
10000000
01000000
00100000
00001000
,
00011000
00011000
00000001
00000001
,
00000010
00000100
00010000
00000000
,
00001000
01000000
00010000
01000000
,
00010000
00100000
00001000
00010000
,
00000010
00001000
00000010
00001000
,
00000100
00010000
00001000
10000000
,
01000000
10000000
01000000
10000000
,
01000000
00100000
00001000
00010000
,
00000001
00000100
00000001
00000100
,
00000010
00010000
00001000
10000000
,
10010000
00000000
00000000
00001000
00000000
00001000
00000000
00011000
,
00000000
00000000
00000000
00011000
00000000
00000000
00000000
00000000
,
00001001
00000000
00000000
00010000
00000000
00010000
00000000
00011000
,
00000000
00000000
00000000
00011000
00000000
00000000
00000000
00000000
,
10010000
00000000
00000000
00001000
00000000
00001000
00000000
00011000
,
00000000
00000000
00000000
00011000
00000000
00000000
00000000
00000000
,
00001001
00000000
00000000
00001000
00000000
00000001
00000000
00020000
,
00000000
00001000
00001000
00031000
;

//---------------dance-single - ----------------
#NOTES:
     dance-single:
     :
     Challenge:
     16:
     0.744,1.000,0.577,0.108,0.285:
1001
0000
1000
0000
0010
0000
0000
0100
0000
0100
0000
0100
0010
0000
0000
0000
,
0100
0000
0001
0000
0011
0000
0000
0001
0000
1000
0010
1000
0000
1000
0000
0000
,
0001
0000
1000
0100
1000
0100
1000
0001
1000
0001
1000
0100
1000
0100
0010
0001
,
0100
0001
0100
0001
0100
0010
0100
0010
1000
1000
0001
0001
0100
0001
0101
0000
,
1001
0000
1000
0100
1000
0001
0100
0101
,
0000
0001
1000
0100
0100
0100
1100
0000
,
1001
0000
0000
0000
0001
0000
1000
0001
1000
0000
0100
0000
0010
0000
0001
0000
,
0000
0001
0010
0100
0000
0010
0001
1000
,
0010
0000
0100
0010
0100
0010
1000
0100
,
0010
0100
1000
0001
0001
0001
0101
0000
,
1001
0000
0000
0000
0001
0000
1000
0010
1000
0000
0100
0000
0010
0000
0001
0000
,
0100
0000
0001
0010
0100
0010
0001
1000
,
0001
0010
0100
0110
0000
1001
0000
0110
,
0000
0010
1000
1100
0000
0001
1001
0000
,
1000
0010
0100
0110
0000
1001
0000
0110
,
0000
0100
0001
0011
0000
1000
1001
0000
,
0001
0100
0010
0110
0000
1001
0000
0110
,
0000
0100
1000
1010
0000
0001
1001
0000
,
1000
0000
0100
0000
0010
0000
0001
1000
0001
0000
1001
0000
0000
0000
2100
0000
,
0000
0000
0000
0000
0001
0000
0000
0000
3001
0000
0000
1000
0100
0000
0100
0000
,
1000
0001
1000
0001
1000
0010
0100
1000
,
0100
0010
1000
1000
0001
0001
0100
0000
,
0001
1000
0001
1000
0001
0010
0100
0001
,
0100
0010
0001
1000
1100
0000
1001
0000
,
0001
0100
0010
0100
0001
0010
0100
0001
,
0100
0010
0001
0001
1000
1000
0100
0000
,
1000
0100
0010
0100
1000
0100
0010
1000
,
0010
0000
0100
0000
1000
0000
0001
0000
0011
0000
0000
0000
1000
0001
1000
0000
,
0001
0100
0001
0100
0010
0000
0010
0000
,
1000
0100
1000
0100
0010
0000
0110
0000
,
0100
1000
0010
0100
0001
0010
0001
1000
,
0100
1000
0010
0100
0010
0000
0110
0000
,
1000
0100
1000
0100
0010
0000
0010
0000
,
0001
0100
0001
0100
0010
0000
0010
0000
,
1000
0001
0100
0010
1000
0010
0100
0001
,
1000
1000
1000
1100
,
1000
0001
0010
0011
0000
1100
0000
1001
,
0000
0000
0000
0102
0000
2003
0000
0000
,
3001
1000
0010
1010
0000
0101
0000
1001
,
0000
0000
0000
1020
0000
0230
0000
0000
,
0301
0010
0100
1100
0000
0011
0000
1001
,
0000
0000
0000
0201
0000
0320
0000
0000
,
1030
0010
0100
0101
0000
1010
0000
1001
,
0000
0001
0100
0002
0000
1000
0000
1003
,
0001
0010
0001
1000
0100
1000
0001
0010
,
0001
1000
0100
0010
0001
0000
1001
0000
,
1001
0000
0000
0000
0100
0010
0100
0010
0100
0000
0001
0000
1000
0001
1000
0000
,
0100
0010
0001
1000
0001
0100
1000
0100
,
0001
1000
0001
0100
0010
0100
0001
1000
,
0001
0100
0010
0100
0001
0000
1001
0000
,
1001
0000
0000
0000
0010
0100
0010
0100
0010
0000
1000
0000
0001
1000
0001
0000
,
0010
0100
1000
0010
0100
0010
1000
0000
,
1001
0000
0001
1000
0100
0010
0100
1000
,
0001
0100
0001
0100
0001
0000
1000
0000
0000
0000
1100
0000
0000
0000
0000
0000
,
1001
0000
0000
0000
1000
0001
1000
0000
0001
0000
0100
0000
0010
0000
0100
0000
,
0002
1000
0000
1003
0000
1100
0000
0000
,
1001
0000
1000
0001
0010
0100
0010
0001
,
1000
0001
1000
0000
0001
0000
0200
0000
0001
0000
0301
0000
0000
0000
0000
0000
,
1000
0001
1000
0000
0010
0000
0100
0000
0002
0000
0000
0000
1003
0000
0000
0000
,
0001
1000
0001
0000
1000
0000
0010
0000
0100
0000
0001
0000
1000
0001
1000
0001
,
1000
0000
0100
1100
0000
0001
1001
0100
,
0010
0001
1000
0001
0001
0010
0100
1000
,
1001
0000
0001
0000
0001
0000
0000
1000
0000
0010
0000
1000
0000
0000
0000
0000
,
0002
0000
0000
0000
1003
0000
0000
0010
0000
0010
0100
0010
0000
0000
0000
0000
,
1000
0000
1000
0000
1000
0000
0000
0001
0000
0010
0000
0001
0000
0000
0000
0000
,
0100
0000
0010
0100
0010
0000
0000
1000
0000
0001
0000
1000
0100
0000
0000
0000
,
1001
0000
1000
0000
1000
0000
0001
1000
0000
0010
0000
1000
0001
0000
0000
0000
,
0100
0000
0010
0100
0000
0001
0000
1000
0000
1000
0001
1000
0000
0000
0000
0000
,
0001
0000
1000
0010
0000
0100
0000
0010
0000
1000
0000
0100
0000
0000
0000
0000
,
1000
0000
0001
1000
0000
0100
0000
0010
0000
0001
0000
0100
0020
0000
0000
0000
,
1030
0001
0010
0001
1000
0001
0010
0011
,
0000
0100
1000
0010
0100
0010
1010
0000
,
1001
0000
0000
0000
0001
1000
0001
0000
1000
0000
0100
0000
0010
0000
0100
0000
,
0000
0100
1000
0001
0000
0001
0100
0001
,
1000
0100
1000
0001
1000
0100
1000
1100
,
0000
0010
0001
1000
0010
1000
1010
0000
,
1001
0000
0000
0000
1000
0001
1000
0000
0010
0000
0100
0000
0001
0000
1000
0000
,
0100
1000
0001
1000
0100
0010
0001
0000
,
1000
0010
0100
0101
0000
1010
0000
1001
,
0000
0001
1000
0100
0000
0100
0010
0000
,
0001
0010
0100
1100
0000
0011
0000
1001
,
0000
0010
0100
0001
0000
0001
1000
0000
,
0001
0100
0010
1010
0000
0101
0000
1001
,
0000
0100
0010
1000
0000
1000
0001
0010
,
0100
2000
0000
0001
0000
0100
0000
3001
,
0000
0000
1000
0000
0100
0000
1000
0000
0001
0000
0100
0001
1000
0000
1000
0000
;

//---------------dance-double - ----------------
#NOTES:
     dance-double:
     :
     Medium:
     12:
     0.511,0.595,0.354,0.092,0.054:
00001001
00000000
00000001
00000000
00010000
00000100
00000010
00000000
,
00000001
00010000
00001000
00000000
00010000
00000010
00000100
00000000
,
00000001
00000010
00000100
00010000
00100000
01000000
10000000
01000000
,
00100000
00001000
00000100
00000010
00000001
00010000
00001000
00010000
,
00012000
00000000
00000000
00000000
00013000
00000000
00001000
10000000
,
00000000
01000000
00000000
00100000
00000000
00010000
10000000
00000000
,
00001000
00010000
00001000
00010000
00001000
00000000
01000000
00100000
,
00000000
00100000
01000000
00100000
00000000
00100000
01000000
00000000
,
00002000
00000000
00000000
00000000
00013000
00000000
00000010
00000100
,
00000000
00000100
00000010
00000100
00000000
00000100
00000010
00000000
,
00001001
00000000
00000010
00000100
00000010
00000100
00000010
00000000
,
00010000
00001000
00100000
01000000
,
10000000
01000000
00100000
00010000
00000000
00001000
00000000
00011000
,
00000000
00010000
00001000
00010000
00000000
00000010
00000100
00000000
,
00000001
00000100
00000010
00001000
00000000
00010000
00000000
00011000
,
00000000
00001000
00010000
00001000
00000000
00100000
01000000
00000000
,
10000000
00100000
01000000
00001000
00000000
00010000
00000000
00011000
,
00000000
00010000
00001000
00010000
00000000
00000100
00000010
00000000
,
00000001
00010000
00000000
00000100
00000000
00000010
00000000
00000220
,
00000000
00000000
00000000
00000330
,
00000100
00001000
00000100
00000000
00000100
00000000
00010000
00000100
,
00000000
00010000
00001000
00100000
00001000
00000000
00001000
00000000
,
00100000
00010000
00100000
00000000
00100000
00000000
00001000
00100000
,
00000000
00001000
01000000
00100000
01000000
00000000
01000000
00000000
,
01100000
00000000
00100000
00000000
00100000
10000000
00010000
00000000
,
10000000
00000000
10000000
01000000
00100000
00000000
00100000
00000000
,
01100000
00000000
10000000
00000000
00001000
00010000
00001000
00000000
,
00010000
00000000
00000100
00000010
00000001
00000010
00000100
00000000
,
00001001
00000000
00010000
00001000
00010000
00000000
00001000
10000000
,
00100000
01000000
00000000
00100000
01000000
00000000
00100000
00000000
,
01100000
00000000
10000000
00010000
00000000
00100000
00000000
01000000
,
00000000
10000000
00001000
00010000
00001000
00000000
00001000
00000000
,
00010000
00000001
00000100
00000000
00000010
00000100
00000010
00000000
,
00000100
00000001
00010000
00000000
00001000
00010000
00001000
00000000
,
00011000
00000000
00010000
00001000
00000000
01000000
00000000
00100000
,
02000000
00000000
00000000
03100000
,
01100000
00000000
00000000
10000000
00000000
01000000
00000000
00100000
,
00000000
00000000
00000000
00011000
00000000
00011000
00000000
00000000
,
00000001
00000000
00000000
00000100
00000000
00000010
00000000
00001000
,
00000000
00000000
00000000
00011000
00000000
00011000
00000000
00000000
,
10000000
00000000
00000000
00100000
00000000
01000000
00000000
00010000
,
00000000
00000000
00000000
00011000
00000000
00011000
00000000
00000000
,
00000001
00000000
00000000
00000010
00000000
00000100
00000000
00001000
,
00000000
00000000
00000000
00011000
00000000
00011000
00000000
00000000
,
00011000
00000000
00001000
00000000
00100000
01000000
10000000
01000000
,
10000000
00000000
00100000
00000000
01000000
00100000
01000000
00000000
,
01100000
00000000
00010000
10000000
00010000
10000000
00010000
00000000
,
10000000
00000000
00001000
00000000
01000000
00100000
10000000
00001000
,
00010000
00000000
00010000
00000000
00001000
00010000
00000010
00000100
,
00000010
00000000
00000100
00000000
00000001
00000010
00000100
00000000
,
00000110
00000000
00010000
00000100
00010000
00000100
00010000
00000000
,
00001000
00000000
00100000
00000000
01000000
00100000
01000000
00000000
,
01100000
00000000
00000000
00001000
00010000
00001000
00000000
00010000
,
00000020
00000000
00000000
00000100
00000000
00000130
00000000
00000000
,
00000001
00000000
00000000
00010000
00001000
00010000
00000000
00001000
,
02000000
00000000
00000000
00100000
00000000
03100000
00000000
00000000
,
01100000
00000000
00000000
00001000
00010000
00001000
00000000
00010000
,
00000200
00000000
00000000
00000010
00000000
00000310
00000000
00000000
,
00000001
00001000
00000000
00000001
00001000
00000000
00000100
00000000
,
00010000
00001000
00000000
00010000
00001000
00000000
10000000
00000000
,
10010000
00000000
00000000
01100000
00000000
00000000
20020000
00000000
,
00000000
00000000
00000000
30030000
,
10010000
10000000
00001000
00000000
,
00100000
00010000
10000000
00000000
,
01000000
00100000
00001000
00000000
,
00010000
00000000
00000000
00000000
00011000
00000000
00000000
00001000
00000000
00000000
00000000
00010000
00000001
00000000
00000000
00000000
,
00000110
00000000
00000000
00000000
00001000
00000000
00000000
00000010
00000000
00000100
00000000
00000010
00000000
00000000
00000000
00000000
,
00011000
00000000
00000000
00000000
00001000
00000000
00000000
01000000
00000000
00001000
00000000
01000000
00000000
00000000
00000000
00000000
,
00010000
00000000
00000000
00000000
00001000
00000000
00000000
00000010
00000000
00000100
00000000
00000010
00000000
00000000
00000000
00000000
,
00010000
00000000
00000000
00000000
00001000
00000000
00000000
00100000
00000000
01000000
00000000
00100000
02000000
00000000
00000000
00000000
,
03100000
00000000
10000000
01000000
10000000
01000000
10000000
00010000
,
10000000
00001000
00010000
00011000
,
00000110
00000000
00000001
00000010
00000001
00000010
00000001
00010000
,
00000010
00000000
00010000
00000000
00001000
00010000
00001000
00010000
,
00001000
00000000
01000000
00100000
01000000
00000000
00100000
10000000
,
00010000
00000000
10000000
00010000
10000000
00000000
10010000
00000000
,
01100000
00000000
00001000
00010000
00001000
00010000
00001000
00000000
,
00010000
00000000
00000010
00000100
00000010
00000000
00001000
00000000
,
00000001
00000010
00000100
00001000
00000000
00010000
00000000
00011000
,
00000000
00000000
00000000
01100000
00000000
00000000
10010000
00000000
,
10000000
01000000
00100000
00010000
00000000
00001000
00000000
00011000
,
00000000
00000000
00000000
00000110
00000000
00000000
00001001
00000000
,
00000001
00000100
00000010
00010000
00000000
00001000
00000000
00011000
,
00000000
00000000
00000000
01100000
00000000
00000000
10010000
00000000
,
10000000
00010000
00000000
00100000
00000000
01000000
00000000
20000000
,
00000000
00000000
00001000
00000000
00001000
00000000
30001000
10000000
;

//---------------dance-double - ----------------
#NOTES:
     dance-double:
     :
     Hard:
     14:
     0.618,0.892,0.339,0.154,0.154:
10010000
00000000
00000000
00000000
00010000
00000000
00000000
10000000
00000000
01000000
00000000
00100000
00000000
00000000
00000000
00000000
,
00001000
00000000
00000000
00000000
00010000
00000000
00000000
00000010
00000000
00000100
00000010
00000100
00000000
00000000
00000000
00000000
,
00000001
00000000
00000100
00000001
00000100
00000001
00000100
00000000
00000010
00000000
00010000
00000100
00010000
00000100
00010000
00000000
,
00001000
00000000
10000000
00010000
10000000
00010000
10000000
00000000
00100000
01000000
00010000
00100000
00001000
00010000
00000010
00000000
,
00000120
00000000
00000100
00000000
00000130
00000000
00001000
00001001
,
00000000
00000001
00000010
00000100
00000000
00010000
00000100
00000000
,
00010100
00000000
00001000
01000000
00100000
01000000
00001000
10000000
,
00000000
01000000
00100000
00010000
00000000
00001000
00010000
00000010
,
00000200
00000000
00000010
00000000
00000310
00000000
00001000
00001001
,
00000000
00000001
00000100
00000010
00000000
00010000
00000100
00000000
,
00000100
00000000
00010000
00000100
00000010
00000100
00010000
00000100
,
00000010
00000000
00000001
00010000
00000100
00000000
00000100
00000000
,
00001000
00000100
00000010
00000001
00000000
00001001
00000000
00010100
,
00000000
00010000
00001000
10000000
00000000
10000000
00001000
00000000
,
10000000
01000000
00100000
00010000
00000000
10010000
00000000
00101000
,
00000000
00001000
00010000
00000010
00000000
00000010
00000100
00000000
,
00000001
00000100
00000010
00001000
00000000
00001001
00000000
00010010
,
00000000
00010000
00000010
01000000
00000000
01000000
00100000
00000000
,
10000000
00001000
00000000
00100000
00000000
01000000
00000000
20000000
,
00000000
00000000
00001000
00000000
00001000
00000000
30001000
10000000
,
01000000
00100000
01000000
00100000
01000000
00000000
10000000
00001000
,
10000000
00001000
00010000
00000000
00001000
00000000
00011000
00000000
,
00001000
00010000
00000010
00000000
00000100
00000000
00000001
00000100
,
00000010
00010000
00001000
00011000
,
00001000
00100000
00001000
00000000
00010000
00000010
00010000
00000000
,
00001000
10000000
01000000
00000000
00100000
00000000
01000000
00000000
,
10000000
00100000
10000000
00100000
10000000
00000000
00001000
00100000
,
00001000
00100000
00010000
00000000
10000000
00000000
10010000
00000000
,
01100000
00000000
01000000
00001000
00100000
00001000
01000000
00000000
,
00001000
00020000
00000001
00030001
,
00010001
00000000
00000001
00010000
00000000
00000100
00000000
00000010
,
00000000
00000001
00010000
00000010
00000100
00000010
00010000
00000000
,
00001000
01000000
00001000
00000000
00010000
00000100
00010000
00000000
,
00001000
10000000
01000000
00000000
00100000
01000000
00100000
00000000
,
00001000
00000000
10000000
00001000
00000000
00100000
00000000
02000000
,
00100000
00100000
03100000
01100000
,
10000000
00100000
01000000
00001000
00000000
00011000
00000000
00011000
,
00000000
00000000
00000000
00000002
00000000
00002000
00000000
00003003
,
00000001
00000100
00000010
00010000
00000000
00011000
00000000
00011000
,
00000000
00000000
00001000
20000000
00000000
00020000
00000000
30030000
,
10000000
01000000
00100000
00001000
00000000
00011000
00000000
00011000
,
00000000
00000000
00000000
00000002
00000000
00002000
00000000
00003003
,
00000001
00000010
00000100
00010000
00000000
00011000
00000000
00011000
,
00000000
00001000
10000000
00002000
00000000
02003000
00000000
03100000
,
01000000
00000000
00001000
01000000
00100000
01000000
00001000
01000000
,
00100000
00000000
10000000
00001000
00010000
00000000
00011000
00000000
,
00010100
00000000
00010000
00000100
00000010
00000100
00010000
00000100
,
00000010
00000000
00000001
00000010
00000100
00010000
01000000
00100000
,
10000000
00000000
00001000
10000000
01000000
10000000
00001000
10000000
,
01000000
00000000
10000000
00001000
00010000
00000000
00011000
00000000
,
00010010
00000000
00010000
00000001
00000100
00000001
00010000
00000001
,
00000100
00000000
00000001
00000100
00000010
00010000
00001000
00000000
,
00011000
00000000
00000000
00001000
10000000
00001000
10000000
00001000
,
00200000
00010000
00000000
00010000
00000000
00310000
00000000
00000000
,
00011000
00000000
00000000
00010000
00000010
00010000
00000010
00010000
,
00000002
00000100
00000000
00000100
00000000
00000103
00000000
00000000
,
00011000
00000000
00000000
00001000
00010000
00001000
00010000
00001000
,
02000000
00100000
00000000
00100000
00000000
03100000
00000000
00000000
,
10000000
00010000
00100000
00010000
20000000
00000000
00010000
00000000
,
30010000
10000000
01000000
00100000
00001000
00010000
00002000
00000000
,
00013000
00000000
00000000
00011000
00000000
00000000
00001000
00010000
,
00000001
00000010
00000100
00010000
01000000
00100000
10000000
00010000
,
10000000
00000000
00000000
00000000
10000000
00000000
00000000
01000000
00000000
00100000
00000000
00010000
00000000
00000000
00000000
00000000
,
00001000
00000000
00000000
00000000
00010000
00000000
00000000
00000010
00000000
00000100
00000000
00000001
00000000
00000000
00000000
00000000
,
00001000
00000000
00000000
00000000
00001000
00000000
00000000
00000001
00000000
00000010
00000000
00000100
00000000
00000000
00000000
00000000
,
00010000
00000000
00000000
00000000
00001000
00000000
00000000
01000000
00000000
00100000
00000000
01000000
00001000
00000000
00000000
00000000
,
00011000
00000000
00010000
00000000
00001000
00000000
00000000
01000000
00000000
01000000
00000000
01000000
00100000
00000000
00000000
00000000
,
10000000
00000000
00001000
00010000
00000000
00000000
00000000
00001000
00000000
00001000
00010000
00001000
00000000
00000000
00000000
00000000
,
00010000
00000000
00000001
00000000
00000010
00000000
00000000
00000100
00000000
00000010
00000000
00000100
00000010
00000000
00000000
00000000
,
00000001
00000000
00010000
00000000
00001000
00000000
00000000
00010000
00000000
00010000
00000000
00010000
00002000
00000000
00000000
00000000
,
10003000
00000000
00001000
01000000
00010000
01000000
00001000
01001000
,
00000000
01000000
00100000
01000000
00001000
00010000
00011000
00000000
,
00001000
00000000
00010000
00000100
00000010
00000100
00010000
00001000
,
00000000
00010000
00000001
00000010
00000100
00010000
00001000
00000000
,
00010000
00000000
00001000
01000000
00100000
01000000
00001000
00010000
,
00000000
00000010
00000000
00000100
00000001
00001000
00001001
00000000
,
00001001
00000000
00010000
00000010
00001000
00000010
00010000
00000010
,
00001000
00000000
00000001
00000010
00000100
00000010
00000001
00010000
,
00000100
00010000
00001000
01000000
00000000
01100000
00000000
01100000
,
00000000
00100000
01000000
00001000
00000000
00001000
00010000
00000000
,
00000001
00000010
00000100
00010000
00000000
00011000
00000000
01001000
,
00000000
01000000
00001000
10000000
00000000
10000000
00010000
00000000
,
10000000
01000000
00100000
00001000
00000000
00011000
00000000
00010010
,
00000000
00000010
00010000
00000001
00000000
00000001
00001000
00000100
,
00000010
00000001
00000000
00000100
00000000
00000010
00000000
00020000
,
00000000
00000000
00031000
01000000
00001000
01000000
00010000
10000000
;

//---------------dance-double - ----------------
#NOTES:
     dance-double:
     :
     Challenge:
     16:
     0.742,1.000,0.562,0.108,0.285: // measure 1
00001001
00000000
00000001
00000000
00000010
00000000
00000000
00000001
00000000
00000001
00000000
00000001
00010000
00000000
00000000
00000000
,  // measure 2
00001000
00000000
00010000
00000000
00011000
00000000
00000000
01000000
00000000
01000000
00100000
01000000
00000000
01000000
00000000
00000000
,  // measure 3
00010000
00000000
10000000
01000000
10000000
01000000
00100000
00001000
00100000
00001000
00010000
00000010
00010000
00000010
00000100
00000001
,  // measure 4
00000100
00000001
00000010
00000100
00000010
00000001
00010000
00000100
00010000
00001000
01000000
00100000
10000000
01000000
11000000
00000000
,  // measure 5
10010000
00000000
01000000
00100000
01000000
00001000
00100000
00101000
,  // measure 6
00000000
00001000
01000000
00100000
00100000
00100000
01100000
00000000
,  // measure 7
10010000
00000000
00000000
00000000
10000000
00000000
00010000
01000000
00010000
00000000
10000000
00000000
01000000
00000000
00100000
00000000
,  // measure 8
00000000
00001000
01000000
00100000
00000000
10000000
01000000
00100000
,  // measure 9
00010000
00000000
01000000
00001000
01000000
00001000
00010000
00000010
,  // measure 10
00000100
00000010
00010000
00001000
00001000
00001000
00011000
00000000
,  // measure 11
00000001
00000000
00000000
00000000
00001000
00000000
00000001
00000100
00000001
00000000
00000100
00000000
00000010
00000000
00010000
00000000
,  // measure 12
00001000
00000000
00010000
00000100
00000010
00000100
00010000
00000001
,  // measure 13
00000010
00000100
00010000
00011000
00000000
00010100
00000000
00011000
,  // measure 14
00000000
00001000
10000000
10001000
00000000
01000000
01100000
00000000
,  // measure 15
10000000
00100000
01000000
01001000
00000000
00011000
00000000
01001000
,  // measure 16
00000000
00001000
00010000
00010010
00000000
00000100
00000110
00000000
,  // measure 17
00000001
00000010
00000100
00010100
00000000
00011000
00000000
00010100
,  // measure 18
00000000
00010000
00001000
01001000
00000000
00100000
01100000
00000000
,  // measure 19
10000000
00000000
01000000
00000000
00100000
00000000
00001000
00010000
00001000
00000000
00011000
00000000
00000000
00000000
00000120
00000000
,  // measure 20
00000000
00000000
00000000
00000000
00000100
00000000
00000000
00000000
00000130
00000000
00000000
00000001
00001000
00000000
00001000
00000000
,  // measure 21
00000001
00000010
00000001
00000010
00000001
00000100
00000010
00010000
,  // measure 22
00000010
00000100
00000001
00000010
00000100
00010000
00001000
00000000
,  // measure 23
10000000
00100000
10000000
00100000
10000000
01000000
00100000
00001000
,  // measure 24
00100000
01000000
10000000
00001000
00011000
00000000
00011000
00000000
,  // measure 25
00001000
01000000
10000000
01000000
00001000
00100000
01000000
10000000
,  // measure 26
01000000
00100000
00001000
00010000
00000100
00010000
00001000
00000000
,  // measure 27
00010000
00000100
00000001
00000100
00010000
00000010
00000100
00000001
,  // measure 28
00000100
00000000
00000010
00000000
00010000
00000000
00001000
00000000
00011000
00000000
00000000
00000000
00010000
00001000
00010000
00000000
,  // measure 29
00001000
00100000
01000000
10000000
00010000
00000000
00010000
00000000
,  // measure 30
10000000
01000000
00100000
00001000
00010000
00000000
00011000
00000000
,  // measure 31
00010000
00000001
00000100
00000010
00010000
00001000
01000000
00100000
,  // measure 32
10000000
00001000
00010000
00001000
00010000
00000000
00011000
00000000
,  // measure 33
00001000
00000100
00000010
00000001
00010000
00000000
00010000
00000000
,  // measure 34
00000001
00000010
00000100
00010000
00001000
00000000
00001000
00000000
,  // measure 35
10000000
00100000
01000000
00001000
00010000
00000010
00000100
00000001
,  // measure 36
00010000
00010000
00010000
00011000
,  // measure 37
00001000
10000000
01000000
11000000
00000000
01100000
00000000
00011000
,  // measure 38
00000000
00000000
00000000
00012000
00000000
00023000
00000000
00000000
,  // measure 39
00030001
00000100
00000010
00000110
00000000
00000101
00000000
00011000
,  // measure 40
00000000
00000000
00000000
00012000
00000000
20003000
00000000
00000000
,  // measure 41
30100000
10000000
00010000
10010000
00000000
01100000
00000000
00011000
,  // measure 42
00000000
00000000
00000000
00012000
00000000
00023000
00000000
00000000
,  // measure 43
00030001
00001000
00000100
00001100
00000000
00000110
00000000
00011000
,  // measure 44
00000000
00001000
00010000
00002000
00000000
10000000
00000000
10003000
,  // measure 45
00100000
01000000
00100000
10000000
00001000
10000000
01000000
00100000
,  // measure 46
00001000
00010000
00001000
01000000
00100000
00000000
01100000
00000000
,  // measure 47
01100000
00000000
00000000
00000000
00001000
00010000
00001000
00010000
00001000
00000000
00010000
00000000
00000010
00000100
00000010
00000000
,  // measure 48
00001000
00000100
00000010
00000001
00000100
00001000
00000100
00000001
,  // measure 49
00010000
00001000
00010000
00000001
00000010
00000100
00010000
01000000
,  // measure 50
00100000
10000000
00001000
00100000
00001000
00000000
00011000
00000000
,  // measure 51
00011000
00000000
00000000
00000000
00000010
00000100
00000010
00000100
00000010
00000000
00001000
00000000
00000001
00001000
00000001
00000000
,  // measure 52
00000010
00000100
00001000
00000010
00000100
00000010
00010000
00000000
,  // measure 53
00011000
00000000
00001000
00100000
10000000
00100000
00001000
10000000
,  // measure 54
00100000
01000000
00100000
01000000
00100000
00000000
01000000
00000000
00000000
00000000
01100000
00000000
00000000
00000000
00000000
00000000
,  // measure 55
00011000
00000000
00000000
00000000
00010000
00000001
00010000
00000000
00000010
00000000
00001000
00000000
00000100
00000000
00001000
00000000
,  // measure 56
00000020
00000100
00000000
00000130
00000000
00000110
00000000
00000000
,  // measure 57
00011000
00000000
00010000
00000010
00000001
00000010
00010000
00000001
,  // measure 58
00000100
00000010
00000100
00000000
00000010
00000000
00020000
00000000
00001000
00000000
00031000
00000000
00000000
00000000
00000000
00000000
,  // measure 59
00010000
00001000
00010000
00000000
00001000
00000000
01000000
00000000
00200000
00000000
00000000
00000000
01300000
00000000
00000000
00000000
,  // measure 60
00010000
10000000
00010000
00000000
00100000
00000000
01000000
00000000
10000000
00000000
00010000
00000000
00100000
00001000
00100000
00001000
,  // measure 61
00100000
00000000
00001000
00011000
00000000
00000010
00001000
00000100
,  // measure 62
00000010
00000001
00000010
00000100
00010000
00100000
01000000
10000000
,  // measure 63
10010000
00000000
00010000
00000000
00010000
00000000
00000000
01000000
00000000
00100000
00000000
10000000
00000000
00000000
00000000
00000000
,  // measure 64
00002000
00000000
00000000
00000000
00013000
00000000
00000000
00000010
00000000
00000010
00000100
00000010
00000000
00000000
00000000
00000000
,  // measure 65
00001000
00000000
00000100
00000000
00001000
00000000
00000000
00000100
00000000
00000010
00000000
00000001
00000000
00000000
00000000
00000000
,  // measure 66
00001000
00000000
00000010
00010000
00000010
00000000
00000000
00010000
00000000
00001000
00000000
01000000
00100000
00000000
00000000
00000000
,  // measure 67
10010000
00000000
10000000
00000000
10000000
00000000
00010000
10000000
00000000
01000000
00000000
00100000
00001000
00000000
00000000
00000000
,  // measure 68
00010000
00000000
00000100
00010000
00000000
00000100
00000000
00001000
00000000
00001000
00000001
00001000
00000000
00000000
00000000
00000000
,  // measure 69
00000001
00000000
00000100
00000010
00000000
00010000
00000000
00001000
00000000
01000000
00000000
00100000
00000000
00000000
00000000
00000000
,  // measure 70
01000000
00000000
00010000
10000000
00000000
01000000
00000000
00100000
00000000
00001000
00000000
00010000
00002000
00000000
00000000
00000000
,  // measure 71
00013000
00000010
00000001
00000010
00010000
00000010
00000100
00000110
,  // measure 72
00000000
00000010
00000100
00000001
00000010
00000100
00000110
00000000
,  // measure 73
00001001
00000000
00000000
00000000
00001000
00000001
00001000
00000000
00000010
00000000
00010000
00000000
00001000
00000000
00010000
00000000
,  // measure 74
00000000
00010000
00000001
00000010
00000000
00000010
00000100
00010000
,  // measure 75
00001000
01000000
00100000
01000000
00001000
01000000
00100000
01100000
,  // measure 76
00000000
00100000
10000000
01000000
00010000
01000000
11000000
00000000
,  // measure 77
10010000
00000000
00000000
00000000
00001000
00010000
00001000
00000000
00100000
00000000
10000000
00000000
00100000
00000000
00001000
00000000
,  // measure 78
00010000
00000010
00000100
00000010
00010000
00001000
00010000
00000000
,  // measure 79
00001000
00010000
00000010
00000110
00000000
00001010
00000000
00011000
,  // measure 80
00000000
00001000
01000000
00100000
00000000
00100000
01000000
00000000
,  // measure 81
00001000
00010000
00000010
00000110
00000000
00001010
00000000
00011000
,  // measure 82
00000000
00010000
00000100
00000010
00000000
00000010
00000100
00000000
,  // measure 83
00000010
00010000
00001000
00011000
00000000
01100000
00000000
11000000
,  // measure 84
00000000
10000000
01000000
00100000
00000000
00100000
01000000
10000000
,  // measure 85
00001000
00020000
00000000
00000100
00000000
00000100
00000000
00030100
,  // measure 86
00000000
00000000
00010000
00000000
00000001
00000000
00000010
00000000
00000100
00000000
00010000
00001000
00010000
00000000
00000100
00000000
;
