#TITLE:Beat Machine;
#SUBTITLE:;
#ARTIST:CRUNKY BOY Jr.;
#TITLETRANSLIT:;
#SUBTITLETRANSLIT:;
#ARTISTTRANSLIT:;
#CREDIT:DigiMindAxel;
#BANNER:Beat Machine.png;
#BACKGROUND:Beat Machine-bg.png;
#LYRICSPATH:;
#CDTITLE:beatmania IIDX.png;
#MUSIC:Beat Machine.ogg;
#METERTYPE:DDR X;
#OFFSET:-7.803;
#SAMPLESTART:37.812;
#SAMPLELENGTH:12.000;
#SELECTABLE:YES;
#BPMS:0.000=127.950;
#STOPS:;
#BGCHANGES:;

//---------------dance-single - ----------------
#NOTES:
     dance-single:
     :
     Easy:
     3:
     0.176,0.235,0.167,0.115,0.000:
1000
0000
0100
0000
,
1000
1000
0001
0000
,
0010
0000
0100
0000
,
0010
0010
0001
0000
,
0200
0000
0310
0000
,
1001
0000
0001
0000
,
2000
0000
3001
0000
,
0110
0000
0000
0000
,
0010
0000
0100
0000
,
0010
0000
0100
0000
,
0001
0000
0010
0000
,
0001
0000
0010
0000
,
0100
0000
1000
0000
,
0100
0000
1000
0000
,
0010
0000
0100
0000
,
0010
0000
0000
0000
,
2000
0000
3001
0000
,
1001
0000
0010
0000
,
0100
1000
0100
0000
,
1000
0001
1000
0000
,
0002
0000
1003
0000
,
0110
0000
0100
0000
,
0002
0000
1003
0000
,
0110
0000
0010
0000
,
0200
0000
0000
0000
,
0320
0000
0000
0000
,
0230
0000
0000
0000
,
0320
0000
0000
0000
,
0130
0000
0000
0000
,
0000
0000
0000
0000
,
0001
0000
1000
0100
,
0010
0000
0001
0000
,
0100
0010
1000
0000
,
0100
0000
0010
0000
,
0001
0010
0100
0000
,
0010
0000
0001
0000
,
0200
0000
0310
1000
,
0100
0000
0010
0001
,
0020
0000
0031
0100
,
0010
0000
0000
0000
,
1001
0000
1001
0000
,
0110
0000
0110
0000
,
1001
0000
1001
0000
,
0110
0000
0110
0000
,
1001
0000
1001
0000
,
1001
0000
0000
0000
;

//---------------dance-single - ----------------
#NOTES:
     dance-single:
     :
     Medium:
     7:
     0.326,0.307,0.366,0.146,0.000:
1000
0001
1000
0001
,
1000
1000
1000
0000
0001
0000
0010
0000
,
0100
1000
0100
1000
,
0010
0010
0010
0000
0100
0000
0001
0000
,
2000
0200
0000
3300
,
1001
0000
1001
0000
0001
0100
0001
0000
,
2000
0002
0000
3003
,
0110
0000
0000
0000
,
0100
1100
0100
1100
,
0010
0110
0010
0110
,
0001
0011
0001
0011
,
0100
0110
0100
0110
,
1000
1001
1000
1001
,
0001
0101
0001
0101
,
0100
0110
0100
0110
,
1000
1000
0002
2003
,
3002
0200
0000
0303
,
0001
1000
0001
0000
1000
0000
0100
0000
,
0010
0100
0010
0000
0001
0000
1000
0000
,
0010
1000
0010
0000
1000
0000
0001
0000
,
0020
0002
0000
0033
,
0001
1000
0001
0000
0010
0000
0100
0000
,
2000
0020
0000
3030
,
1000
0001
1000
0000
0100
0000
0010
0000
,
0000
1001
0000
0000
,
0000
1100
0000
0000
,
0000
0110
0000
0000
,
0000
0101
0000
0000
,
2001
0000
3002
0000
,
1003
0000
0000
0000
,
0001
0000
0010
0000
0100
1000
0100
1000
,
0010
0010
0100
0001
,
1001
0000
0100
0000
0010
0001
0010
0001
,
0100
0100
0010
0010
,
1001
0000
1000
0000
0001
0010
0100
1000
,
0010
0000
0010
0000
1000
0100
0010
0000
,
0001
0000
0100
0000
0001
0010
0100
1000
,
0010
0010
1000
1000
,
0100
0000
0010
0000
0001
0100
0010
0100
,
0001
1001
0000
0000
,
0100
1100
0100
1010
,
0100
1100
0100
1010
,
0100
0101
0100
0110
,
0100
0101
0001
1001
,
1000
1100
0001
1001
,
0010
0010
0000
0000
0000
0000
0000
0000
;

//---------------dance-single - ----------------
#NOTES:
     dance-single:
     :
     Hard:
     11:
     0.517,0.472,0.366,0.146,0.330:
1000
0000
0000
0000
0100
0000
0000
0000
0010
0000
0000
0010
0000
0000
0010
0000
,
0100
0000
0100
0000
1000
0000
0000
0000
0001
0000
0000
0100
0000
0000
1000
0000
,
0100
0000
0000
0000
0001
0000
0000
0000
0100
0000
0000
0100
0000
0000
0100
0000
,
0010
0000
0010
0000
1000
0000
0000
0000
0100
0000
0000
0001
0000
0000
0100
0000
,
2000
0000
0000
0000
3002
0000
0000
0000
0010
0000
0000
0010
0000
0000
0013
0000
,
0100
0000
0100
0000
0100
0000
0000
0000
1000
0000
0000
0100
0000
0000
0010
0000
,
0002
0000
0000
0000
2003
0000
0000
0000
0010
0000
0000
0010
0000
0000
3010
0000
,
0100
0000
0100
0000
0001
1000
0000
0001
0000
0000
0000
0000
1001
0000
0000
0000
,
0101
0000
0000
0000
0100
0010
0000
0010
0100
0000
0000
0000
1001
0000
0000
0000
,
1000
0000
1000
0000
0100
0010
0000
0010
0100
0000
0000
0000
1001
0000
0000
0000
,
1100
0000
0000
0000
0100
0010
0000
0010
0100
0000
0000
0000
1001
0000
0000
0000
,
0001
0000
0001
0000
0100
0001
0000
0001
0100
0000
0000
0000
1001
0000
0000
0000
,
1010
0000
0000
0000
0010
0100
0000
0100
0010
0000
0000
0000
0110
0000
0000
0000
,
0001
0000
0001
0000
0100
0001
0000
0001
0100
0000
0000
0000
0110
0000
0000
0000
,
0011
0000
0000
0000
0010
0100
0000
0100
0010
0000
0000
0000
1001
0000
0000
0000
,
0100
0100
0010
0000
2000
0000
3001
0000
,
0101
0000
1001
1000
1000
0010
0100
0100
,
0001
1000
0000
0001
1000
0000
0000
0000
0100
0000
0010
0000
0001
0000
1000
0000
,
0001
0000
0000
0000
0100
0000
0000
0000
0010
0000
0000
0100
0000
0000
0001
0000
,
1000
0000
0100
0000
0010
0000
0001
0000
0100
0001
0000
0100
0001
0000
1000
0100
,
1000
0000
0000
0000
1002
0000
0000
0000
0100
0000
0000
0100
0000
0000
0103
0000
,
0001
0001
1000
0100
0010
0001
1000
0000
,
1001
0000
0000
0000
2100
0000
0000
0000
0001
0000
0000
0001
0000
0000
3001
0000
,
1000
1000
0100
0010
0001
0100
0010
0100
,
0000
0000
0000
0000
0001
1000
0001
2000
0000
0000
0000
0000
0100
0000
3100
0000
,
0000
0000
0000
0000
0010
0001
0010
0002
0000
0000
0000
0000
0100
0000
0103
0000
,
0000
0000
0000
0000
0010
1000
0010
2000
0000
0000
0000
0000
0001
0000
3001
0000
,
0000
0000
0000
0000
0010
0001
0010
0002
0000
0000
0000
0000
0100
0000
0103
0000
,
0010
0100
0010
2000
0000
0000
3002
0000
0000
0000
0000
0000
,
1003
0000
1000
0000
0001
1000
0000
0001
1000
0001
0000
1000
0001
0000
0000
0000
,
0010
0100
1000
0001
1000
0010
0001
0010
,
1000
0000
1000
0000
0001
0000
0010
0000
0100
1000
0100
0000
1100
0000
0000
0000
,
1001
0001
1000
0010
1000
0010
0001
0010
,
1000
0100
0010
0001
1000
0000
1010
0000
,
1001
0000
1000
0000
0001
0000
0010
0100
1000
0000
0010
0000
1000
0000
1000
0000
,
0001
0010
0011
0000
0010
1000
0001
0000
,
1001
0000
1000
0000
0100
0000
0010
0001
1000
0000
0100
0000
0001
0000
0100
0000
,
1000
0000
0010
0000
0100
0001
0000
0100
0001
0100
0000
0001
1000
0000
0000
0000
,
0100
0000
0010
0000
0001
0000
1000
0010
0100
0000
0001
0000
0100
0000
1000
0000
,
0100
1002
0000
1003
,
0001
0000
0001
0000
0100
0010
0000
0000
1010
0000
0000
0000
0100
0010
0000
0000
,
1010
0000
0000
0000
0100
0010
0000
0000
1010
0000
0000
0000
0100
0010
0000
0000
,
1010
0000
1000
0000
0001
0010
0000
0000
0110
0000
0000
0000
0001
0010
0000
0000
,
0110
0000
0000
0000
0001
0010
0000
0000
0110
0000
0000
0000
0001
0010
0000
0000
,
0110
0000
0100
0000
1000
0001
0000
0000
0101
0000
0000
0000
1000
0001
0000
0000
,
0101
0101
0000
0000
0000
0000
0000
0000
;

//---------------dance-double - ----------------
#NOTES:
     dance-double:
     :
     Easy:
     3:
     0.188,0.259,0.146,0.136,0.000:
10000000
00000000
10000000
00000000
,
01000000
00100000
00010000
00001000
,
00010000
00000000
00010000
00000000
,
00000010
00000100
00000001
00000100
,
00000002
00000000
00001003
00000000
,
00001001
00000000
00000010
00000000
,
00020000
00000000
00031000
00000000
,
00011000
00000000
00000000
00000000
,
10000000
00000000
00010000
00000000
,
10000000
00000000
00010000
00000000
,
00100000
00000000
00001000
00000000
,
00100000
00000000
00001000
00000000
,
00010000
00000000
00001000
00000000
,
00010000
00000000
00001000
00000000
,
00000010
00000000
00000100
00000000
,
00000010
00000000
00000000
00000000
,
00002000
00000000
00003001
00001000
,
00000001
00000000
00010000
00000000
,
00001000
01000000
00001000
00000000
,
01000000
00100000
01000000
00000000
,
00020000
00000000
10030000
00010000
,
10000000
00000000
00001000
00000000
,
00020000
00000000
00030100
00000000
,
00000010
00000001
00000010
00000001
,
00002000
00000000
00000000
00000000
,
00003200
00000000
00000000
00000000
,
00020300
00000000
00000000
00000000
,
00032000
00000000
00000000
00000000
,
00013000
00000000
00000000
00000000
,
00000000
00000000
00000000
00000000
,
00001000
00000000
00100000
01000000
,
10000000
00000000
00001000
00000000
,
00100000
01000000
10000000
00000000
,
00100000
00000000
01000000
00000000
,
00001000
00010000
00000010
00000000
,
00000100
00000001
00000010
00000000
,
00000200
00000000
00000310
00000001
,
00000010
00000000
00000100
00010000
,
00000200
00000000
00010300
00001000
,
01000000
02200000
00000000
03300000
,
10010000
00000000
10010000
00000000
,
01100000
00000000
01100000
00000000
,
00011000
00000000
00011000
00000000
,
00000110
00000000
00000110
00000000
,
00001001
00000000
00001001
00000000
,
00000110
00000000
00000000
00000000
;

//---------------dance-double - ----------------
#NOTES:
     dance-double:
     :
     Medium:
     7:
     0.327,0.307,0.398,0.126,0.000:
10000000
01000000
00100000
00100000
,
01000000
01000000
01000000
00000000
10000000
00000000
00001000
00000000
,
00010000
00000010
00000100
00000100
,
00000001
00000001
00000001
00000000
00000010
00000000
00000100
00000000
,
00002000
00020000
00000000
00033000
,
01100000
00000000
01100000
00000000
10000000
00010000
10000000
00000000
,
00002000
00020000
00000000
00033000
,
00011000
00000000
00000000
00000000
,
00000010
00000110
00000010
00000110
,
00000001
00000011
00000001
00000011
,
00000100
00010100
00000100
00010100
,
01000000
01100000
01000000
01100000
,
10000000
11000000
10000000
11000000
,
00100000
01100000
00100000
01100000
,
00001000
01001000
00001000
01001000
,
00010000
00010000
00010000
00000000
00000100
00000000
00000000
00000000
,
00000020
00000002
00000000
00000033
,
00000100
00000010
00000100
00000000
00000001
00000000
00000010
00000000
,
00000100
00000010
00000100
00000000
00010000
00000000
00001000
00000000
,
01000000
00100000
01000000
00000000
00010000
00000000
10000000
00000000
,
02000000
20000000
00000000
33000000
,
00100000
01000000
00100000
00000000
10000000
00000000
00010000
00000000
,
00200000
00002000
00000000
00303000
,
00010000
00001000
00010000
00000000
00000100
00000000
00000010
00000000
,
00000000
00000011
00000000
00000000
,
00000000
00000110
00000000
00000000
,
00000000
00011000
00000000
00000000
,
00000000
01100000
00000000
00000000
,
12000000
00000000
03200000
00000000
,
00310000
00000000
00000000
00000000
,
10000000
00000000
01000000
00000000
00010000
01000000
10000000
00010000
,
10000000
00100000
01000000
00001000
,
00011000
00000000
00010000
00000000
00000100
00000010
00000100
00000010
,
00000001
00000001
00001000
00001000
,
00001001
00000000
00000010
00000000
00001000
00000010
00000001
00001000
,
00000001
00000000
00000010
00000000
00000100
00010000
00001000
00000000
,
00100000
00000000
00010000
00000000
00100000
00010000
01000000
00100000
,
01000000
00010000
10000000
10010000
,
01100000
00000000
10000000
00000000
01000000
00100000
01000000
00100000
,
00001000
00011000
00000000
00000000
,
00000010
00000110
00000010
00001010
,
00000100
00000101
00000100
00000110
,
00010000
00011000
00100000
01100000
,
00010000
00011000
00100000
01100000
,
10000000
11000000
00100000
01100000
,
00001000
00011000
00000000
00000000
00000000
00000000
00000000
00000000
;

//---------------dance-double - ----------------
#NOTES:
     dance-double:
     :
     Hard:
     11:
     0.531,0.472,0.460,0.063,0.298:
10000000
00000000
00000000
00000000
01000000
00000000
00000000
00000000
00100000
00000000
00000000
00001000
00000000
00000000
00010000
00000000
,
00000100
00000000
00000100
00000000
00000010
00000000
00000000
00000000
00000001
00000000
00000000
00000100
00000000
00000000
00000010
00000000
,
00010000
00000000
00000000
00000000
00001000
00000000
00000000
00000000
00100000
00000000
00000000
01000000
00000000
00000000
10000000
00000000
,
00100000
00000000
00100000
00000000
01000000
00000000
00000000
00000000
00001000
00000000
00000000
00010000
00000000
00000000
00000100
00000000
,
00000110
00000000
00000000
00000000
00000012
00000000
00000000
00000000
00001000
00000000
00000000
00001000
00000000
00000000
00001003
00000000
,
00000010
00000000
00000010
00000000
00000010
00000000
00000000
00000000
00000100
00000000
00000000
00000001
00000000
00000000
00000010
00000000
,
00000110
00000000
00000000
00000000
00020001
00000000
00000000
00000000
00000100
00000000
00000000
00000100
00000000
00000000
00030100
00000000
,
01000000
00000000
01000000
00000000
01000000
00100000
00000000
00100000
00000000
00000000
00000000
00000000
01100000
00000000
00000000
00000000
,
10010000
00000000
00000000
00000000
01000000
10000000
01000000
00000000
00100000
00000000
00010000
00000000
01000000
00000000
00000000
00000000
,
00100000
00000000
00100000
00000000
01000000
00100000
01000000
00000000
00010000
00000000
00100000
00000000
00001000
00000000
00000000
00000000
,
00011000
00000000
00000000
00000000
00010000
00000100
00010000
00000000
00000100
00000000
00000010
00000000
00000001
00000000
00000000
00000000
,
00000100
00000000
00000100
00000000
00000010
00001000
00000010
00000000
00001000
00000000
00010000
00000000
00100000
00000000
00000000
00000000
,
01100000
00000000
00000000
00000000
01000000
10000000
01000000
00000000
10000000
00000000
00100000
00000000
01000000
00000000
00000000
00000000
,
00001000
00000000
00001000
00000000
00010000
00001000
00010000
00000000
00000010
00000000
00000100
00000000
00000001
00000000
00000000
00000000
,
00001001
00000000
00000000
00000000
00001000
00000100
00001000
00000000
00000100
00000000
00010000
00000000
00001000
00000000
00000000
00000000
,
00100000
00100000
00100000
00000000
00000000
00000000
01100000
00000000
,
11000000
00000000
01100000
00100000
01000000
00010000
00001000
00001000
,
00000100
00000010
00000000
00000100
00000010
00000000
00000000
00000000
00000001
00000000
00001000
00000000
00001001
00000000
00000000
00000000
,
00000100
00000101
00010000
00011000
,
00001000
00000000
00100000
00000000
01000000
00000000
10000000
00000000
00010000
00100000
00000000
00010000
00100000
00000000
00001000
00010000
,
00001000
00000000
00000000
00000000
00021000
00000000
00000000
00000000
00000010
00000000
00000000
00000010
00000000
00000000
00030010
00000000
,
00000100
00000001
00000010
00000100
00010000
00001000
00011000
00000000
,
01001000
00000000
00000000
00000000
01200000
00000000
00000000
00000000
10000000
00000000
00000000
10000000
00000000
00000000
10300000
00000000
,
00010000
00000000
00100000
00000000
00001000
00000000
00010000
00000000
00000100
00000010
00000100
00000010
00000100
00000000
00001000
00000000
,
00000000
00000000
00000000
00000000
00000001
00000010
00000001
00000010
00000000
00000000
00000000
00000000
00000110
00000000
00000110
00000000
,
00000000
00000000
00000000
00000000
00010000
00001000
00010000
00001000
00000000
00000000
00000000
00000000
01001000
00000000
01001000
00000000
,
00000000
00000000
00000000
00000000
00100000
01000000
00100000
01000000
00000000
00000000
00000000
00000000
11000000
00000000
11000000
00000000
,
00000000
00000000
00000000
00000000
00001000
01000000
00001000
01000000
00000000
00000000
00000000
00000000
00011000
00000000
00011000
00000000
,
00010000
00000000
00000000
00000000
00001000
00000000
00000000
00000000
00010000
00000000
00000000
00000000
00000020
00000000
00000000
00000000
00000000
00000000
00000000
00000000
00000000
00000000
00000000
00000000
00000100
00000000
00000000
00000000
00000000
00000000
00000000
00000000
00000000
00000100
00000000
00000000
00000000
00000000
00000000
00000000
00000000
00000000
00000130
00000000
00000000
00000000
00000000
00000000
,
00000001
00000000
00000001
00000000
00000010
00000100
00000000
00000010
00000100
00000010
00000000
00000100
00000010
00000000
00000000
00000000
,
00000001
00001000
00000100
00000010
00001000
00000010
00000001
00010000
,
00001000
01000000
10000000
01000000
00100000
10000000
10010000
00000000
,
10000000
00010000
00100000
01000000
00010000
01000000
10000000
00001000
,
00010000
00000010
00000001
00000010
00000100
00000001
00001001
00000000
,
00000110
00000000
00000100
00000000
00000010
00000000
00001000
00000100
00000010
00000000
00000001
00000000
00010000
00000000
00010000
00000000
,
00001000
00100000
01100000
00000000
10000000
01000000
00100000
00000000
,
01100000
00000000
01000000
00000000
00010000
00000000
10000000
00100000
01000000
00000000
00001000
00000000
00010000
00000000
00000001
00000000
,
00000100
00000000
00000001
00000000
00000100
00000010
00000000
00000100
00000010
00000100
00000000
00000010
00000100
00000000
00000000
00000000
,
00000001
00000000
00000010
00000000
00000001
00000000
00000100
00000010
00010000
00000000
00001000
00000000
00100000
00000000
01000000
00000000
,
00100000
10020000
00000000
10030000
,
00100000
00000000
00100000
00000000
10000000
00001000
00000000
00000000
01001000
00000000
00000000
00000000
00010000
00000100
00000000
00000000
,
00000110
00000000
00000000
00000000
00000001
00000100
00000000
00000000
00000110
00000000
00000000
00000000
00010000
00001000
00000000
00000000
,
01001000
00000000
01000000
00000000
00100000
10000000
00000000
00000000
10010000
00000000
00000000
00000000
00100000
01000000
00000000
00000000
,
01001000
00000000
00000000
00000000
00010000
00000010
00000000
00000000
00000110
00000000
00000000
00000000
00000001
00001000
00000000
00000000
,
00001100
00000000
00000100
00000000
00010000
00100000
00000000
00000000
01100000
00000000
00000000
00000000
10000000
00010000
00000000
00000000
,
01100000
01100000
00000000
00000000
00000000
00000000
00000000
00000000
;

//---------------dance-single - ----------------
#NOTES:
     dance-single:
     :
     Beginner:
     1:
     0.082,0.118,0.105,0.000,0.000: // measure 1
1000
0000
0000
0000
,  // measure 2
1000
0000
0000
0000
,  // measure 3
0001
0000
0000
0000
,  // measure 4
0001
0000
0000
0000
,  // measure 5
0010
0000
0000
0000
,  // measure 6
0100
0000
0000
0000
,  // measure 7
0010
0000
0000
0000
,  // measure 8
0100
0000
0000
0000
,  // measure 9
1001
0000
0000
0000
,  // measure 10
1000
0000
0000
0000
,  // measure 11
0001
0000
0000
0000
,  // measure 12
0001
0000
0000
0000
,  // measure 13
1000
0000
0000
0000
,  // measure 14
1000
0000
0000
0000
,  // measure 15
0001
0000
0000
0000
,  // measure 16
0001
0000
0000
0000
,  // measure 17
0110
0000
0000
0000
,  // measure 18
0100
0000
0000
0000
,  // measure 19
0110
0000
0000
0000
,  // measure 20
0010
0000
0000
0000
,  // measure 21
1001
0000
0000
0000
,  // measure 22
1000
0000
0000
0000
,  // measure 23
1001
0000
0000
0000
,  // measure 24
0001
0000
0000
0000
,  // measure 25
0000
0110
0000
0000
,  // measure 26
0000
0100
0000
0000
,  // measure 27
0000
0110
0000
0000
,  // measure 28
0000
0100
0000
0000
,  // measure 29
1001
0000
0000
0000
,  // measure 30
0000
0000
0000
0000
,  // measure 31
0001
0000
0000
0000
,  // measure 32
0010
0000
0000
0000
,  // measure 33
0100
0000
0000
0000
,  // measure 34
0010
0000
0000
0000
,  // measure 35
0001
0000
0000
0000
,  // measure 36
1000
0000
0000
0000
,  // measure 37
0010
0000
0000
0000
,  // measure 38
1000
0000
0000
0000
,  // measure 39
0001
0000
0000
0000
,  // measure 40
0000
1001
0000
0000
,  // measure 41
1000
0000
0000
0000
,  // measure 42
1000
0000
0000
0000
,  // measure 43
0100
0000
0000
0000
,  // measure 44
0100
0000
0000
0000
,  // measure 45
0010
0000
0000
0000
,  // measure 46
0110
0000
0000
0000
;
