#TITLE:Aqualight;
#SUBTITLE:(Remix Ver.);
#ARTIST:MAYA AKAI;
#TITLETRANSLIT:;
#SUBTITLETRANSLIT:;
#ARTISTTRANSLIT:;
#CREDIT:DigiMindAxel;
#BANNER:Aqualight (Remix Ver.).png;
#BACKGROUND:Aqualight (Remix Ver.)-bg.png;
#LYRICSPATH:;
#CDTITLE:CROSSxBEATS.png;
#MUSIC:Aqualight (Remix Ver.).ogg;
#METERTYPE:DDR X;
#OFFSET:-6.911;
#SAMPLESTART:41.200;
#SAMPLELENGTH:12.000;
#SELECTABLE:YES;
#BPMS:0.000=140.000,144.000=70.000,160.000=140.000;
#STOPS:;
#BGCHANGES:;

//---------------dance-single - ----------------
#NOTES:
     dance-single:
     :
     Easy:
     5:
     0.216,0.256,0.034,0.136,0.000:
2000
0000
0000
0000
,
3002
0000
0000
0000
,
2003
0000
0000
0000
,
3002
0000
0000
0000
,
1003
0000
0100
0000
,
0010
0000
0100
0000
,
0010
0000
0001
0000
,
1000
0000
0010
0000
,
0100
0000
0010
0000
,
0100
0000
0001
0000
,
1000
0000
0001
0000
,
0100
0000
0010
0000
,
2000
0000
0000
0000
,
3200
0000
0000
0000
,
2300
0000
0000
0000
,
3002
0000
0000
0000
,
0013
0010
0010
0010
,
0010
0010
0010
0010
,
0110
0000
0110
0000
,
1001
0000
1001
0000
,
1000
1000
1000
0000
,
0001
0001
0001
0000
,
0010
0010
0010
0000
,
0100
0100
0100
0000
,
1000
1000
1000
0000
,
0001
0001
0001
0000
,
2000
0000
0000
0000
,
3200
0000
0000
0000
,
1300
0001
1000
0001
,
1000
0001
1000
0000
,
0010
0100
0010
0100
,
0010
0100
0010
0000
,
0100
0001
0100
0001
,
0100
0001
0100
0000
,
0002
0000
0000
0000
,
2003
0000
0000
0000
,
3001
0000
0010
0000
,
0100
0000
1000
0000
,
0010
0000
0100
0000
,
0010
0000
2000
0000
,
3001
1000
0001
0000
,
0010
0001
0100
0000
,
0010
1000
0001
0000
,
0010
0001
0010
0000
,
0100
0010
0100
0010
,
0100
0010
0100
0010
,
0100
0010
0100
0010
,
0200
0000
2300
0000
,
3001
1000
0001
0000
,
0010
0001
0010
0000
,
0100
0010
0100
0000
,
1000
0100
1000
0000
,
0001
1000
0010
1000
,
0001
1000
0010
1000
,
0100
0010
0001
1000
,
0100
0010
0001
1000
,
0100
1000
0010
0100
,
0010
1000
0010
0100
,
0001
0010
0100
0010
,
0001
0010
0100
2000
,
3000
0000
0000
0000
;

//---------------dance-single - ----------------
#NOTES:
     dance-single:
     :
     Medium:
     8:
     0.384,0.460,0.367,0.264,0.013:
2000
0100
0000
3100
,
0020
0001
0000
0031
,
0200
0010
0000
0310
,
2000
0001
0000
3001
,
1000
0100
0010
0100
,
1000
0010
0100
0001
,
1000
0100
0010
0100
,
1000
0010
0100
0001
,
1000
0001
0100
0001
,
1000
0100
0010
0001
,
0010
0100
0010
0001
,
1000
0010
0100
0001
,
1002
0100
1000
0103
,
0020
1000
0100
1030
,
0002
0010
0100
0013
,
0200
1000
0010
1300
,
1001
1001
1001
1001
,
0110
0110
0110
0110
,
2002
3003
0220
0330
,
2002
3003
1002
0000
,
1003
1100
1000
1100
,
1000
1100
1000
1001
,
0001
0101
0001
0101
,
0001
0101
0001
0110
,
1000
0110
0010
0101
,
0010
0110
1000
0002
,
1003
0000
0000
0100
0000
0000
1000
0000
,
0001
0000
0000
0010
0000
0000
0002
0000
,
0103
0110
0100
0101
,
0100
0110
0100
1001
,
1000
1100
1000
1001
,
1000
1100
0010
0110
,
0100
0101
1000
1100
,
0010
0110
0001
2000
,
3002
0000
0000
0100
0000
0000
0103
0000
,
0020
0000
0000
0100
0000
0000
0230
0000
,
0302
0000
0023
0000
,
0230
0000
0320
0000
,
0032
0000
0000
1000
0000
0000
1003
0000
0200
0000
0000
1000
0000
0000
1300
0000
,
0020
0000
0000
0100
0000
0000
0130
0000
0002
0000
0000
0000
0000
0000
0000
0000
,
1003
0000
0001
0100
0010
0000
1000
0000
,
0100
0000
0010
0001
1000
0000
0100
0000
,
1000
0000
0001
0010
0100
0000
0010
0000
,
0001
0000
0010
0001
1000
0000
0100
0000
,
0010
0001
0100
1000
,
0100
0001
0010
1000
,
0010
0001
1000
0100
,
0020
0000
0032
0000
,
1003
0000
0001
0100
0001
0000
1000
0000
,
0100
0000
0010
0001
0010
0000
0001
0000
,
1000
0000
0010
0100
0010
0000
1000
0000
,
0001
0000
1000
0000
0001
0010
0001
0000
,
1000
0000
1100
0000
0010
0100
0010
0000
,
0100
0000
0101
0000
1000
0001
1000
0000
,
0001
0000
0011
0000
0100
0010
0100
0000
,
1000
0000
1010
0000
0100
0010
0100
0000
,
0001
0000
0011
0000
0100
1000
0100
0000
,
0010
0000
0101
0000
0010
1000
0100
0000
,
1000
0000
1001
0000
0001
0010
0100
0000
,
1000
0000
1001
0000
0010
0100
0001
0001
;

//---------------dance-single - ----------------
#NOTES:
     dance-single:
     :
     Hard:
     11:
     0.499,0.460,0.520,0.247,0.217: // measure 1
0001
0010
0100
0000
1000
0001
0100
0000
,  // measure 2
0001
1000
0100
0000
1000
0100
0010
0000
,  // measure 3
0001
1000
0010
0000
1000
0100
0010
0000
,  // measure 4
0100
1000
0010
0000
0100
0001
1000
0000
,  // measure 5
1100
0000
0000
0000
1001
0000
0000
0001
0000
0001
0000
0000
0010
0000
0000
0000
,  // measure 6
0001
0000
0000
0000
1001
0000
0000
1000
0000
1000
0000
0000
0100
0000
0000
0000
,  // measure 7
0010
0000
0000
0000
0110
0000
0000
0001
0000
0001
0000
0000
0100
0000
0000
0000
,  // measure 8
0010
0000
1001
2000
0000
0000
3001
0000
,  // measure 9
0100
0000
0000
0000
1100
0000
0000
1000
0000
1000
0000
0000
0001
0000
0000
0000
,  // measure 10
0100
0000
0000
0000
0110
0000
0000
0010
0000
0010
0000
0000
1000
0000
0000
0000
,  // measure 11
0100
0000
0000
0000
1100
0000
0000
1000
0000
1000
0000
0000
0001
0000
0000
0000
,  // measure 12
0100
0000
0101
0002
0000
0000
1003
0000
,  // measure 13
2001
0100
0001
3100
,  // measure 14
0020
0001
0100
0031
,  // measure 15
0200
1000
0010
1300
,  // measure 16
0002
1000
0100
1003
,  // measure 17
0001
0000
0001
1000
0000
0001
1000
0000
0001
1000
0000
0001
,  // measure 18
1000
0000
0100
0010
0000
0100
0010
0000
0100
0010
0000
0100
,  // measure 19
0010
0000
0001
0000
0010
0000
0100
0000
0100
0000
0100
0000
,  // measure 20
1100
0000
0000
0000
0110
0000
0000
0000
0011
0000
0000
0000
2002
0000
0000
0000
0000
0000
0000
0000
0000
3003
0000
0000
,  // measure 21
1100
0110
1100
0110
,  // measure 22
1001
0101
1001
0101
,  // measure 23
0110
1100
0110
1100
,  // measure 24
1001
1010
1001
1010
,  // measure 25
0110
0100
0001
0000
0110
0100
0001
0000
,  // measure 26
0110
0010
1000
0000
0110
0010
2000
0000
,  // measure 27
3002
0000
0000
0023
0000
0000
0130
0000
,  // measure 28
0020
0000
0000
0032
0000
0000
2003
0000
,  // measure 29
3100
0010
0100
0010
0100
0010
0100
0010
,  // measure 30
0001
1000
0001
1000
0001
1000
0002
0000
,  // measure 31
0103
0001
0100
0001
0100
0001
0100
0001
,  // measure 32
0010
0100
0010
0100
0010
0100
0020
0000
,  // measure 33
0031
0010
0001
0010
0001
0010
0001
0010
,  // measure 34
0001
1000
0001
1000
0001
1000
0002
0000
,  // measure 35
0203
0000
0000
0320
0000
0000
0130
0000
,  // measure 36
0002
0000
0000
2003
0000
0000
3002
0000
,  // measure 37
0103
0000
0000
0100
0000
0000
0001
0000
1000
0000
0000
1000
0000
0000
0100
0000
,  // measure 38
0010
0000
0000
0010
0000
0000
0001
0000
0100
0000
0000
0100
0000
0000
0010
0000
,  // measure 39
1000
0000
0000
0100
0000
0000
0001
0000
0100
0000
0000
1000
0000
0000
0010
0000
,  // measure 40
0001
0000
0000
0010
0000
0000
1000
0000
0020
0000
0000
0100
0000
0000
0130
0000
,  // measure 41
1001
0000
0000
0001
0000
0000
1000
0000
0000
0010
0000
0000
0100
0000
0000
0000
,  // measure 42
0001
0000
0000
0001
0000
0000
1000
0000
0000
0100
0000
0000
0010
0000
0000
0000
,  // measure 43
0100
0000
0000
0100
0000
0000
1000
0000
0000
0001
0000
0000
1000
0000
0000
0000
,  // measure 44
0100
0000
0000
0100
0000
0000
1000
0000
0000
0001
0000
0100
0000
0000
0000
0000
,  // measure 45
1002
0010
1000
0013
,  // measure 46
0200
1000
0010
1300
,  // measure 47
0020
0001
0100
0031
,  // measure 48
2001
0000
3002
0000
,  // measure 49
1003
0001
1001
0000
0100
0010
0110
0000
,  // measure 50
1000
0100
1100
0000
0010
0001
0011
0000
,  // measure 51
0100
0010
0110
0000
1000
0001
1001
0000
,  // measure 52
0100
0001
0101
0000
1000
0100
1100
0000
,  // measure 53
0101
0000
0000
0000
0110
0000
0000
0100
0001
0000
0010
0000
0100
0000
0000
0000
,  // measure 54
1001
0000
0000
0000
0011
0000
0000
0010
0001
0000
0010
0000
0100
0000
0000
0000
,  // measure 55
1001
0000
0000
0000
1100
0000
0000
0100
1000
0000
0010
0000
0100
0000
0000
0000
,  // measure 56
0101
0000
0000
0000
1001
0000
0000
1000
0010
0000
0100
0000
0001
0000
0000
0000
,  // measure 57
1001
0000
0000
0000
1100
0000
0000
0100
1000
0000
0100
0000
0010
0000
0000
0000
,  // measure 58
0101
0000
0000
0000
0110
0000
0000
0010
1000
0000
0100
0000
0010
0000
0000
0000
,  // measure 59
0101
0000
0000
0000
0110
0000
0000
0100
0001
0000
1000
0000
0100
0000
0000
0000
,  // measure 60
1100
0000
0000
0000
0110
0000
0000
0010
0001
0000
1000
0000
0020
0000
0130
0000
;

//---------------dance-single - ----------------
#NOTES:
     dance-single:
     :
     Challenge:
     13:
     0.573,0.638,0.409,0.341,0.409:
1000
0001
0010
0000
0100
0100
0110
0000
,
0010
0100
0001
0000
1000
1000
1100
0000
,
0010
0001
1000
0000
0010
0010
1010
0000
,
0100
0001
1000
0000
0100
0100
0110
0000
,
0101
0000
0000
0000
1001
0000
0000
1000
0000
0100
0000
0000
1100
0000
0000
0000
,
0001
0000
0000
0000
0101
0000
0000
0100
0000
0010
0000
0000
1010
0000
0000
0000
,
0100
0000
0000
0000
0110
0000
0000
0001
0000
1000
0000
0000
1100
0000
0000
0000
,
0010
0000
0000
0000
0110
0000
0100
0000
0000
0000
0001
1000
0001
0000
0000
0000
,
1000
0000
0000
0000
1100
0000
0000
0010
0000
0100
0001
0000
0101
0000
0000
0000
,
0001
0000
0000
0000
1001
0000
0000
1000
0000
0100
1000
0000
1001
0000
0000
0000
,
0100
0000
0000
0000
0101
0000
0000
0001
0000
1000
0100
0000
1100
0000
0000
0000
,
0010
0000
0000
0000
1001
0000
1000
0000
0000
0000
0001
0100
0001
0000
0000
0000
,
1001
0000
1000
0000
0000
0100
0000
0000
0010
0000
0000
0001
0000
0000
0100
0000
,
0000
0010
0000
0000
1000
0000
0000
0001
0000
0000
0010
0000
0000
0001
0000
0000
,
1000
0000
0000
0100
0000
0000
0010
0000
0000
0100
0000
0000
1000
0000
0000
0001
,
0000
0000
0100
0000
0000
0010
0000
0000
0100
0000
0000
0001
0000
0000
1000
0000
,
0100
0010
0001
1000
0100
0010
0100
0010
0001
1000
0100
0010
,
0100
0010
0001
1000
0100
0010
0100
0010
0001
1000
0100
0010
,
0001
0000
0101
0000
0101
0000
1001
0000
1001
0000
1100
0000
,
0100
0000
1000
0000
0010
0000
0100
0000
0001
0000
0010
0000
0002
0000
0000
0000
0000
0000
0000
0000
0000
0003
0000
0000
,
1000
0100
1000
0010
0100
0010
1000
0100
,
1000
0010
0100
0010
1000
0100
2000
0000
,
3001
0100
0010
0100
0001
0100
0010
0100
,
0001
0100
0010
0100
0001
0100
0020
0000
,
2030
0000
0000
3010
0100
0010
0100
0001
0100
0002
0000
0000
,
2003
0000
0000
3001
0010
0100
2000
0000
0000
3002
0000
0000
,
0023
0000
0000
0032
0000
0000
1003
0000
,
0200
0000
0000
0320
0000
0000
0032
1003
,
0001
1000
0100
1000
0001
0100
0001
1000
,
0100
0010
0001
0100
0010
0100
0002
0000
,
1003
0100
0010
0100
1000
0010
0001
0010
,
1000
0000
0000
0001
0000
0000
0100
0000
0000
0001
0000
0000
1000
0000
0000
0100
0000
0000
0010
0000
0001
0000
0100
0000
,
0010
1000
0100
1000
0010
1000
0001
0010
,
0001
1000
0010
1000
0001
0010
0002
0000
,
2003
0000
0000
3002
0000
0000
1003
0000
,
0020
0000
0030
2000
0000
0000
3020
0130
,
0002
0000
0000
0203
0000
0000
1300
0000
0200
0000
0000
0302
0000
0000
0013
0000
,
0200
0000
0000
1300
0000
0000
0001
0000
2000
0000
0000
3020
0000
0000
0031
0000
,
0020
0000
0000
2030
0000
0000
3001
0000
2000
0000
0000
3020
0000
0000
1030
0000
,
0002
0000
0000
2003
0000
0000
3100
0000
0020
0000
0000
0001
0000
0000
0031
0000
,
1000
0000
0000
0001
0100
0000
0002
0000
0000
1000
0000
0000
1003
0000
0000
0000
,
0001
0000
0000
1000
0100
0000
0020
0000
0000
0001
0000
0000
0031
0000
0000
0000
,
0100
0000
0000
0001
1000
0000
0200
0000
0000
1000
0000
0000
1300
0000
0000
0000
,
0001
0000
0000
1000
0001
0000
0100
0000
0000
0010
0000
0100
0000
0001
1000
0000
,
1001
0000
0000
0001
0000
0000
0100
0000
0000
0010
0000
0000
1000
0000
0000
0000
,
0001
0000
0000
1000
0000
0000
0100
0000
0000
0010
0000
0000
0100
0000
0000
0000
,
1000
0000
0000
0001
0000
0000
0100
0000
0000
0010
0000
0000
0100
0000
0000
0000
,
1002
0000
2003
0000
,
3001
1000
1100
0000
0010
0010
0110
0000
,
0001
1000
1001
0000
0100
0100
1100
0000
,
0010
0001
1001
0000
0100
0100
0110
0000
,
0001
0100
0101
0000
1000
1000
1001
0000
,
0011
0000
0000
0000
1001
0000
0000
1000
0000
0010
1000
0000
1001
0000
0000
0000
,
0010
0000
0100
0000
0101
0000
0000
0001
0000
1000
0100
0000
1000
0001
0000
0000
,
0100
0000
0010
0000
0110
0000
0000
1000
0000
0001
0100
0000
0101
0000
0000
0000
,
0010
0000
1000
0000
1001
0000
0001
0000
0000
0000
1000
0001
1000
0000
0000
0000
,
0100
0000
1000
0000
1001
0000
0000
1000
0000
0010
1000
0000
1001
0000
0000
0000
,
0010
0000
0001
0000
1001
0000
0000
1000
0000
0100
1000
0000
0001
0100
0000
0000
,
0010
0000
1000
0000
1001
0000
0000
0001
0000
1000
0001
0000
0101
0000
0000
0000
,
1000
0000
0100
0000
1100
0000
1000
0000
0000
0000
0001
0100
0002
0000
1003
0000
;

//---------------dance-double - ----------------
#NOTES:
     dance-double:
     :
     Easy:
     5:
     0.216,0.256,0.034,0.102,0.000:
00010000
00000000
00010000
00000000
,
10000000
00000000
10000000
00000000
,
01000000
00000000
01000000
00000000
,
00100000
00000000
00100000
00000000
,
00010000
00000000
10000000
00000000
,
00100000
00000000
10000000
00000000
,
00001000
00000000
00010000
00000000
,
00001000
00000000
00010000
00000000
,
00000100
00000000
00010000
00000000
,
00000100
00000000
00001000
00000000
,
00000001
00000000
00000100
00000000
,
00000001
00000000
00010000
00000000
,
00002000
00000000
00000000
00000000
,
00023000
00000000
00000000
00000000
,
00032000
00000000
00000000
00000000
,
00023000
00000000
00000000
00000000
,
00030010
00000010
00000010
00000010
,
00000100
00000100
00000100
00000100
,
00000110
00000000
00000110
00000000
,
00001001
00000000
00001001
00000000
,
00000001
00000001
00000001
00000000
,
00001000
00001000
00001000
00000000
,
00000100
00000100
00000100
00000000
,
00010000
00010000
00010000
00000000
,
00001000
00001000
00001000
00000000
,
00100000
00100000
00100000
00000000
,
00020000
00000000
00000000
00000000
,
20030000
00000000
00000000
00000000
,
31000000
00100000
01000000
00100000
,
01000000
00100000
01000000
00000000
,
10000000
00100000
10000000
00100000
,
10000000
00100000
10000000
00000000
,
00001000
00100000
00001000
00100000
,
00001000
00100000
00001000
00000000
,
00020000
00000000
00000000
00000000
,
00032000
00000000
00000000
00000000
,
00013000
00000000
00000100
00000000
,
00000010
00000000
00000001
00000000
,
00000100
00000000
00000010
00000000
,
00010000
00000000
00002000
00000000
,
01003000
00100000
01000000
00000000
,
00010000
10000000
00010000
00000000
,
00100000
01000000
10000000
00000000
,
00001000
01000000
00001000
00000000
,
00010000
00001000
00010000
00001000
,
00010000
00000010
00000100
00000010
,
00000100
00000001
00001000
00000001
,
00002000
00000000
00003200
00000000
,
00010300
00001000
00010000
00000000
,
00001000
01000000
00001000
00000000
,
01000000
00100000
01000000
00000000
,
00010000
10000000
00010000
00000000
,
10000000
01000000
00100000
00010000
,
10000000
00010000
10000000
00001000
,
00010000
00000100
00000010
00000001
,
00001000
00000001
00001000
00000001
,
00010000
00001000
01000000
00100000
,
10000000
00100000
01000000
00010000
,
00100000
00001000
00010000
00000100
,
00000010
00000001
00001000
00000020
,
00000030
00000000
00000000
00000000
;

//---------------dance-double - ----------------
#NOTES:
     dance-double:
     :
     Medium:
     8:
     0.409,0.460,0.418,0.222,0.013:
00010000
01000000
00010000
01000000
,
00100000
10000000
00100000
10000000
,
01000000
00100000
01000000
00100000
,
00001000
00100000
00000000
00001000
,
00100000
00101000
00001000
00101000
,
00010000
00011000
00010000
00011000
,
00010000
00010010
00010000
00010010
,
00000010
00000110
00000010
00000110
,
00010000
00010100
00010000
00010100
,
00001000
00101000
00001000
00101000
,
00100000
01100000
00100000
01100000
,
01000000
11000000
01000000
11000000
,
20010000
01000000
00010000
31000000
,
00012000
00100000
00010000
00103000
,
00021000
00000100
00001000
00030100
,
00002001
00000100
00000001
00003100
,
00001001
00001001
00001001
00001001
,
00010010
00010010
00010010
00010010
,
00022000
00033000
02200000
03300000
,
20200000
30300000
10020000
00000000
,
10030000
01000000
10000000
00000000
00010000
00100000
00010000
00000000
,
10000000
01000000
10000000
00000000
00010000
00100000
00001000
00000000
,
00010000
00000010
00010000
00000000
00000001
00000100
00000001
00000000
,
00010000
00000010
00010000
00000000
00000001
00000100
00000010
00000000
,
00010000
00011000
01000000
01100000
,
10000000
11000000
00100000
02000000
,
03100000
00000000
00000000
10000000
00000000
00000000
00001000
00000000
,
00010000
00000000
00000000
00010000
00000000
00000000
00000020
00000000
,
00000130
00000001
00000100
00000000
00000001
00001000
00000001
00000000
,
00010000
00001000
00010000
00000000
00001000
00100000
01000000
00000000
,
10000000
00100000
10000000
00000000
01000000
00100000
01000000
00000000
,
00100000
00001000
00100000
00000000
00001000
00010000
00000010
00000000
,
01000100
01000101
10001000
00001100
,
00010000
00011000
01000000
00200000
,
20300000
00000000
00000000
01000000
00000000
00000000
31000000
00000000
,
00200000
00000000
00000000
00010000
00000000
00000000
00310000
00000000
,
02000000
00000000
03002000
00000000
,
00023000
00000000
00030020
00000000
,
00000230
00000000
00000000
00000010
00000000
00000000
00000310
00000000
00002000
00000000
00000000
00000001
00000000
00000000
00003001
00000000
,
00020000
00000000
00000000
00000100
00000000
00000000
00030100
00000000
00020000
00000000
00000000
00000000
00000000
00000000
00000000
00000000
,
00031000
00000000
00100000
01000000
10000000
00000000
00010000
00000000
,
10000000
00000000
01000000
10000000
00010000
00000000
01000000
00000000
,
00001000
00000000
00010000
00000100
00001000
00000000
00000001
00000000
,
00000010
00000000
00000100
00000010
00000001
00000000
00001000
00000000
,
00001001
00000001
00000100
00001000
,
00000100
00000001
00000010
00010000
,
00000010
00000001
00010000
00001000
,
00200000
00000000
02300000
00000000
,
13000000
00000000
00001000
01000000
00001000
00000000
10000000
00000000
,
01000000
00000000
00100000
00001000
00100000
00000000
00001000
00000000
,
00010000
00000000
00000100
00001000
00000100
00000000
00001000
00000000
,
00000001
00000000
00000010
00000000
00000100
00000010
00000100
00000000
,
00010000
00000000
00011000
00000000
00001000
01000000
00100000
00000000
,
01000000
00000000
01100000
00000000
10000000
01000000
00100000
00000000
,
01000000
00000000
11000000
00000000
00001000
00100000
00010000
00000000
,
00100000
00000000
00101000
00000000
00010000
00001000
00010000
00000000
,
00000010
00000000
00010010
00000000
00000100
00000001
00000010
00000000
,
00000100
00000000
00010100
00000000
00010000
00001000
01000000
00000000
,
00100000
00000000
01100000
00000000
10000000
01000000
00100000
00000000
,
00001000
00000000
01001000
00000000
00001000
00010000
00000010
00000100
;

//---------------dance-double - ----------------
#NOTES:
     dance-double:
     :
     Hard:
     11:
     0.496,0.460,0.478,0.264,0.217:
10000000
01000000
00100000
00000000
00010000
10000000
00010000
00000000
,
01000000
00001000
00010000
00000000
00000010
00010000
00000010
00000000
,
00001000
00000100
00000010
00000000
00000001
00001000
00000100
00000000
,
00010000
00000100
00010000
00000000
00001000
00100000
01000000
00000000
,
10010000
00000000
00000000
00000000
20100000
00000000
00000000
00100000
00000000
00100000
00000000
00000000
30100000
00000000
00000000
00000000
,
01000000
00000000
00000000
00000000
01002000
00000000
00000000
01000000
00000000
01000000
00000000
00000000
01003000
00000000
00000000
00000000
,
00010000
00000000
00000000
00000000
00020010
00000000
00000000
00000010
00000000
00000010
00000000
00000000
00030010
00000000
00000000
00000000
,
00001000
00000000
00001001
00000002
00000000
00000000
00000013
00000000
,
00000100
00000000
00000000
00000000
00010200
00000000
00000000
00010000
00000000
00010000
00000000
00000000
00010300
00000000
00000000
00000000
,
00001000
00000000
00000000
00000000
10002000
00000000
00000000
10000000
00000000
10000000
00000000
00000000
10003000
00000000
00000000
00000000
,
01000000
00000000
00000000
00000000
12000000
00000000
00000000
10000000
00000000
10000000
00000000
00000000
13000000
00000000
00000000
00000000
,
00100000
00000000
01100000
00200000
00000000
00000000
01300000
00000000
,
00011000
00010000
00000100
00000001
,
00000100
00010000
00001000
00100000
,
10000000
00100000
00001000
00010000
,
00000010
00000001
00000010
00010000
,
00001000
00000000
00001000
10000000
00000000
00001000
10000000
00000000
00001000
10000000
00000000
00001000
,
10000000
00000000
01000000
00100000
00000000
01000000
00100000
00000000
01000000
00100000
00000000
01000000
,
00100000
00000000
00001000
00000000
00010000
00000000
00000010
00000000
00000010
00000000
00000010
00000000
,
00000110
00000000
00000101
00000000
00010001
00000000
00020200
00000000
00000000
00000000
00030300
00000000
,
00011000
01001000
00011000
01001000
,
01100000
10100000
01100000
10100000
,
10001000
00101000
10001000
00101000
,
00011000
00001100
00011000
00001100
,
00000011
00000001
00001000
00000000
00001010
00000010
00010000
00000000
,
00011000
00001000
00100000
00000000
01100000
01000000
20000000
00000000
,
30020000
00000000
00000000
02030000
00000000
00000000
03100000
00000000
,
20000000
00000000
00000000
32000000
00000000
00000000
23000000
00000000
,
30010000
00100000
00010000
00100000
00001000
01000000
00001000
01000000
,
00010000
00001000
00010000
00001000
00010000
00001000
00000020
00000000
,
00000130
00000001
00000100
00000001
00010000
00000100
00010000
00000100
,
00001000
00010000
00001000
00010000
00001000
00010000
02000000
00000000
,
03100000
10000000
00100000
10000000
00001000
00100000
00001000
00100000
,
00010000
00001000
00010000
00001000
00010000
00001000
00000200
00000000
,
00000320
00000000
00000000
00000032
00000000
00000000
00001003
00000000
,
00000200
00000000
00000000
00020300
00000000
00000000
00032000
00000000
,
10003000
00000000
00000000
10000000
00000000
00000000
00100000
00000000
01000000
00000000
00000000
01000000
00000000
00000000
00001000
00000000
,
00100000
00000000
00000000
00100000
00000000
00000000
00010000
00000000
00001000
00000000
00000000
00001000
00000000
00000000
00000100
00000000
,
00000010
00000000
00000000
00000001
00000000
00000000
00001000
00000000
00000100
00000000
00000000
00010000
00000000
00000000
00001000
00000000
,
01000000
00000000
00000000
00100000
00000000
00000000
10000000
00000000
00002000
00000000
00000000
01000000
00000000
00000000
01003000
00000000
,
01100000
00000000
00000000
00100000
00000000
00000000
10000000
00000000
00000000
01000000
00000000
00000000
00100000
00000000
00000000
00000000
,
00001000
00000000
00000000
00001000
00000000
00000000
00100000
00000000
00000000
00010000
00000000
00000000
10000000
00000000
00000000
00000000
,
00100000
00000000
00000000
00100000
00000000
00000000
01000000
00000000
00000000
00001000
00000000
00000000
00010000
00000000
00000000
00000000
,
00000100
00000000
00000000
00000100
00000000
00000000
00000010
00000000
00000000
00000001
00000000
00010000
00000000
00000000
00000000
00000000
,
00012000
00100000
00010000
00103000
,
21000000
00100000
01000000
30100000
,
02100000
00001000
00100000
03001000
,
00021000
00000000
00030002
00000000
,
00001003
00000100
00001100
00000000
00000010
00000001
00000011
00000000
,
00010000
00000100
00010100
00000000
00001000
00010000
00011000
00000000
,
01000000
00100000
01100000
00000000
10000000
00100000
10100000
00000000
,
01000000
00100000
01100000
00000000
00001000
00010000
00011000
00000000
,
00000110
00000000
00000000
00000000
00000101
00000000
00000000
00000001
00010000
00000000
00000100
00000000
00010000
00000000
00000000
00000000
,
00001000
00000000
00000000
00000000
01001000
00000000
00000000
01000000
00100000
00000000
10000000
00000000
00100000
00000000
00000000
00000000
,
10000000
00000000
00000000
00000000
10010000
00000000
00000000
00010000
10000000
00000000
01000000
00000000
10000000
00000000
00000000
00000000
,
00100000
00000000
00000000
00000000
10010000
00000000
00000000
00010000
01000000
00000000
00001000
00000000
01000000
00000000
00000000
00000000
,
00001000
00000000
00000000
00000000
00010010
00000000
00000000
00010000
00000010
00000000
00000100
00000000
00000010
00000000
00000000
00000000
,
00001000
00000000
00000000
00000000
00001001
00000000
00000000
00000001
00000100
00000000
00000010
00000000
00000100
00000000
00000000
00000000
,
00000010
00000000
00000000
00000000
00010010
00000000
00000000
00010000
00001000
00000000
00100000
00000000
00001000
00000000
00000000
00000000
,
00100000
00000000
00000000
00000000
01100000
00000000
00000000
01000000
10000000
00000000
01000000
00000000
00200000
00000000
00310000
00000000
;

//---------------dance-double - ----------------
#NOTES:
     dance-double:
     :
     Challenge:
     13:
     0.574,0.638,0.409,0.350,0.409:
10000000
01000000
00100000
00000000
00001000
00001000
01001000
00000000
,
00010000
00000100
00001000
00000000
00000010
00000010
00000110
00000000
,
00000001
00001000
00000010
00000000
00010000
00010000
00010010
00000000
,
00001000
00100000
01000000
00000000
10000000
10000000
10100000
00000000
,
10010000
00000000
00000000
00000000
00110000
00000000
00000000
10000000
00000000
00100000
00000000
00000000
01100000
00000000
00000000
00000000
,
00001000
00000000
00000000
00000000
00011000
00000000
00000000
00010000
00000000
00000010
00000000
00000000
00000110
00000000
00000000
00000000
,
00000001
00000000
00000000
00000000
00000011
00000000
00000000
00000010
00000000
00000100
00000000
00000000
00010100
00000000
00000000
00000000
,
01000000
00000000
00000000
00000000
01100000
00000000
00100000
00000000
00000000
00000000
10000000
00010000
10000000
00000000
00000000
00000000
,
00100000
00000000
00000000
00000000
01100000
00000000
00000000
00001000
00000000
00010000
00000100
00000000
00010100
00000000
00000000
00000000
,
00001000
00000000
00000000
00000000
00001001
00000000
00000000
00000001
00000000
00000010
00000001
00000000
00000101
00000000
00000000
00000000
,
00010000
00000000
00000000
00000000
00011000
00000000
00000000
00001000
00000000
00100000
01000000
00000000
01100000
00000000
00000000
00000000
,
10000000
00000000
00000000
00000000
10100000
00000000
00100000
00000000
00000000
00000000
10000000
00010000
10000000
00000000
00000000
00000000
,
10010000
00000000
00010000
00000000
00000000
00100000
00000000
00000000
00001000
00000000
00000000
00010000
00000000
00000000
00000100
00000000
,
00000000
00000010
00000000
00000000
00000001
00000000
00000000
00000010
00000000
00000000
00000100
00000000
00000000
00000010
00000000
00000000
,
00000001
00000000
00000000
00010000
00000000
00000000
00000010
00000000
00000000
00010000
00000000
00000000
00000001
00000000
00000000
00000010
,
00000000
00000000
00000100
00000000
00000000
00001000
00000000
00000000
00010000
00000000
00000000
01000000
00000000
00000000
00100000
00000000
,
10000000
01000000
10000000
00010000
00100000
00010000
10000000
00100000
10000000
00001000
01000000
00001000
,
00010000
00000100
00010000
00000001
00000100
00000001
00001000
00000010
00001000
00000001
00000010
00000001
,
00001000
00000000
00001001
00000000
00010100
00000000
00011000
00000000
01001000
00000000
01100000
00000000
,
01000000
10000000
00100000
01000000
00010000
00100000
00002000
00000000
00000000
00000000
00000000
00000000
,
00013000
00000100
00010000
00000010
00000100
00000010
00010000
00000100
,
00010000
00000010
00000100
00000010
00010000
00000100
00020000
00000000
,
00031000
00100000
01000000
00100000
00001000
00100000
01000000
00100000
,
00001000
00100000
01000000
00100000
00001000
00010000
00002000
00000000
,
00023000
00000000
00000000
00030100
00000010
00000001
00000100
00000001
00000100
00000020
00000000
00000000
,
00020030
00000000
00000000
00031000
00100000
01000000
20000000
00000000
00000000
30200000
00000000
00000000
,
02300000
00000000
00000000
03002000
00000000
00000000
00013000
00000000
,
00000020
00000000
00000000
00002030
00000000
00000000
00003002
00001003
,
00000001
00000100
00000010
00000100
00000001
00000100
00000001
00010000
,
00000100
00000010
00000001
00010000
00001000
01000000
00200000
00000000
,
10300000
01000000
00100000
01000000
10000000
00100000
00010000
00100000
,
10000000
00000000
00000000
00001000
00000000
00000000
01000000
00000000
00000000
00001000
00000000
00000000
00010000
00000000
00000000
00000010
00000000
00000000
00010000
00000000
00000010
00000000
00000100
00000000
,
00000001
00001000
00000100
00001000
00000010
00001000
00000001
00010000
,
00001000
01000000
00001000
10000000
00001000
00100000
00020000
00000000
,
20030000
00000000
00000000
30020000
00000000
00000000
10030000
00000000
,
00002000
00000000
00000000
00023000
00000000
00000000
00030020
00000130
,
00000002
00000000
00000000
00000203
00000000
00000000
00000310
00000000
00000200
00000000
00000000
00000302
00000000
00000000
00001003
00000000
,
00000200
00000000
00000000
00020300
00000000
00000000
00031000
00000000
00200000
00000000
00000000
02300000
00000000
00000000
13000000
00000000
,
00002000
00000000
00000000
02003000
00000000
00000000
03010000
00000000
20000000
00000000
00000000
32000000
00000000
00000000
13000000
00000000
,
00020000
00000000
00000000
02030000
00000000
00000000
03001000
00000000
00020000
00000000
00000000
00001000
00000000
00000000
00031000
00000000
,
10000000
00000000
00000000
10000000
00100000
00000000
02000000
00000000
00000000
00001000
00000000
00000000
03001000
00000000
00000000
00000000
,
00010000
00000000
00000000
00010000
00000001
00000000
00000020
00000000
00000000
00000100
00000000
00000000
00000130
00000000
00000000
00000000
,
00010000
00000000
00000000
00010000
00001000
00000000
02000000
00000000
00000000
00100000
00000000
00000000
03100000
00000000
00000000
00000000
,
10000000
00000000
00000000
10000000
00100000
00000000
01000000
00000000
00000000
00001000
00000000
00010000
00000000
00001000
01000000
00000000
,
01100000
00000000
00000000
01000000
00000000
00000000
00010000
00000000
00000000
00100000
00000000
00000000
00001000
00000000
00000000
00000000
,
00010000
00000000
00000000
00000100
00000000
00000000
00000010
00000000
00000000
00000001
00000000
00000000
00001000
00000000
00000000
00000000
,
00000010
00000000
00000000
00000100
00000000
00000000
00000010
00000000
00000000
00010000
00000000
00000000
00001000
00000000
00000000
00000000
,
00021000
00000000
00032000
00000000
,
10003000
01000000
11000000
00000000
00100000
00100000
01100000
00000000
,
10000000
00010000
10010000
00000000
00100000
00100000
00101000
00000000
,
00010000
00000010
00010010
00000000
00000100
00000100
00000110
00000000
,
00000001
00000010
00000011
00000000
00010000
00010000
00011000
00000000
,
10001000
00000000
00000000
00000000
11000000
00000000
00000000
10000000
00000000
00010000
01000000
00000000
01010000
00000000
00000000
00000000
,
00100000
00000000
00001000
00000000
00011000
00000000
00000000
00010000
00000000
00000010
00000100
00000000
00000010
00000100
00000000
00000000
,
00000001
00000000
00001000
00000000
00001001
00000000
00000000
00000010
00000000
00000100
00010000
00000000
00010100
00000000
00000000
00000000
,
00001000
00000000
10000000
00000000
11000000
00000000
01000000
00000000
00000000
00000000
10000000
00010000
10000000
00000000
00000000
00000000
,
00100000
00000000
01000000
00000000
01001000
00000000
00000000
00001000
00000000
00010000
00000010
00000000
00000110
00000000
00000000
00000000
,
00000100
00000000
00001000
00000000
00001001
00000000
00000000
00000100
00000000
00000010
00010000
00000000
00001000
00010000
00000000
00000000
,
00001000
00000000
01000000
00000000
01100000
00000000
00000000
10000000
00000000
00100000
01000000
00000000
01001000
00000000
00000000
00000000
,
00010000
00000000
00000010
00000000
00000110
00000000
00000100
00000000
00000000
00000000
00000001
00001000
00000002
00000000
00000103
00000000
;

//---------------dance-single - ----------------
#NOTES:
     dance-single:
     :
     Beginner:
     3:
     0.115,0.152,0.060,0.000,0.000:
0001
0000
0000
0000
,
0001
0000
0000
0000
,
0010
0000
0000
0000
,
0010
0000
0000
0000
,
1001
0000
0000
0000
,
1000
0000
0000
0000
,
0100
0000
0000
0000
,
0100
0000
0000
0000
,
0010
0000
0000
0000
,
0010
0000
0000
0000
,
0001
0000
0000
0000
,
0001
0000
0000
0000
,
0100
0000
0000
0000
,
0000
0000
0000
0000
,
0100
0000
0000
0000
,
0000
0000
0000
0000
,
0100
0000
0100
0000
,
0100
0000
0000
0000
,
0010
0000
0010
0000
,
0010
0000
0000
0000
,
0110
0000
0100
0000
,
0010
0000
0100
0000
,
0001
0000
1000
0000
,
0001
0000
1000
0000
,
0001
0000
1000
0000
,
0001
0000
1000
0000
,
1001
0000
0000
0000
,
0000
0000
0000
0000
,
0001
0000
0100
0000
,
0010
0000
0100
0000
,
0010
0000
1000
0000
,
0010
0000
1000
0000
,
0001
0000
1000
0000
,
0001
0000
1000
0000
,
0100
0000
0000
0000
,
0000
0000
0000
0000
,
1001
0000
0000
0000
,
0010
0000
0000
0000
,
0100
0000
0001
0000
,
1000
0000
0000
0000
,
1001
0000
0001
0000
,
1000
0000
0001
0000
,
1000
0000
0001
0000
,
1000
0000
0001
0000
,
0010
0000
0000
0000
,
0100
0000
0000
0000
,
1000
0000
0000
0000
,
0001
0000
0000
0000
,
1001
0000
1000
0000
,
1000
0000
1000
0000
,
1000
0000
1000
0000
,
1000
0000
1000
0000
,
1001
0000
0001
0000
,
0010
0000
0001
0000
,
0010
0000
0100
0000
,
0010
0000
0100
0000
,
1000
0000
0100
0000
,
1000
0000
0001
0000
,
1000
0000
0001
0000
,
1000
0000
0100
0000
;
