#TITLE:concon;
#SUBTITLE:;
#ARTIST:S-C-U;
#TITLETRANSLIT:;
#SUBTITLETRANSLIT:;
#ARTISTTRANSLIT:;
#CREDIT:DigiMindAxel;
#BANNER:concon.png;
#BACKGROUND:concon-bg.png;
#LYRICSPATH:;
#CDTITLE:jubeat.png;
#MUSIC:concon.mp3;
#METERTYPE:DDR X;
#OFFSET:-5.810;
#SAMPLESTART:61.319;
#SAMPLELENGTH:12.000;
#SELECTABLE:YES;
#BPMS:0.000=190.000;
#STOPS:;
#BGCHANGES:;

//---------------dance-single - ----------------
#NOTES:
     dance-single:
     :
     Easy:
     6:
     0.292,0.437,0.113,0.179,0.000:
1002
0000
0100
0000
,
1003
0000
0010
0000
,
2000
0000
0001
0000
,
3001
0000
0100
0000
,
0001
0000
0000
1000
0000
0010
0000
1000
,
0000
0000
0000
0001
0000
0000
0001
0000
,
1000
0000
0000
0001
0000
0100
0000
0001
,
0000
0000
0000
1000
0000
0000
1000
0000
,
0002
0000
0100
0000
,
1003
0000
0100
0000
,
0010
0000
0001
0000
,
1000
0000
0010
0000
,
0200
0000
0000
0000
,
0000
0000
0000
0000
,
0320
0000
0000
0000
,
0000
0000
0000
0000
,
2030
0000
0000
0000
,
0000
0000
0000
0000
,
3002
0000
0000
0000
,
0000
0000
0000
0000
,
1003
0000
0010
0000
,
0100
0000
0001
0000
,
0010
0000
0100
0000
,
1000
0001
0100
0020
,
0000
0100
0000
0100
,
0000
0100
0000
0130
,
0000
0001
0000
1000
,
0020
0000
0000
0030
,
1002
0000
0103
0000
,
0001
0000
1000
0000
,
2001
0000
3010
0000
,
1000
0000
0001
0000
,
0100
0010
0000
1000
,
0001
0000
1000
0001
,
1000
0010
0000
0100
,
0001
0000
0100
0001
,
2000
0000
0100
0000
,
3001
0000
0010
0000
,
0200
0000
0010
0000
,
1300
0000
0001
0000
,
1001
1000
0000
1001
,
0001
0000
0100
0000
,
0110
0000
0000
1000
0000
0002
0000
0000
,
0000
0000
0000
0000
,
1003
0010
1000
0000
,
0001
0010
0001
0000
,
0100
0010
0100
0000
,
0010
0100
0010
0000
,
0100
0001
1000
0000
,
0100
1000
0001
0000
,
0010
0001
1000
0000
,
0010
1000
0001
1000
,
0001
0010
0100
0000
,
1000
0100
0010
0000
,
0001
0100
0010
0000
,
2002
0000
0000
3003
,
0001
0100
0010
0000
,
1000
0010
0100
0000
,
0001
0000
0000
1001
0000
0000
1000
0000
,
1001
0000
0000
0000
,
0020
0000
0000
0000
,
0000
0000
0000
0000
0000
0130
0000
0001
,
2000
0000
0000
0000
,
0000
0000
0000
0000
0000
3001
0000
1000
,
0001
0010
0100
1000
,
0100
0001
0100
1000
,
0100
0010
0001
1000
,
0010
0110
0110
0001
,
1001
0100
0010
0001
,
1000
0010
0100
0001
,
0010
0100
1000
0001
,
0100
0010
0100
0001
,
1000
0100
0010
0001
,
1000
0100
0010
0001
,
0100
1000
0100
0001
,
2000
0000
0000
0000
,
3001
0000
0000
0100
0000
0001
0000
1000
,
0000
1000
0000
0000
;

//---------------dance-single - ----------------
#NOTES:
     dance-single:
     :
     Medium:
     10:
     0.491,0.510,0.113,0.151,0.005:
1002
0000
0000
0000
1003
0010
0000
1000
,
0000
0001
0200
0000
0010
0000
0310
0000
,
1000
0000
0010
0000
0100
0001
0000
0001
,
1000
0000
0010
0100
0000
0100
0010
0000
,
1000
0100
0000
1000
0000
0001
0100
0001
,
0000
0000
0000
1000
0000
0001
1000
0000
,
0001
0100
0001
0100
0000
0010
0000
1000
,
0000
0001
1000
0001
0000
0100
0010
0100
,
0002
0000
0000
0000
1003
0100
0000
1000
,
0000
0001
0200
0000
0010
0000
0310
0000
,
1000
0000
0010
0000
0100
0001
0000
0001
,
1000
0000
0010
0100
0000
0100
0010
0000
,
1000
0000
0000
1000
0000
0000
0000
0100
,
0000
0100
0000
0000
,
0001
0000
0000
0001
0000
0000
0000
0000
,
0100
0000
0000
0100
0000
0000
2000
0000
,
0002
0000
0000
3000
,
0000
0000
0013
0100
,
2000
0000
0000
0000
,
0000
3010
0100
0010
,
1000
0100
1000
0100
,
0010
0001
0010
0001
,
1000
0010
1000
0010
,
0100
0001
0100
0001
,
1000
0010
1000
0000
0001
0000
0010
0000
,
0100
1000
0100
0000
0001
0000
0100
0000
,
2000
0000
0000
3010
0000
0100
0000
0010
,
1000
0001
1000
1000
,
2001
0000
0000
3010
0100
0010
0000
1000
,
0000
0001
0000
0000
0000
0000
1000
0000
,
1002
0000
0000
0103
0010
0100
0000
0001
,
0000
1000
0000
0010
0000
0100
0000
0000
,
0101
0000
1000
0100
1000
0000
0001
0000
,
1000
0100
1000
0000
0001
0100
0001
0000
,
1000
0000
0001
0100
0001
0000
1000
0000
,
0001
0100
0001
0000
0100
0010
0100
0000
,
1002
0000
0000
0103
0010
0100
0000
0001
,
0000
1000
0000
0000
0000
0000
0001
0000
,
2000
0000
0000
3010
0100
0010
0000
1000
,
0000
0001
0000
0100
0000
0010
0000
0000
,
1000
0001
1000
0001
0000
0000
0001
1000
,
0001
1000
0000
0000
0010
0100
0010
0000
,
1000
0001
1000
0001
0000
0100
0020
0000
,
0000
0000
0100
0000
0000
0130
0000
0000
,
1001
0000
0100
1000
0000
0001
0100
0000
,
0001
0100
0001
0000
1000
0000
0100
0000
,
0010
0001
0000
1000
0010
0000
1000
0010
,
1000
0000
0001
0000
0010
0000
0100
1000
,
0001
0100
0001
0000
1000
0100
1000
0000
,
0010
0000
0100
0001
1000
0000
0100
0000
,
1000
0000
0001
0010
0001
0000
1000
0000
,
0001
0100
0000
0001
0000
1000
0000
0010
,
1000
0000
0010
0100
0010
0000
1000
0000
,
0001
0100
0001
0000
0100
0010
0100
0000
,
0001
0000
1000
0100
1000
0001
0010
0100
,
1000
0000
0000
0002
0000
0000
2000
0000
0000
0000
0000
0000
3003
0000
0000
0000
,
1001
0000
0100
0001
0100
0010
0000
1000
,
0000
0010
0100
0010
0000
1000
0001
1000
,
0010
0100
0001
1000
0000
1000
0001
0100
,
0010
0000
0000
0000
,
1001
0000
0000
0000
,
0000
0000
0000
0000
0000
0101
0000
1000
,
1001
0000
0000
0000
,
0000
0000
0000
0000
0000
1010
0000
0001
,
1001
0100
0001
0100
,
1000
0001
0010
1000
,
0010
0001
1000
0001
,
1000
0010
0100
0001
1000
0000
0001
1000
,
0001
0000
0100
0000
1000
0100
1000
0000
,
0100
0000
0001
1000
0000
0010
0100
0010
,
1000
0100
0001
0100
,
1000
0010
1000
0000
0001
1000
0001
1000
,
0001
0100
0010
0000
0100
0010
0100
0000
,
0001
0100
0010
0000
0100
0010
0100
0000
,
0010
1000
0010
1000
0001
0010
0100
0010
,
0002
0000
0000
0000
,
1003
0100
1000
0001
0000
0100
0000
0010
,
0000
1000
0001
0000
0000
0000
0000
0000
;

//---------------dance-single - ----------------
#NOTES:
     dance-single:
     :
     Hard:
     12:
     0.668,0.655,0.188,0.254,0.028:
1000
0010
1000
0100
0010
0002
0000
0100
,
0000
1003
0100
0010
0001
2000
0000
0100
,
0000
3001
0010
0100
1000
0100
0000
1000
,
0100
0001
0100
1000
0000
0010
0100
0000
,
0001
0100
0010
1000
0000
1000
0100
0010
,
0000
0001
1000
0020
0000
0100
0130
0000
,
0001
0100
0010
1000
0000
1000
0000
0001
,
0000
0001
0010
0100
0000
1000
0100
1000
,
0001
0100
0001
0010
0100
2000
0000
0100
,
0000
3001
0010
0100
1000
0002
0000
0100
,
0000
1003
0100
0010
0001
0010
0000
0001
,
0010
1000
0010
0001
0000
0100
0010
1000
,
0002
0000
0000
0100
0000
0100
0000
0103
,
0000
0100
0010
1000
0000
1000
0000
0001
,
1000
0000
1000
0001
0000
0100
0010
0100
,
0002
0000
0000
1000
0000
0000
2000
0000
,
0000
0000
0000
0003
,
0000
3001
0010
0100
,
2000
0000
0000
0000
,
0000
3001
0100
0110
,
1000
0000
0001
0100
0000
0010
0000
0100
,
0000
0001
0010
0100
0000
1000
0000
1000
,
0001
0000
0100
0000
0100
0001
0010
0100
,
0000
1000
0001
1000
0000
0010
0100
0000
,
0001
0100
0010
1000
0000
1000
0000
0001
,
0000
0001
0100
0001
1000
0100
1000
0001
,
0010
0100
0000
0100
0000
0100
0000
0100
,
0010
0001
1000
0100
0010
0100
0000
1000
,
0002
0000
0000
0100
0103
0000
0010
1000
,
0200
0000
0000
0010
0310
0001
0010
0100
,
2000
0000
0000
0010
3010
0000
0100
0001
,
0020
0000
0000
0100
0130
1000
0100
0010
,
0001
0100
1000
0100
0000
0001
0100
1000
,
0100
0001
0000
0100
1000
0100
0010
1000
,
0001
0010
1000
0010
0000
0001
0010
1000
,
0010
0001
0000
0010
0100
1000
0001
0100
,
0020
0000
0000
1000
1030
0000
0100
0001
,
0020
0000
0000
0001
0031
1000
0001
0010
,
0200
0000
0000
1000
1300
0000
0010
0001
,
0200
0000
0000
0010
0310
1000
0100
0010
,
0001
0100
1000
0100
0000
0001
0100
1000
,
0100
0001
0000
0100
0010
1000
0100
0001
,
0100
1100
0000
0101
0000
1100
1002
0000
,
0000
0000
0000
0000
0200
0000
0003
0000
0000
0000
0020
0000
0000
0330
0000
0000
,
1000
0100
1000
0010
1000
0100
1000
0001
,
0100
1000
0100
0001
0100
0010
1000
0000
,
0001
0100
0001
0010
0001
0100
0001
1000
,
0100
0001
0100
1000
0100
0010
0100
0000
,
1000
0001
0010
0100
0000
1000
0010
0100
,
0001
0100
1000
0100
0000
0001
0100
0010
,
1000
0100
0010
0100
1000
0001
0100
0001
,
0000
0101
0000
1001
0000
1100
0000
1000
,
0001
0100
0001
0010
0001
0100
0001
1000
,
0100
0001
0100
1000
0100
0010
0001
0000
,
1000
0100
0001
0100
1000
0001
0010
1000
,
0010
0000
0000
0011
0000
0000
1001
0000
0000
1100
0000
0000
0001
0000
0001
0000
,
1000
0100
1000
0010
1000
0100
1000
0001
,
0100
1000
0100
0001
0100
0010
0100
0001
,
1000
0100
0001
0100
0000
1000
0100
0001
,
0200
0000
0000
0300
,
2002
0000
0000
0000
,
0000
0000
3003
0000
0000
1100
0000
1100
,
2002
0000
0000
0000
,
0000
0000
0000
3003
0000
0011
0000
0001
,
1000
0100
0001
0100
1000
0001
0010
1000
,
0010
0001
0100
0010
1000
0010
0001
0010
,
1000
0001
0100
1000
0100
0001
1000
0010
,
0100
0101
0000
1001
0000
1100
0000
1000
,
0001
0000
0010
0000
0100
0000
1000
0000
0001
0000
0100
0001
0000
0100
0001
0000
,
0010
0100
1000
0001
0000
0001
0100
0010
,
1000
0000
0100
0000
0010
0000
0001
0000
1000
0000
0010
1000
0000
0010
1000
0000
,
0100
0010
0001
1000
0000
1000
0010
0100
,
0001
0100
1000
0100
0001
1000
0010
0001
,
0010
1000
0100
0010
0100
1000
0001
0010
,
0100
0010
0001
0100
1000
0100
0010
1000
,
0220
0000
0000
0330
,
0001
0010
0100
1000
0000
1000
0100
0010
,
0000
0001
1000
0000
0000
0000
0000
0000
;

//---------------dance-single - ----------------
#NOTES:
     dance-single:
     :
     Beginner:
     2:
     0.098,0.179,0.075,0.000,0.000:
1000
0000
0000
0000
,
0000
0000
0000
0000
,
1000
0000
0000
0000
,
0000
0000
0000
0000
,
0001
0000
0000
0000
,
0000
0000
0000
0000
,
1000
0000
0000
0000
,
0000
0000
0000
0000
,
0001
0000
0000
0000
,
0000
0000
0000
0000
,
0001
0000
0000
0000
,
0000
0000
0000
0000
,
0100
0000
0000
0000
,
0000
0000
0000
0000
,
0000
0000
0000
0000
,
0000
0000
0000
0000
,
0100
0000
0000
0000
,
0000
0000
0000
0000
,
0010
0000
0000
0000
,
0000
0000
0000
0000
,
1000
0000
0000
0000
,
1000
0000
0000
0000
,
0001
0000
0000
0000
,
0001
0000
0000
0000
,
1000
0000
0000
0000
,
0001
0000
0000
0000
,
1000
0000
0000
0000
,
0000
0000
0000
0000
,
0001
0000
0000
0000
,
0001
0000
0000
0000
,
1000
0000
0000
0000
,
1000
0000
0000
0000
,
0100
0000
0000
0000
,
0010
0000
0000
0000
,
0001
0000
0000
0000
,
1000
0000
0000
0000
,
1001
0000
0000
0000
,
1000
0000
0000
0000
,
0001
0000
0000
0000
,
0001
0000
0000
0000
,
0110
0000
0000
0000
,
0000
0000
0000
0000
,
0110
0000
0000
0000
,
0000
0000
0000
0000
,
1000
0000
0000
0000
,
0001
0000
0000
0000
,
1000
0000
0000
0000
,
1000
0000
0000
0000
,
0001
0000
0000
0000
,
1000
0000
0000
0000
,
0001
0000
0000
0000
,
0001
0000
0000
0000
,
0100
0000
0000
0000
,
0010
0000
0000
0000
,
0100
0000
0000
0000
,
0110
0000
0000
0000
,
1000
0000
0000
0000
,
0001
0000
0000
0000
,
1000
0000
0000
0000
,
1000
0000
0000
0000
,
1001
0000
0000
0000
,
0000
0000
0000
0000
,
1001
0000
0000
0000
,
0000
0000
0000
0000
,
1001
0000
0001
0000
,
0001
0000
0000
0000
,
1000
0000
1000
0000
,
1000
0000
0000
0000
,
0010
0000
0000
0000
,
0100
0000
0000
0000
,
0001
0000
0000
0000
,
1000
0000
0000
0000
,
0001
0000
0001
0000
,
0001
0000
0000
0000
,
1000
0000
1000
0000
,
1001
0000
0000
0000
,
0001
0000
0000
0000
;

//---------------dance-single - ----------------
#NOTES:
     dance-single:
     :
     Challenge:
     15:
     0.824,0.983,0.207,0.094,0.382: // measure 1
1000
0000
0001
1000
0001
0000
0100
0000
0010
0000
0100
0000
0000
0000
0110
0000
,  // measure 2
0000
0010
1000
0100
1000
0001
0000
1001
,  // measure 3
0000
0000
0001
0100
0001
0000
0010
0000
0100
0000
1000
0000
0000
0000
0010
0100
,  // measure 4
0010
1000
0100
0010
0000
0010
0001
1000
,  // measure 5
0001
0001
0010
0100
0000
0100
1000
0001
,  // measure 6
0000
0001
1000
0100
0100
1000
1000
0001
,  // measure 7
1000
1000
0100
0010
0000
0010
0001
1000
,  // measure 8
0000
1000
0001
0100
0100
0001
0001
0100
,  // measure 9
0001
0000
1000
0100
1000
0000
0001
0000
0010
0000
0100
0000
0000
0000
0110
0000
,  // measure 10
0000
0010
1000
0100
1000
0001
0000
1001
,  // measure 11
0000
0000
1000
0010
1000
0000
0100
0000
0010
0000
0001
0000
0000
0000
0100
0010
,  // measure 12
0100
0001
0010
0100
0000
0100
0010
0001
,  // measure 13
1000
0000
1000
0100
0000
0100
0000
0100
,  // measure 14
0000
0100
0010
0001
0000
0001
0000
0001
,  // measure 15
0100
0000
0100
0010
0000
0010
1000
0100
,  // measure 16
0010
0000
0010
0001
0000
0001
1000
0000
,  // measure 17
0001
0100
1000
0100
0000
0001
0000
1000
,  // measure 18
0000
0001
1000
0000
0010
0000
0100
0000
,  // measure 19
0001
0010
1000
0010
0000
0001
0000
1000
,  // measure 20
0000
0001
1000
0000
0100
0000
1100
0000
,  // measure 21
1000
0100
0001
0100
0000
1000
0000
0010
,  // measure 22
0000
0001
0010
1000
0000
0001
0000
1000
,  // measure 23
0001
0000
0001
0000
0010
0100
1000
0010
,  // measure 24
0000
0010
0100
0001
0000
0001
1000
0000
,  // measure 25
0001
0100
1000
0100
0000
0001
1000
0100
,  // measure 26
0000
1000
0001
0010
1000
0010
0001
1000
,  // measure 27
0010
0100
0000
0100
0000
0100
0000
0100
,  // measure 28
0001
0001
1000
1000
0010
0100
0000
0001
,  // measure 29
2001
0000
0000
0100
3100
0000
0010
0100
,  // measure 30
2000
0000
0000
0001
3001
1000
0100
0010
,  // measure 31
0002
0000
0000
1000
1003
0000
0001
0100
,  // measure 32
0020
0000
0000
0100
0130
0001
0010
0100
,  // measure 33
1100
1000
0001
0100
0000
0001
0100
1000
,  // measure 34
0100
0001
0000
0010
0100
1000
0001
0010
,  // measure 35
1000
0010
0001
1000
0000
0001
0100
1000
,  // measure 36
0100
0001
0000
0010
0100
1000
0010
0100
,  // measure 37
0102
0000
0000
1000
1003
0000
0001
1000
,  // measure 38
0200
0000
0000
1000
1300
0001
0100
0010
,  // measure 39
0200
0000
0000
0001
0301
0000
1000
0100
,  // measure 40
0020
0000
0000
0001
0031
1000
0010
0100
,  // measure 41
0001
0001
1000
0100
0000
1000
0001
0001
,  // measure 42
0100
0010
0000
1000
0001
0001
1000
0000
,  // measure 43
0001
0000
0101
0000
0000
0000
1010
0000
0000
0000
1001
0000
0001
0000
1000
0010
,  // measure 44
1000
0010
1000
0010
0100
0000
0001
1000
0001
1000
0002
0000
0000
0000
0000
0000
,  // measure 45
1003
0000
0000
0001
0100
0000
0010
0000
0100
0000
0010
0000
1000
0000
0001
0000
,  // measure 46
0100
0000
0000
0100
0010
0000
1000
0000
0100
0000
1000
0000
0001
0000
0010
0000
,  // measure 47
0100
0000
0000
0100
1000
0000
0001
0000
0100
0000
0001
0000
0100
0000
0010
0000
,  // measure 48
1000
0000
0100
0000
0010
0000
0000
0010
0001
0000
1000
0001
1000
0000
0001
0000
,  // measure 49
1000
0000
0100
0000
0010
0000
0000
0010
0100
0000
1000
0000
0001
0000
0100
0000
,  // measure 50
0001
0000
0100
0000
0010
0000
0000
0010
1000
0000
0100
0000
0010
0000
0100
0000
,  // measure 51
1000
0000
0010
0000
0100
0000
0000
0100
0001
0000
0010
0000
0100
0000
1000
0001
,  // measure 52
1000
0000
0001
0100
0001
0000
1000
0010
1000
0000
0100
0000
0010
0000
0001
0000
,  // measure 53
1001
0000
0000
1000
0001
0000
0100
0000
0001
0000
0100
0000
0010
0000
1000
0000
,  // measure 54
0100
0000
0000
0100
0010
0000
0100
0000
1000
0000
0100
0000
1000
0000
0001
0000
,  // measure 55
0100
0000
0000
0100
0001
0000
0010
0000
1000
0000
0010
0000
0001
0000
1000
0000
,  // measure 56
1001
0000
0000
0110
0000
0000
1001
0000
0000
1100
0000
0000
0101
0000
0001
0000
,  // measure 57
1000
0000
0100
0000
1000
0000
0000
1000
0001
0000
0100
0000
0010
0000
0100
0000
,  // measure 58
0001
0000
0010
0000
0100
0000
0000
0100
1000
0000
0010
0000
0100
0000
0010
0000
,  // measure 59
1000
1000
0001
0010
0000
0001
0001
1000
,  // measure 60
0200
0000
0000
0000
0000
0000
0000
0000
0000
0000
0000
0000
1300
0001
1000
0001
,  // measure 61
1000
0000
0100
0000
0010
0000
0100
0000
0010
0000
0001
0100
0000
0001
0100
0000
,  // measure 62
0001
0010
0100
1000
0000
0110
0000
0110
,  // measure 63
0101
0000
0001
0000
1000
0000
0001
0000
1000
0000
0100
0010
0000
0100
0010
0000
,  // measure 64
0001
1000
0010
0100
0000
1001
0000
1001
,  // measure 65
0001
0100
0001
0000
1000
0000
0001
0100
0001
0000
1000
0000
0100
0010
0100
0000
,  // measure 66
1000
0000
0100
0010
0100
0000
1000
0010
1000
0010
0100
0001
0100
0001
0100
0000
,  // measure 67
0001
0000
1000
0100
1000
0000
0001
0000
1000
0100
1000
0000
0001
0000
0100
0010
,  // measure 68
0100
0010
0100
0010
1000
0001
1000
0001
1000
0100
1000
0100
1000
0100
1000
0000
,  // measure 69
0001
0000
0100
0000
0010
0000
0100
0000
0001
0000
1000
0001
0000
0001
1000
0100
,  // measure 70
1000
0100
0010
0001
0010
0001
1000
0000
0000
0000
0001
0000
0100
0001
0100
0000
,  // measure 71
0001
0000
0010
0000
0100
0000
0010
0000
0001
0000
1000
0001
0000
0001
1000
0010
,  // measure 72
1000
0010
0100
0001
0100
0001
1000
0000
0000
0000
0100
0000
0010
0000
0001
0000
,  // measure 73
1000
0010
1000
0000
0001
0000
1000
0010
1000
0000
0001
0000
0010
0100
0010
0000
,  // measure 74
0001
0000
0010
0100
0010
0000
0001
0000
0100
0001
0100
0001
1000
0010
1000
0010
,  // measure 75
1000
0100
0001
0100
1000
0001
0010
0001
,  // measure 76
0100
0010
0100
0010
0100
0010
0100
0010
0100
0010
0100
0010
0100
0010
0100
0000
,  // measure 77
0001
0010
1000
0010
0000
0001
1000
0010
,  // measure 78
0000
1000
0001
0000
0000
0000
0000
0000
;
