#TITLE:Zirkfied;
#SUBTITLE:;
#ARTIST:iconoclasm;
#TITLETRANSLIT:;
#SUBTITLETRANSLIT:;
#ARTISTTRANSLIT:;
#CREDIT:DigiMindAxel;
#BANNER:Zirkfied.png;
#BACKGROUND:Zirkfied-bg.png;
#LYRICSPATH:;
#CDTITLE:beatmania IIDX.png;
#MUSIC:Zirkfied.mp3;
#METERTYPE:DDR X;
#OFFSET:-9.602;
#SAMPLESTART:21.011;
#SAMPLELENGTH:12.000;
#SELECTABLE:YES;
#BPMS:0.000=210.000,181.000=105.000,219.000=210.000;
#STOPS:36.000=0.857
,224.000=0.571
;
#BGCHANGES:;

//---------------dance-single - ----------------
#NOTES:
     dance-single:
     :
     Easy:
     6:
     0.290,0.309,0.168,0.206,0.000:
1001
0000
0000
1000
,
1001
0000
0000
0001
,
1001
0000
1000
0001
,
2000
0000
3001
0000
,
1001
0000
0000
1000
,
1001
0000
0000
1000
,
1001
0000
0001
1000
,
0002
0000
0203
0000
,
0320
0000
0000
0000
,
0030
1000
0000
0010
,
0000
1000
0000
0001
,
0000
0010
0000
0001
,
0000
0100
0000
0010
,
0000
1000
0000
0100
,
0000
0010
0000
0001
,
0000
1000
0000
1000
,
0000
0001
0000
0001
,
0000
1001
0000
1000
,
0000
0100
0000
1000
,
0000
0010
0100
0010
,
0000
1000
0001
1000
,
0000
0001
0000
0100
,
0000
0010
0000
0100
,
0000
0001
1000
0001
,
0000
0010
0001
0010
,
0000
1001
0000
0000
,
0000
0000
0000
0000
,
0000
1001
0000
0000
,
0000
0000
0000
0000
,
0000
0010
0000
0100
,
0000
0010
0000
0100
,
0000
0001
0000
1000
,
0000
0001
0000
1000
,
0000
0001
1000
0001
,
0000
1000
0001
1000
,
0000
0100
1000
0100
,
0000
0010
0010
0110
,
0000
0001
0001
0001
,
0000
1000
1000
1000
,
0000
0001
0001
0001
,
0000
1000
1000
1000
,
0000
0010
0010
0010
,
0000
0100
0100
0100
,
0000
0001
0001
0001
,
0000
0010
0010
0010
,
0000
0200
0000
2300
,
0000
3200
0000
0320
,
0000
0032
0000
2003
,
0000
3002
0000
2003
,
0000
3002
0000
2003
,
0000
3200
0000
0320
,
0000
0032
0000
0023
,
0000
0230
0000
2300
,
0000
3001
0000
1000
,
0000
0001
0000
1001
,
0000
1001
0000
0000
,
0000
0010
0100
0010
,
0100
0001
0100
0001
,
0100
0001
0000
0010
,
0000
0100
0000
1000
,
0000
0100
1000
0100
,
1000
0010
0100
0010
,
0100
0001
0000
0010
,
0000
0100
0000
1000
,
0000
0010
0100
0010
,
0100
0001
1000
0001
,
1000
0100
0000
0010
,
0000
0001
0000
1000
,
0000
0100
1000
0100
,
1000
0010
0100
0010
,
0100
0001
0000
0010
,
0000
0100
0000
1000
,
0000
1002
0000
0000
,
0000
2003
0000
0000
,
0000
3002
0000
2003
,
0000
3200
0000
0000
,
0300
0110
0000
0000
,
0000
1001
0000
0000
,
0000
0110
0000
0110
,
0000
0110
0000
1001
,
0000
1001
1000
1000
,
0001
0001
1000
1000
,
0001
0010
0100
1000
,
0100
0010
0001
1000
,
0001
1000
1000
0001
,
0001
1000
0100
0010
,
0001
0010
0100
1000
,
0010
0100
0001
0100
,
0010
1000
1000
1001
,
2002
0000
0000
0000
,
3003
0000
0000
0000
;

//---------------dance-single - ----------------
#NOTES:
     dance-single:
     :
     Medium:
     10:
     0.492,0.550,0.321,0.229,0.080:
1001
0000
0000
1100
,
1100
0000
0000
0011
,
0011
0001
1000
0100
,
0020
0000
0031
0011
,
1001
0000
0000
0101
,
0101
0000
0000
1010
,
1010
1000
0001
0010
,
0100
1000
0100
0010
,
0001
0001
0001
0001
,
1001
0000
1000
0000
0001
1000
0000
0001
,
1000
0000
0001
0000
0100
0001
0000
0100
,
0001
0010
0100
1000
,
1000
0001
0100
0010
,
0010
0000
1001
0000
1000
0001
0000
1000
,
0001
0000
1000
0000
0100
1000
0000
0100
,
1000
0001
1000
0100
,
0100
1000
0001
0100
,
0100
0000
0001
0100
0001
1000
0000
0001
,
1000
0100
0100
0010
,
0010
0000
0001
1000
0001
0000
0100
0000
,
0100
0000
0001
1000
0001
0000
0010
0000
,
0010
0000
0001
1000
0001
0010
0000
0001
,
0010
0000
0001
0000
1000
0010
0000
1000
,
0010
1000
1000
0001
,
0001
0000
0100
0001
1000
0000
0001
0000
,
1000
2002
0000
0000
,
0000
0000
0000
0000
,
3003
2200
0000
0000
,
0000
3300
0000
0000
,
0000
1000
0100
0010
,
0100
1000
0100
0010
,
0100
1000
0001
0100
,
0001
1000
0001
0100
,
0001
1000
0100
0010
,
0001
0010
0100
1000
,
0001
1000
0010
0100
,
0001
0110
0110
0110
,
0000
0000
0000
0001
0000
1000
0100
0000
0000
1000
0000
0000
,
1000
0000
0000
0001
0000
1000
0100
0000
0000
1000
0000
0000
,
1000
0000
0000
0001
0000
0100
0001
0000
0000
1000
0000
0000
,
1000
0000
0000
0001
0000
0100
0001
0000
0000
1000
0000
0000
,
1000
0000
0000
0001
0000
0100
0001
0000
0000
1000
0000
0010
,
1000
0000
0000
0001
0000
0010
0001
0000
0000
1000
0000
0100
,
1000
0000
0000
0001
0000
0100
0010
0000
0000
1000
0000
0000
,
1000
0000
0000
0001
0000
0010
0100
0000
0000
1000
0000
0000
,
1000
0002
0103
0002
,
1003
0002
0013
0002
,
1003
0020
0130
0002
,
1003
0000
0100
0010
0100
0010
0200
0000
,
0010
0000
1300
0001
1000
0001
2000
0000
,
0001
0000
3001
0010
0001
0010
0002
0000
,
1000
0000
1003
0010
1000
0010
2000
0000
,
0001
0000
3001
0100
0001
0100
0002
0000
,
1000
2003
0000
3200
,
0320
0032
2003
3001
,
0000
0000
0000
1001
0000
0000
0000
1001
0000
0000
0000
0000
,
2000
3000
0000
0000
0000
0000
0000
0000
0001
0000
0000
0000
0100
0000
0000
0000
0002
0000
0000
0000
0000
0000
0000
0000
0000
0000
0000
0000
0000
0000
0000
0000
,
1003
0000
0001
0010
0001
0000
1000
0100
,
1000
0001
0011
0001
,
0011
1000
1010
1000
,
1010
0000
0100
0010
0100
0010
0100
0010
,
0100
0000
0001
1000
0001
1000
0001
1000
,
0001
0000
0100
0001
0100
0000
0001
0000
,
1000
0200
1000
1300
,
0000
0000
0001
0010
0100
0000
0010
0000
,
0001
1000
0001
0010
0100
0000
0010
0000
,
0001
1000
1010
1000
,
1010
0001
0101
0001
,
0101
0000
0001
0100
0010
0000
0100
0000
,
0001
1000
0001
0100
0010
0000
1000
0000
,
0100
0010
0100
1100
,
0010
0110
0001
0101
,
1000
0001
0001
0001
,
0000
1000
1000
1000
,
0000
0001
0010
0100
,
1000
0020
0000
0100
,
0130
0110
0000
0000
,
0101
0101
0000
0000
,
1010
1010
1000
1001
,
0001
0110
0100
0110
,
0110
0000
0000
1001
0000
0000
1000
0000
0001
0100
0000
0000
,
0001
0000
0100
0001
0000
0000
1000
0000
0100
1000
0000
0000
,
0100
0000
1000
0100
0000
0000
0010
0000
0001
0010
0000
0000
,
0001
0000
0010
0001
0000
0000
1000
0000
0010
1000
0000
0000
,
0010
0000
1000
0010
0000
0000
2000
0000
0000
0001
0000
0000
,
3001
1000
0200
1000
,
1300
0001
0200
0001
,
0301
1000
0100
0010
,
0001
0000
0000
1000
0000
0001
1000
0000
0001
1000
0000
0000
,
2002
0000
0000
0000
,
3003
0000
0000
0000
;

//---------------dance-single - ----------------
#NOTES:
     dance-single:
     :
     Hard:
     13:
     0.678,0.688,0.466,0.344,0.348:
2002
0000
3003
0101
,
0202
0000
0303
1010
,
1010
0110
0110
1001
,
1001
0000
0000
0000
0000
0001
1000
0000
0000
1100
0000
0000
,
2002
0000
3003
0011
,
0022
0000
0033
1100
,
1100
1001
1001
0110
,
0110
0000
0000
0001
0000
0001
1000
0000
0000
1000
0000
0000
,
0010
0100
0010
0100
0010
0100
0010
0100
0010
0100
0010
0100
,
0010
0000
1000
0100
1000
0001
0000
0001
,
1000
0000
0100
0000
0010
0100
1000
0001
,
0100
0000
0001
1000
0100
0000
1100
0000
,
1100
0000
1000
0001
0100
0000
0101
0000
,
0101
0000
0001
0100
0001
1000
0000
1000
,
0100
0010
0001
0100
0001
1000
0000
1000
,
0001
0010
0100
0000
1100
0000
0010
0000
,
0011
0000
0001
1000
0020
0000
0100
0000
,
0130
0000
0001
1000
0100
1000
0000
1000
,
0001
0000
0010
0001
0100
0000
0100
0001
,
0010
0000
0001
1000
0100
0010
0100
0010
,
0100
0000
1000
0001
0010
0100
0010
0100
,
0010
0000
0001
1000
0010
1000
0000
1000
,
0100
0010
0001
1000
0010
1000
0000
1000
,
0001
0010
0100
0000
1100
0000
0010
0000
,
0011
0000
0001
1000
0200
0000
0010
0000
,
0310
1001
0100
0100
,
0100
0100
0100
0100
,
0100
0110
0010
0010
,
0010
0020
0000
0000
,
0030
0000
1000
0100
0010
0000
0100
1000
,
0100
0000
0010
0001
0010
0000
0001
0010
,
0100
0000
1000
0001
0100
0001
1000
0000
,
1001
0000
0001
1000
0100
1000
0001
0000
,
1001
0000
0001
0100
0001
0000
0100
0010
,
1000
0000
0010
0100
0001
0000
1000
0010
,
1000
0000
0000
0001
0000
0001
0010
0000
0010
0100
0000
0100
,
1000
0000
1000
0001
0000
0000
1001
0000
0000
1000
0001
1000
,
0002
0000
0000
0103
0000
0001
0010
0000
0000
0100
0000
1000
,
0010
0000
0000
1000
0000
0001
0010
0000
0000
0001
0000
1000
,
0100
0000
0000
1000
0000
0010
0100
0000
0010
0100
0000
0000
,
0001
0000
0000
1000
0000
0100
0010
0000
0100
0010
0000
0000
,
0001
0000
0000
1000
0010
1000
0001
0000
0000
0010
0001
0100
,
0010
0000
0000
1000
0001
0100
0001
0000
0000
0010
0100
1000
,
0010
0000
0000
0100
0001
1000
0100
0000
0000
1000
0001
0010
,
0100
0000
0000
1000
0010
0100
0001
0000
0000
0100
0010
1000
,
0001
1000
0001
2000
0000
0000
3100
0000
0000
0020
0000
0000
,
0031
2000
3010
0200
,
0302
0023
0130
2000
,
3001
1000
0001
0100
0010
0100
0002
1000
,
1003
0001
1000
0000
0100
0010
0002
0000
,
0003
0000
1001
0000
0010
0100
0002
0000
,
0003
0000
1001
0000
1000
0001
1000
0100
,
0010
0001
1000
0010
1000
0001
0010
0100
,
1000
0001
0200
0001
0301
0000
2000
0100
,
3200
0000
0000
0010
0000
0000
0320
0000
0000
0001
0000
0000
0032
0000
0000
0000
0000
0000
1003
0000
0000
0000
1100
0000
,
0000
1100
0000
0101
0000
0101
0000
1001
0000
0000
0000
0000
,
0002
0003
0000
0000
0000
0000
0000
0000
1000
0000
0000
0000
0001
0000
0000
0000
0200
0000
0000
0000
0000
0000
0000
0000
0001
0000
0000
0000
0000
0000
0000
0000
,
0301
1000
0100
0010
0100
1000
0001
0100
,
0001
0000
1000
0000
0100
1000
0000
0000
0100
0000
0000
0000
0010
0001
0000
0000
,
0010
0000
0000
0000
0001
1000
0000
0000
0001
0000
0000
0000
0100
0001
0000
0000
,
0100
0000
0001
0100
1000
0100
0001
1000
,
0010
1000
0001
0010
1000
0010
0001
1000
,
0100
1000
0001
0100
0010
0000
1000
0010
,
0100
0001
2000
0000
3100
0000
1000
0010
,
1000
0010
1000
0001
0020
0000
0100
0000
,
0130
1000
0010
0100
0010
1000
0001
0010
,
0100
0000
1000
0000
0001
0100
0000
0000
0001
0000
0000
0000
1000
0010
0000
0000
,
1000
0000
0000
0000
0100
0010
0000
0000
0100
0000
0000
0000
1000
0001
0000
0000
,
1000
0000
0001
1000
0020
0000
0130
0001
,
0010
0000
0100
0000
0010
0000
0001
0000
0100
0001
0000
0000
1000
0100
0000
0000
,
0010
0001
0000
0000
1001
0000
0000
0000
0100
0000
0000
0000
0011
0000
0000
0000
,
0100
1010
1010
0011
,
0011
1002
0100
0103
,
0001
2000
0100
3100
,
1000
0002
0203
0320
,
2030
3200
0000
0010
,
0310
0220
0000
0330
,
1100
2200
0000
3300
,
0011
0011
1001
1001
,
1010
0000
0000
1010
0000
0000
0110
0000
0000
0100
0010
0100
,
0010
0100
0010
0100
0000
0001
0100
0000
0001
1000
0000
0001
,
0100
0000
0001
1000
0000
0100
0010
0000
0100
0010
0000
0000
,
0001
0000
1000
0010
0000
1000
0001
0000
1000
0010
0000
1000
,
0001
0000
0010
0100
0000
0010
0100
0000
1000
0001
0000
1000
,
0001
0000
0000
1000
0000
0001
0100
0000
0000
0101
0000
0000
,
1010
0000
0000
1000
0001
0010
0001
0000
0000
0010
0100
1000
,
0001
0000
0000
1000
0000
0001
0010
0000
0000
0011
0000
0000
,
1100
0000
0000
1000
0010
0100
0001
0000
0000
0100
0010
1000
,
0100
1000
0100
1000
0001
1000
0001
1000
0001
1000
0000
0000
,
2002
0000
0000
0000
,
3003
0000
0000
0000
;

//---------------dance-single - ----------------
#NOTES:
     dance-single:
     :
     Challenge:
     16:
     0.851,0.791,0.329,0.260,0.764: // measure 1
1002
0100
0103
1100
,  // measure 2
2100
0001
3001
0011
,  // measure 3
0011
1100
1100
1001
,  // measure 4
0001
0010
0100
1000
0100
0010
0001
0000
0100
0010
0000
1000
,  // measure 5
0002
0010
0013
1010
,  // measure 6
2010
0001
3001
1010
,  // measure 7
1010
0101
0101
1001
,  // measure 8
1000
0100
0010
0001
0010
0100
1000
0000
0010
0100
0000
0001
,  // measure 9
1000
0100
1000
0100
0010
0001
0010
0001
0100
0010
0100
0010
,  // measure 10
0100
0000
0000
0000
0001
0000
1000
0000
0100
0000
1000
0001
1000
0000
0100
0000
,  // measure 11
0010
0000
0000
0000
0100
0000
1000
0000
0001
0000
0100
0001
0100
0000
0001
0000
,  // measure 12
1000
0000
0000
0000
0100
0000
0010
0000
0001
0000
1000
0010
1000
0000
0001
0100
,  // measure 13
0001
0000
0000
0000
0100
0000
0010
0000
1000
0000
0001
0010
0001
0000
1000
0100
,  // measure 14
1000
0000
0000
0000
0100
0000
0010
0000
0001
0000
1000
0010
1000
0000
0001
0000
,  // measure 15
0010
0000
0100
0000
1000
0000
0100
0000
0010
0000
0001
0100
0001
0000
0100
0000
,  // measure 16
0010
0000
1000
0000
0010
0000
0100
0001
0100
0000
0000
0000
0010
0000
1000
0100
,  // measure 17
1000
0000
0000
0000
0100
0000
0010
0000
0001
0000
1000
0001
2000
0000
0000
0000
,  // measure 18
3001
0000
0000
0000
1000
0000
0100
0000
1000
0000
0001
0000
0100
0000
0001
1000
,  // measure 19
0001
0000
0010
0000
0001
0000
1000
0000
0010
0000
1000
0000
0001
0000
1000
0010
,  // measure 20
1000
0000
0100
0000
0010
0000
0001
0000
0100
0000
1000
0000
0100
0000
0001
1000
,  // measure 21
0001
0000
0010
0000
0100
0000
1000
0000
0010
0000
0001
0000
0010
0000
1000
0001
,  // measure 22
1000
0000
0000
0000
1000
0000
0100
0000
0001
0000
0100
0000
1000
0000
0010
1000
,  // measure 23
0010
0000
0100
0000
0001
0000
0100
0000
1000
0000
0100
0000
0001
0000
1000
0100
,  // measure 24
1000
0000
0001
0000
1000
0000
0100
1000
0100
0000
0000
0000
0010
0000
0001
0010
,  // measure 25
0001
0000
0000
0000
1000
0000
0001
0100
0002
0000
0000
0000
1000
0000
0000
0000
,  // measure 26
1003
0000
0010
0100
0001
0100
0001
0100
,  // measure 27
0001
1000
0010
1000
0010
1000
0010
0100
,  // measure 28
0010
0000
0000
1000
0000
0000
0100
0000
1000
0000
0100
0000
1000
0000
0010
0000
0100
0000
0010
0000
0100
0000
0001
0000
,  // measure 29
0010
0000
0001
0000
0010
0000
0002
0000
0000
0000
0000
0000
0000
0000
0000
0000
0000
0000
1003
0000
0000
0100
0000
0000
,  // measure 30
0010
0001
1001
1000
0100
0000
1100
1000
,  // measure 31
0001
0000
1001
0001
0100
0000
0101
0001
,  // measure 32
1000
0000
1001
1000
0001
0010
0100
1000
,  // measure 33
0001
0000
1001
1000
0010
0100
0001
1000
,  // measure 34
0001
0000
1010
1000
0001
0010
0100
1000
,  // measure 35
1100
0000
0110
0100
0001
0100
0010
1000
,  // measure 36
1010
0000
0000
1001
0000
1000
0001
0000
0001
0100
0000
0100
,  // measure 37
1000
0000
1000
0100
0000
0000
1100
0000
0000
1000
0100
0010
,  // measure 38
0001
0100
0001
1000
0000
1000
0100
0000
0100
0010
0000
0010
,  // measure 39
0100
0000
0100
1000
0000
1000
0001
0000
0001
0100
0000
0100
,  // measure 40
0010
0000
0010
0100
0001
0100
0001
0000
1000
0001
0010
0001
,  // measure 41
0010
0000
0001
1000
0100
1000
0100
0000
1000
0001
0010
0100
,  // measure 42
1000
0001
1000
0001
0010
0100
1000
0000
0000
1000
0001
0010
,  // measure 43
0100
0000
0000
0100
1000
0010
0100
0000
0000
0100
0001
0100
,  // measure 44
0010
0000
0000
0010
1000
0100
0010
0000
0000
0010
0001
1000
,  // measure 45
0010
0000
0000
0010
1000
0100
0010
0000
0001
0010
0001
1000
,  // measure 46
0100
0010
0001
2000
0000
0000
3100
0000
0000
0020
0000
0000
,  // measure 47
0130
2000
3010
0200
,  // measure 48
0302
0023
0130
2000
,  // measure 49
3001
1000
0100
0001
0100
1000
0002
1000
,  // measure 50
1003
0001
0100
1000
0100
0001
0020
0100
,  // measure 51
0130
0000
1000
0010
0001
0010
2000
0001
,  // measure 52
3001
0000
1000
0001
0010
1000
0010
0001
,  // measure 53
1000
0100
0001
0100
1000
0001
0010
0100
,  // measure 54
0010
0001
2000
0100
3100
0000
0020
0001
,  // measure 55
0032
0000
0000
0100
0000
0000
0203
0000
0000
0010
0000
0000
0320
0000
0000
1000
0000
0000
1030
0000
0000
0000
1010
0000
,  // measure 56
0000
0110
0000
0101
0000
1001
0000
1001
0000
0000
0000
0000
,  // measure 57
2000
3000
0000
0000
0000
0000
0000
0000
0001
0000
0100
0000
0001
0000
0100
0000
0010
0000
0000
0000
0000
0000
0000
0000
1000
0000
0000
0000
0100
0000
0000
0000
,  // measure 58
0001
0000
0100
0000
1000
0001
1000
0000
0001
1000
0001
0000
0010
0001
0010
0000
,  // measure 59
0100
1000
0100
0000
1000
0010
0100
0000
0010
0000
0000
0000
1000
0100
0010
0000
,  // measure 60
0100
0000
0000
0000
1000
0001
0100
0000
0001
0000
0000
0000
0010
0100
1000
0000
,  // measure 61
0100
0000
0000
0000
1000
0001
1000
0001
1000
0000
0100
0000
0010
0000
0100
0000
,  // measure 62
1000
0000
0010
0000
1000
0001
1000
0001
1000
0000
0010
0000
0100
0000
0010
0000
,  // measure 63
1000
0000
0100
0000
0010
0001
0010
0001
0100
0000
0000
0000
0001
0000
0100
0000
,  // measure 64
1000
0100
0002
1000
1003
0000
0001
0001
,  // measure 65
0010
0000
0100
0000
1000
0001
0100
0001
0100
0000
0010
0000
1000
0000
0100
0000
,  // measure 66
0001
0000
0100
0000
1000
0001
1000
0000
0001
1000
0001
0000
0100
0001
0100
0000
,  // measure 67
0010
1000
0010
0000
1000
0100
0010
0000
0100
0000
0000
0000
1000
0010
0100
0000
,  // measure 68
0010
0000
0000
0000
1000
0001
0010
0000
0001
0000
0000
0000
1000
0001
0100
0000
,  // measure 69
0001
0000
0000
0000
1000
0001
1000
0001
0010
0000
0000
0000
0100
0000
1000
0000
,  // measure 70
0010
0000
0100
0000
0010
1000
0010
1000
0001
0000
1000
0001
1000
0000
0001
0010
,  // measure 71
0001
0010
0001
0010
0001
0010
0100
0000
1000
0000
0000
0000
0100
1000
0010
0000
,  // measure 72
0100
0000
0000
0000
0001
0100
0010
1000
0100
0000
1000
0100
1000
0000
0001
1000
,  // measure 73
0001
0010
0210
0000
0010
0000
0310
0000
,  // measure 74
1000
0002
0100
0103
,  // measure 75
0001
2000
3200
0320
,  // measure 76
0032
0000
0000
0013
0100
0010
0100
0010
0100
1000
0000
0000
,  // measure 77
1100
1002
0100
0103
,  // measure 78
0101
2100
0100
3100
,  // measure 79
1100
1100
0110
0110
,  // measure 80
0011
0000
0000
0010
0001
0100
0010
1000
0100
1000
0001
1000
,  // measure 81
0001
1000
0001
1000
0000
1000
0010
0100
0001
0100
0000
0100
,  // measure 82
0001
0000
0001
1000
0000
1000
0100
0000
0100
0010
0000
0010
,  // measure 83
0001
0000
0001
0100
0000
0100
1000
0000
1000
0100
0000
0100
,  // measure 84
0001
0000
0001
1000
0000
1000
0010
0000
0010
0100
0001
0010
,  // measure 85
0100
1000
0100
0010
0000
0010
0001
0000
0001
1000
0000
1000
,  // measure 86
0010
0000
0010
0100
0001
0010
0100
0000
0100
1000
0010
0100
,  // measure 87
0001
0000
0001
1000
0100
0010
0100
1000
0010
0100
0010
1000
,  // measure 88
0010
0000
0100
0001
0010
0100
0010
0001
0100
0010
0100
0001
,  // measure 89
0010
0100
1000
0010
1000
0010
0100
0001
0100
0001
0000
0000
,  // measure 90
2002
0000
0000
0000
,  // measure 91
3003
0000
0000
0000
;

//---------------dance-single - ----------------
#NOTES:
     dance-single:
     :
     Beginner:
     4:
     0.148,0.204,0.122,0.000,0.000:
1001
0000
0000
0000
,
1000
0000
0000
0000
,
0001
0000
1000
0000
,
0100
0000
0000
0000
,
1001
0000
0000
0000
,
0001
0000
0000
0000
,
1000
0000
0001
0000
,
0010
0000
0001
0000
,
0010
0000
0000
0000
,
0000
0001
0000
0000
,
0000
0000
0000
0000
,
0000
0010
0000
0000
,
0000
0000
0000
0000
,
0000
0100
0000
0000
,
0000
0000
0000
0000
,
0000
1000
0000
0000
,
0000
0000
0000
0000
,
0000
0001
0000
0000
,
0000
1000
0000
0000
,
0000
0001
0000
0000
,
0000
1000
0000
0000
,
0000
0100
0000
0000
,
0000
1000
0000
0000
,
0000
0100
0000
0000
,
0000
0010
0000
0000
,
0000
0001
0000
0000
,
0000
0000
0000
0000
,
0000
1001
0000
0000
,
0000
0000
0000
0000
,
0000
0010
0000
0100
,
0000
0010
0000
0100
,
0000
0001
0000
1000
,
0000
0001
0000
1000
,
0000
0100
0000
0100
,
0000
0010
0000
0010
,
0000
0001
0000
0001
,
0000
1001
0000
0000
,
0000
1000
0000
0100
,
0000
0010
0000
0001
,
0000
0010
0000
0100
,
0000
1000
0000
0001
,
0000
1000
0000
0010
,
0000
0100
0000
0001
,
0000
0100
0000
0010
,
0000
1000
0000
0001
,
0000
1001
0000
0000
,
0000
0000
0000
0000
,
0000
0000
0000
0000
,
0000
0000
0000
0000
,
0000
1000
0000
0000
,
0000
0100
0000
0000
,
0000
0010
0000
0000
,
0000
0001
0000
0000
,
0000
1000
0000
0000
,
0000
0000
0000
1001
,
0000
0000
0000
0000
,
0000
0001
0000
0010
,
0000
0001
0000
0010
,
0000
1001
0000
0001
,
0000
1001
0000
1000
,
0000
0100
0000
1000
,
0000
0010
0000
0100
,
0000
0001
0000
0001
,
0000
1001
0000
0000
,
0000
1000
0000
0010
,
0000
1000
0000
0010
,
0000
1001
0000
1000
,
0000
1001
0000
0001
,
0000
0010
0000
0001
,
0000
0100
0000
0010
,
0000
1000
0000
1000
,
0000
1001
0000
0001
,
0000
1001
0000
0000
,
0000
0000
0000
0000
,
0000
0000
0000
0000
,
0000
0000
0000
0000
,
0000
0010
0000
0000
,
0000
0110
0000
0000
,
0000
0110
0000
0100
,
0000
0010
0000
0100
,
0000
0001
0000
0001
,
0000
0010
0000
0010
,
0000
0100
0000
0100
,
0000
1000
0000
1000
,
0000
0100
0000
0010
,
0000
0001
0000
1000
,
0000
0010
0000
0100
,
0000
0001
0000
0100
,
0000
0010
0000
0000
,
0110
0000
0000
0000
;
