#TITLE:おおきなこえで;
#SUBTITLE:;
#ARTIST:猫叉Master feat. Sana;
#TITLETRANSLIT:OOKINA KOE DE;
#SUBTITLETRANSLIT:;
#ARTISTTRANSLIT:Nekomata Master feat. Sana;
#CREDIT:DigiMindAxel;
#BANNER:OOKINA KOE DE.png;
#BACKGROUND:OOKINA KOE DE-bg.png;
#LYRICSPATH:OOKINA KOE DE.lrc;
#CDTITLE:beatmania IIDX.png;
#MUSIC:OOKINA KOE DE.mp3;
#METERTYPE:DDR X;
#OFFSET:-10.170;
#SAMPLESTART:72.032;
#SAMPLELENGTH:12.000;
#SELECTABLE:YES;
#BPMS:0.000=100.000;
#STOPS:;
#BGCHANGES:;

//---------------dance-single - ----------------
#NOTES:
     dance-single:
     :
     Easy:
     3:
     0.161,0.185,0.016,0.257,0.000:
1000
0001
2000
0000
,
3020
0000
0000
0030
,
0100
0001
2000
0000
,
3000
0000
0000
0000
,
0001
1000
0002
0000
,
0203
0000
0000
0300
,
0010
1000
0002
0000
,
0003
0000
1000
0100
,
0010
0100
0000
0100
,
0010
0100
0000
0100
,
0010
0100
0000
1000
,
0001
1000
0000
1000
,
0001
0100
0000
0001
,
0100
0001
0000
1000
,
0100
1000
0000
0001
,
0100
0001
2000
0000
,
3001
0001
1000
0000
,
0020
0000
0000
0030
,
1000
1000
0001
0000
,
0200
0000
0000
0300
,
0001
0001
1000
0000
,
0020
0000
0000
1030
,
0001
0100
0001
1000
,
0200
0000
0020
0000
,
0330
0000
0000
0000
,
0000
0000
0000
0000
,
1001
0001
2000
0010
,
3020
0000
0000
0030
,
2000
0001
3001
0010
,
0200
0000
0300
0000
,
0002
1000
1003
0010
,
0200
0000
0310
0000
,
0002
0000
2003
0000
,
3001
0100
0001
0100
,
1001
1000
0002
0100
,
0203
0000
0300
0000
,
0002
1000
2003
0010
,
3020
0000
0000
0030
,
2000
0001
3002
0100
,
0203
0000
0301
0000
,
0002
0000
2003
0000
,
3010
0100
0010
0100
,
0020
0000
0000
0000
,
0100
0000
0000
0000
,
0230
0000
0000
0000
,
0000
0000
0000
0000
,
0300
0000
0000
0000
;

//---------------dance-single - ----------------
#NOTES:
     dance-single:
     :
     Medium:
     6:
     0.270,0.314,0.137,0.273,0.012:
1000
0100
0002
0100
,
0103
1000
0001
1000
,
0001
0100
2000
0100
,
3100
0001
1000
0001
,
2000
3200
0302
0000
,
0103
0000
1000
0010
0100
0010
0100
0000
,
0002
0000
0203
0000
2300
0000
3100
0001
,
1000
0000
0100
0000
0010
0000
0002
0000
0000
0000
0000
1000
0000
1003
0000
0000
,
1001
1000
0001
0010
,
0100
0010
0001
1000
,
0100
0010
0100
1000
,
0100
0001
0100
1000
,
0110
0001
0010
0100
,
0010
0001
0100
1000
,
0100
0001
0010
0100
,
1000
0001
1000
0001
,
1000
0010
0100
0010
1000
0000
0001
0000
,
0010
0100
0010
0001
,
1000
0010
0100
0010
1000
0000
0100
0000
,
0010
0000
0001
0000
0010
0000
0100
1000
,
0001
0010
0001
0010
0100
0000
1000
0000
,
0100
0001
0100
0010
,
0002
1003
0020
0130
,
0002
0000
0203
0000
,
0302
0000
2003
0000
,
3200
0000
0000
0000
0000
0000
0000
2300
0000
0000
0000
0000
3000
0000
0000
0000
,
1001
0000
0101
0000
0101
0000
0100
0001
,
1000
2000
0000
0000
3001
0000
0000
0000
,
1001
0000
1100
0000
1100
0000
0100
1000
,
0001
0002
0000
0000
1003
0000
0000
0000
,
2001
0000
0100
0000
3001
0000
0100
0001
,
1000
2000
0000
0001
3001
0000
1000
0000
,
0002
0000
0000
0100
0203
0000
0000
0000
,
0301
0101
1000
1100
,
1001
0000
0011
0000
0011
0000
0010
0001
,
1000
2000
0000
0000
3001
0000
0100
0000
,
1001
0000
1010
0000
1010
0000
0010
1000
,
0001
0002
0000
0000
1003
0000
0001
0000
,
0200
0000
0302
0000
2003
0000
3100
0010
,
0001
2000
0000
0001
3001
0000
0200
0000
,
0302
0000
0000
1000
2003
0000
0000
0000
,
3001
0100
1000
0100
,
0001
0010
0200
0000
,
0310
0000
0000
0000
,
0001
0100
0020
0000
,
0000
0000
0000
0000
,
0030
0000
0000
0000
;

//---------------dance-single - ----------------
#NOTES:
     dance-single:
     :
     Hard:
     9:
     0.415,0.406,0.121,0.249,0.382: // measure 1
0001
0000
0000
0001
0100
0000
0000
0000
0010
0000
0000
0010
1000
0000
0000
0000
,  // measure 2
0000
0001
0000
1000
0000
0010
0000
0100
0000
0000
0001
0000
0100
0000
0010
0000
,  // measure 3
1000
0000
0000
1000
0100
0000
0000
0000
0010
0000
0000
0010
0001
0000
0000
0000
,  // measure 4
0000
0010
0000
0100
0000
1000
0000
0001
0000
0000
0000
1000
0001
0000
0011
0000
,  // measure 5
1000
0000
0000
1000
0100
0000
0000
0100
0001
0000
0000
0001
1000
0000
0000
0000
,  // measure 6
0000
0100
0000
0010
0000
0001
0000
1000
0000
0000
1000
0000
0010
0000
0100
0000
,  // measure 7
0001
0000
0000
0001
0100
0000
0000
0100
1000
0000
0000
1000
0001
0000
0010
0000
,  // measure 8
0100
0000
1000
0000
0100
0000
0010
0000
0001
0000
1000
0010
0000
0010
0000
0000
,  // measure 9
2001
0000
3010
0000
1000
0010
1000
1000
,  // measure 10
0002
0000
1003
0000
0001
0010
0001
0001
,  // measure 11
2000
0000
3001
0000
1000
0100
1000
1000
,  // measure 12
0002
0000
0000
0000
1003
0000
0000
0000
1000
0000
0010
1000
0000
0000
1100
0000
,  // measure 13
0001
0010
0100
0000
1000
0100
1000
1000
,  // measure 14
0001
0010
0100
0000
1000
0001
0100
0100
,  // measure 15
0001
0010
0100
0000
1000
0010
1000
1000
,  // measure 16
0100
0000
0010
0000
0001
0000
0000
0000
1000
0001
0010
0001
0000
0001
1000
0000
,  // measure 17
1001
0000
1000
0010
0100
0001
0000
0001
0000
0000
0000
1000
0001
0000
1000
0000
,  // measure 18
0000
0100
0000
1000
0000
0001
0000
0100
0000
0000
0000
0010
1000
0000
0001
0000
,  // measure 19
1001
0000
0001
0010
0100
1000
0000
1000
0000
0000
0000
0001
1000
0000
0001
0000
,  // measure 20
1000
0010
0000
1000
0010
1000
0000
0001
0000
0000
0000
1000
0100
0010
0001
0010
,  // measure 21
0100
0000
1000
0010
0100
0001
0000
0001
0000
0000
0000
1000
0001
0000
1000
0000
,  // measure 22
0000
0100
0000
1000
0000
0001
0000
0100
0000
0000
0000
0001
1000
0000
0100
0000
,  // measure 23
0002
0000
0103
0000
1000
0010
0001
0010
,  // measure 24
2000
0000
0000
0000
3001
0000
0000
0000
1000
0000
0001
0100
0000
0000
0101
0000
,  // measure 25
0002
0023
0230
0000
,  // measure 26
2300
0000
0000
0000
0000
0000
0000
0002
0000
0000
0000
0000
3003
0000
0000
0000
,  // measure 27
1001
0000
0000
0001
0100
0000
0000
0100
1000
0000
0000
1000
0001
0000
0100
0000
,  // measure 28
0001
0010
0200
0000
1000
0000
0000
0000
1300
0000
0100
0000
0010
0000
0001
0000
,  // measure 29
1000
0000
0000
1000
0100
0000
0000
0100
0001
0000
0000
0001
1000
0000
0010
0000
,  // measure 30
1000
0100
0020
0000
0001
0000
0000
0000
0031
0100
0010
1000
0000
0000
1010
0000
,  // measure 31
1001
0000
0000
1000
0010
0000
0000
0010
0001
0000
0000
0001
0100
0000
0010
0000
,  // measure 32
1000
0100
0020
0000
0000
0000
0031
0100
0020
0000
0000
0000
2030
0000
0000
0000
,  // measure 33
3002
0000
0000
0000
0000
0000
1003
0100
0020
0000
0000
0000
0100
0000
0000
0000
,  // measure 34
0130
0000
1000
0000
0010
0000
0000
0000
0100
0000
0001
1000
0000
0000
1100
0000
,  // measure 35
1001
0000
0000
1000
0100
0000
0000
0100
0001
0000
0000
0001
0010
0000
0100
0000
,  // measure 36
1000
0010
0200
0000
0001
0000
0000
0301
1000
0000
0100
0000
1000
0000
0001
0000
,  // measure 37
1001
0000
0000
0001
0100
0000
0000
0100
1000
0000
0000
1000
0010
0000
0100
0000
,  // measure 38
0001
0100
0020
0000
1000
0000
0000
0000
1030
0100
0010
0001
0000
0000
0011
0000
,  // measure 39
1001
0000
0000
0001
0100
0000
0000
0100
1000
0000
0000
1000
0010
0000
0100
0000
,  // measure 40
0001
0010
0200
0000
0000
0000
1300
0010
0200
0000
0000
0000
0302
0000
0000
0000
,  // measure 41
2003
0000
0000
0000
0000
0000
3001
0010
0200
0000
0000
0000
0010
0000
0000
0000
,  // measure 42
0310
0000
1000
0000
0100
0000
0000
0000
0010
0000
0001
0100
0000
0000
0101
0000
,  // measure 43
2000
3200
0302
0000
,  // measure 44
0103
1000
0001
1000
,  // measure 45
0002
0203
2300
0000
,  // measure 46
3100
0000
0001
0000
1000
0000
0001
1000
;

//---------------dance-single - ----------------
#NOTES:
     dance-single:
     :
     Beginner:
     1:
     0.053,0.071,0.032,0.000,0.000:
1000
0000
0000
0000
,
0001
0000
0000
0000
,
1000
0000
0000
0000
,
0001
0000
0000
0000
,
1000
0000
0000
0000
,
1000
0000
0000
0000
,
0001
0000
0000
0000
,
0001
0000
0000
0000
,
1001
0000
0000
0000
,
0000
0010
0000
0000
,
0000
0010
0000
0000
,
0000
0010
0000
0000
,
0000
0100
0000
0000
,
0000
0100
0000
0000
,
0000
0100
0000
0000
,
0000
0100
0000
0000
,
1001
0000
0000
0000
,
0010
0000
0000
0000
,
0010
0000
0000
0000
,
0000
0000
0000
0000
,
1001
0000
0000
0000
,
0100
0000
0000
0000
,
0100
0000
0000
0000
,
0010
0000
0000
0000
,
0100
0000
0000
0000
,
0000
0000
0000
0000
,
0001
0000
0000
0000
,
1000
0000
0000
0000
,
0001
0000
0000
0000
,
1000
0000
0000
0000
,
0001
0000
0000
0000
,
0100
0000
0000
0000
,
0010
0000
0000
0000
,
1000
0000
0000
0000
,
1000
0000
0000
0000
,
0100
0000
0000
0000
,
0010
0000
0000
0000
,
0001
0000
0000
0000
,
0010
0000
0000
0000
,
0100
0000
0000
0000
,
1000
0000
0000
0000
,
0001
0000
0000
0000
,
1001
0000
0000
0000
,
0000
0000
0000
0000
,
1000
0000
0000
0000
;
