#TITLE:明鏡止水;
#SUBTITLE:- Stop The Fire Mix;
#ARTIST:Sota Fujimori feat. Mutsuhiko Izumi;
#TITLETRANSLIT:MEIKYOUSHISUI;
#SUBTITLETRANSLIT:;
#ARTISTTRANSLIT:;
#CREDIT:DigiMindAxel;
#BANNER:MEIKYOUSHISUI - Stop The Fire Mix.png;
#BACKGROUND:MEIKYOUSHISUI - Stop The Fire Mix-bg.png;
#LYRICSPATH:;
#CDTITLE:GuitarFreaksXG & DrumManiaXG.png;
#MUSIC:MEIKYOUSHISUI - Stop The Fire Mix.mp3;
#METERTYPE:DDR X;
#OFFSET:-7.075;
#SAMPLESTART:15.279;
#SAMPLELENGTH:12.000;
#SELECTABLE:YES;
#BPMS:0.000=145.000;
#STOPS:;
#BGCHANGES:;

//---------------dance-single - ----------------
#NOTES:
     dance-single:
     :
     Easy:
     5:
     0.235,0.264,0.128,0.088,0.000:
0001
1000
0001
0000
,
1000
0100
2000
0000
,
3010
0100
0010
0010
,
0220
0000
0000
0000
,
0330
0000
0000
0000
,
0001
0010
0100
1000
,
0100
0010
0001
1000
,
0001
0000
1000
0000
,
0100
0000
1000
0001
,
1000
0100
0010
0001
,
0010
0100
1000
0010
,
0100
0000
0010
0000
,
0100
0000
0110
0000
,
0010
0100
0010
0000
,
1000
0000
0100
0000
,
1000
0001
1000
0000
,
0001
0000
0010
0000
,
0001
1000
0001
0000
,
0100
0000
0010
0000
,
0100
0010
0100
0000
,
0001
0000
0001
0000
,
2002
0000
0000
0000
,
0000
0000
3003
0000
,
1000
0100
0010
0001
,
0010
0100
1000
0010
,
0100
0000
0010
0000
,
0100
0000
0000
0000
,
0001
0010
0100
1000
,
0100
0010
0001
0100
,
0010
0000
0100
0000
,
0110
0000
0000
0000
,
0001
0100
0010
0000
,
0100
0100
0001
0001
,
1000
0100
0010
0000
,
0100
0100
1000
1000
,
0010
0100
0001
0000
,
1000
1000
0001
0001
,
0010
0001
0100
0000
,
0010
0010
0010
0010
,
0220
0000
0000
0330
,
0220
0000
0330
0000
,
1001
0000
1000
0001
,
1000
0001
0100
0001
,
1000
0000
0100
0000
,
0010
0000
0001
0000
,
1001
0000
0010
0000
,
0100
0010
0100
0010
,
0110
0000
0010
0000
,
1000
0001
1000
0001
,
1001
0000
0000
0000
,
0010
0100
0001
0010
,
0100
1000
0100
0010
,
0001
0000
1000
0000
,
0001
0000
1000
0000
,
0010
0100
0001
0010
,
0100
1000
0100
0010
,
0001
0000
1000
0000
,
0100
0000
1000
0000
,
0110
0000
0010
0100
,
0010
0100
0010
0000
,
0110
0000
0100
0010
,
0100
0010
0100
0000
,
1001
0000
1000
0001
,
1001
0000
0001
1000
,
1001
0000
0010
0100
,
0220
0000
0000
0000
,
0330
0000
0000
0000
;

//---------------dance-single - ----------------
#NOTES:
     dance-single:
     :
     Medium:
     8:
     0.417,0.449,0.184,0.432,0.028:
1000
0000
0010
0100
0010
0010
0000
0000
,
1000
0000
0001
0000
0100
0010
0100
0000
,
0001
0000
0001
0100
0010
0010
0000
0000
,
0110
1000
0001
1000
,
0220
0000
0000
0330
,
0020
0230
0302
0023
,
0230
2300
3200
0320
,
0032
2003
3200
2300
,
3020
0000
0000
0000
0130
0001
1000
0000
,
0200
0320
0032
2003
,
3002
0203
0320
2030
,
3002
0000
1003
0010
,
0200
0000
0000
0000
0310
0100
0001
0000
,
1000
0100
1000
0100
0010
0000
0000
0000
,
0001
0100
0010
1000
,
0001
0010
0001
0010
0100
0000
0000
0000
,
1000
0010
0100
0001
,
1000
0010
1000
0010
0100
0000
0000
0000
,
0001
0010
0100
1000
,
0001
0100
0001
0100
0010
0000
0000
0000
,
1001
0100
0010
0100
,
2002
0000
0000
0000
,
0000
0000
3003
0000
0100
0010
0100
0001
,
2001
3200
0320
0032
,
2003
3020
2030
3002
,
0023
0000
0230
0000
1300
0001
0100
0000
,
0010
0000
0110
0000
0100
0100
0100
0000
,
0002
0203
0320
2030
,
3002
0023
0032
2003
,
3020
0000
0000
0000
0130
0001
1000
0000
,
2002
0000
0000
3003
,
0001
0010
0100
1000
0010
0000
0100
0000
,
0010
0000
1000
0000
0100
1000
0100
0000
,
1000
0010
0100
0001
1000
0000
0001
0000
,
0010
0001
0010
0000
0001
0000
1000
0000
,
0100
1000
0010
0100
0001
0000
1000
0000
,
0001
1000
0001
0000
0010
0000
0100
0000
,
1000
0010
0100
0001
0100
0000
0001
0000
,
1001
1001
1001
0110
,
0220
0000
0000
0330
,
1001
0000
0000
0000
0000
0000
0000
1001
0000
0000
0000
0000
0000
0000
0000
0000
,
1000
0100
1000
0000
0010
0000
0100
0000
,
0001
1000
0001
0000
1000
0001
1000
0000
,
0001
0000
0010
0000
0100
1000
0100
0000
,
0010
0001
0010
0000
0100
0000
0110
0000
,
0001
0000
1000
0100
0010
0001
0000
0000
,
0000
1000
1000
0000
0010
0000
0100
0000
,
0001
0000
1000
0100
0010
0001
0000
0000
,
0000
1000
1000
1000
0010
0000
0100
0000
,
2002
0000
0000
3003
,
0100
0010
0100
0000
0010
0100
0010
0000
,
0100
0010
0100
0000
0010
0100
0010
0000
,
1000
0100
0010
0001
,
1000
0010
0100
0001
,
1000
0001
1000
0000
0001
1000
0001
0000
,
1000
0001
1000
0000
0001
1000
0001
0000
,
0010
0100
1000
0010
,
0100
0000
0001
0000
1000
0100
1000
0000
,
1001
0000
0000
1000
0000
0000
0000
0000
0001
0000
0010
0000
0100
0000
0000
0000
,
0010
0100
1000
0000
0010
0000
0010
0000
,
1001
0000
0000
0001
0000
0000
0000
0000
1000
0000
0100
0000
0010
0000
0000
0000
,
0100
0010
0001
0000
0100
0000
0100
0000
,
1001
0000
0000
1000
0000
0000
0000
0000
0001
0000
1000
0000
0010
0000
0000
0000
,
1001
0000
0000
0001
0000
0000
0000
0000
1000
0000
0001
0000
0100
0000
0000
0000
,
1001
0000
0000
1000
0000
0000
0000
0000
0001
0000
0010
0000
0100
0000
0000
0000
,
1001
0000
0000
2002
0000
0000
0000
0000
0000
0000
0000
0000
0000
0000
0000
0000
,
3003
0000
0000
0000
;

//---------------dance-single - ----------------
#NOTES:
     dance-single:
     :
     Beginner:
     3:
     0.105,0.156,0.104,0.000,0.000:
0001
0000
0000
0000
,
1000
0000
0000
0000
,
0001
0000
0000
0000
,
0110
0000
0000
0000
,
0100
0000
0000
0000
,
0010
0000
0100
0000
,
0010
0000
0000
0000
,
1000
0000
0001
0000
,
1000
0000
0000
0000
,
0100
0000
1000
0000
,
0100
0000
1000
0000
,
0001
0000
0000
0000
,
1001
0000
0000
0000
,
1001
0000
0000
0000
,
0010
0000
0100
0000
,
0010
0000
0000
0000
,
1000
0000
0001
0000
,
1000
0000
0000
0000
,
0001
0000
0010
0000
,
0001
0000
0000
0000
,
1000
0000
0000
0000
,
1001
0000
0000
0000
,
0000
0000
0000
0000
,
0010
0000
0000
0000
,
0100
0000
0000
0000
,
0001
0000
0000
0000
,
1000
0000
0000
0000
,
0001
0000
0000
0000
,
1000
0000
0000
0000
,
0100
0000
0000
0000
,
0110
0000
0000
0000
,
0001
0000
0000
0000
,
1000
0000
0000
0000
,
0001
0000
0000
0000
,
0010
0000
0000
0000
,
0100
0000
0000
0000
,
1000
0000
0000
0000
,
0001
0000
0000
0000
,
0100
0000
0000
0000
,
0110
0000
0000
0000
,
0000
0000
0000
0000
,
0010
0000
0100
0000
,
0001
0000
1000
0000
,
0001
0000
0010
0000
,
0001
0000
1000
0000
,
0010
0000
0000
0000
,
0010
0000
0000
0000
,
0100
0000
0000
0000
,
0100
0000
0000
0000
,
0110
0000
0000
0000
,
0001
0000
1000
0000
,
0001
0000
0000
0000
,
1000
0000
0001
0000
,
1000
0000
0000
0000
,
0100
0000
0010
0000
,
0100
0000
0000
0000
,
0010
0000
0100
0000
,
0010
0000
0000
0000
,
1001
0000
0000
0000
,
0010
0000
0000
0000
,
1001
0000
0000
0000
,
0100
0000
0000
0000
,
1001
0000
0000
0000
,
0110
0000
0000
0000
,
1001
0000
0000
0000
,
1001
0000
0000
0000
;

//---------------dance-single - ----------------
#NOTES:
     dance-single:
     :
     Hard:
     13:
     0.648,0.792,0.328,0.192,0.636: // measure 1
0002
0000
0000
0103
0000
0000
0001
0000
1000
0000
1000
0000
0001
0000
0000
0000
,  // measure 2
2000
0000
0000
3100
0000
0000
0010
0000
0001
1000
0010
1000
0001
0000
0000
0000
,  // measure 3
1000
0000
0000
1001
0000
0000
0001
0000
0100
0000
0110
0000
0000
0000
0000
0000
,  // measure 4
0210
0000
0000
0000
0001
0000
0000
0001
0000
0000
0301
0000
1001
0000
0000
0000
,  // measure 5
2002
0000
0000
3003
,  // measure 6
1001
0000
0000
0000
1000
0000
0000
0010
1000
0000
0001
0000
0010
0000
0100
0000
,  // measure 7
0010
0000
0000
0000
0001
0000
0000
0100
0001
0000
0010
0000
0100
0000
1000
0000
,  // measure 8
0010
0000
0000
0000
0100
0000
0000
0001
1000
0000
0100
0000
0010
0000
0001
0000
,  // measure 9
0100
0000
0000
0010
0100
0000
0000
0100
0000
0000
0100
0000
0010
0100
0000
0000
,  // measure 10
0001
0000
0000
0000
1000
0000
0000
0100
1000
0000
0010
0000
0100
0000
0001
0000
,  // measure 11
1000
0000
0001
0000
0001
0000
0000
0100
0010
0000
0010
0000
0000
0010
0000
0000
,  // measure 12
0100
0000
0000
0000
0001
0000
0000
1000
0001
0000
0010
0000
0100
0000
1000
0000
,  // measure 13
0001
0000
1000
0000
1000
0000
0000
1001
0000
0000
1000
0000
0001
1000
0000
0000
,  // measure 14
0001
0010
1000
0010
0001
1000
1001
0000
,  // measure 15
0001
0000
0010
0000
0100
0000
1000
0000
0020
0000
0000
0000
0130
0010
0000
0000
,  // measure 16
1000
0100
0001
0100
1000
0001
1001
0000
,  // measure 17
1000
0010
0000
1000
0010
0000
0100
0000
0001
0000
0010
0000
0100
0010
0000
0000
,  // measure 18
0001
0100
1000
0100
0010
1000
1001
0000
,  // measure 19
0001
0100
0001
0000
0010
0000
0100
0000
1000
0000
0001
1000
0000
1001
0000
0000
,  // measure 20
1000
0010
0001
0010
0100
0001
1001
0000
,  // measure 21
0110
0000
0000
0000
0010
0100
0010
1000
0000
0000
1001
0000
0000
1001
0000
0001
,  // measure 22
1000
0000
0000
0000
,  // measure 23
0000
0000
0010
0100
0000
0100
0000
0010
0100
0010
0000
1000
0010
1000
0001
0000
,  // measure 24
1001
0000
0000
1000
0100
0000
0000
0100
0001
0000
0000
0001
0100
0000
0000
0100
,  // measure 25
1000
0000
0000
1000
0010
0000
0000
0010
0100
0000
0000
0100
0001
0000
1000
0001
,  // measure 26
1000
0000
0000
0000
0010
0000
0000
0010
0100
0000
0000
0100
0002
0000
0000
0000
,  // measure 27
1003
0001
0000
0000
1001
0000
0000
0010
0100
0000
0010
0000
0010
0100
0000
0000
,  // measure 28
0001
0000
0000
0001
0100
0000
0000
0100
1000
0000
0000
1000
0100
0000
0000
0100
,  // measure 29
0001
0000
0000
0001
0010
0000
0000
0010
0100
0000
0000
0100
1000
0000
0001
1000
,  // measure 30
0001
0000
0100
0000
0010
0000
0000
0000
0100
0000
0000
0010
1000
0000
0001
0000
,  // measure 31
1001
0000
0000
0000
0000
0000
0000
0000
1000
0100
1000
0100
1000
0001
1000
0000
,  // measure 32
0001
1000
0100
0001
0100
1000
0001
0000
,  // measure 33
0100
0001
0100
0001
0100
0000
0010
1000
0000
0000
0100
0000
0010
0100
0000
0000
,  // measure 34
1000
0001
0100
1000
0100
0001
1000
0000
,  // measure 35
0010
0100
0010
0000
1000
0010
1000
0001
0000
0000
0010
0000
0010
0100
0000
0000
,  // measure 36
1000
0001
0010
1000
0010
0001
1000
0000
,  // measure 37
0010
1000
0010
1000
0010
0000
0100
0001
0000
0000
0100
0010
0000
0110
0000
0000
,  // measure 38
1000
0001
0010
1000
0010
0001
1000
0000
,  // measure 39
1001
0000
0000
0000
0110
0000
0000
0110
0000
0000
0110
0000
0110
0000
0000
0000
,  // measure 40
1001
0000
0000
0000
0000
0000
0000
0000
0001
0010
0001
0010
0001
1000
0001
0000
,  // measure 41
1000
0000
0001
0100
0000
0100
0000
0110
0000
0000
0000
0000
0001
0100
0001
0100
,  // measure 42
0001
1000
0000
0100
0000
0000
1000
0000
0001
0000
0001
0000
0100
0000
0100
0000
,  // measure 43
0002
0000
0000
1003
0000
0100
0000
0020
0000
0000
0000
0000
0031
0000
0000
0000
,  // measure 44
1000
0100
1000
0000
0001
0010
0001
0000
1000
0001
1000
0001
1000
0001
1000
0001
,  // measure 45
2000
0000
0000
0000
3001
0100
0002
0000
0000
0000
0103
0000
0110
0000
0000
0000
,  // measure 46
1010
0000
0000
0000
1000
0100
0010
0002
0000
0000
1003
0000
0010
0000
0100
0000
,  // measure 47
0100
0000
0002
0000
2003
0000
0000
0000
3020
0000
0000
0130
0000
0000
0000
0000
,  // measure 48
0101
0000
0000
0000
0001
0100
0010
1000
0000
0000
1001
0000
0000
0000
0010
0000
,  // measure 49
0000
0000
0110
0000
0010
0000
0100
0000
0101
0000
0000
1001
0000
0000
0000
0000
,  // measure 50
1001
0000
0000
0000
0000
0000
0000
0000
0010
0100
0010
0100
0010
0000
0000
0000
,  // measure 51
1000
0000
0000
1000
0001
0000
0000
0001
1000
0000
0000
1000
0100
0000
0000
0100
,  // measure 52
0010
0000
0000
0010
0001
0000
0000
0001
1000
0000
0000
1000
0001
0000
0000
0001
,  // measure 53
1000
0001
0010
1000
0010
0001
1000
0000
,  // measure 54
0001
1000
0010
0001
0010
1000
0001
0000
,  // measure 55
1000
0000
0000
1000
0001
0000
0000
0001
1000
0000
0000
1000
0010
0000
0000
0010
,  // measure 56
0100
0000
0000
0100
0001
0000
0000
0001
1000
0000
0000
1000
0001
0000
0000
0001
,  // measure 57
1000
0001
0100
1000
0100
0001
1000
0000
,  // measure 58
0001
1000
0100
0001
0100
1000
0001
0000
,  // measure 59
1002
0000
0000
1003
0000
0000
0020
0000
0000
1030
0001
1000
0001
1000
0001
1000
,  // measure 60
0001
0010
0001
0010
0001
0010
0001
0010
0001
0100
0010
0100
0000
0000
0000
0000
,  // measure 61
2001
0000
0000
3001
0000
1000
0010
1000
0010
1000
0010
1000
0001
1000
0001
1000
,  // measure 62
0001
1000
0020
0000
0000
0000
0130
0001
0100
0001
1000
0001
1000
0001
1000
0000
,  // measure 63
1002
0000
0000
1003
0000
0001
0010
0001
0010
0001
1000
0100
1000
0100
0000
0000
,  // measure 64
2001
0000
0000
3001
0000
1000
0010
1000
0010
0100
0001
0100
0001
0100
0000
0000
,  // measure 65
1002
0000
0000
1003
0000
0000
0001
1000
0001
1000
0001
0010
0100
1000
0001
0000
,  // measure 66
1001
0000
0000
2002
0000
0000
0000
0000
0000
0000
0000
0000
0000
0000
0000
0000
,  // measure 67
3003
0000
0000
0000
;
