#TITLE:Every Morning;
#SUBTITLE:;
#ARTIST:Sugar Ray;
#TITLETRANSLIT:;
#SUBTITLETRANSLIT:;
#ARTISTTRANSLIT:;
#CREDIT:DigiMindAxel;
#BANNER:Every Morning.png;
#BACKGROUND:Every Morning-bg.png;
#LYRICSPATH:Every Morning.lrc;
#CDTITLE:DigiMindAxel original simfile.png;
#MUSIC:Every Morning.mp3;
#METERTYPE:DDR X;
#OFFSET:-9.250;
#SAMPLESTART:18.395;
#SAMPLELENGTH:12.000;
#SELECTABLE:YES;
#BPMS:0.000=109.900;
#STOPS:;
#BGCHANGES:-16.000=Every Morning.avi=1.000=1=1=0,
99999=-nosongbg-=1.000=0=0=0 // don't automatically add -songbackground-
;

//---------------dance-single - ----------------
#NOTES:
     dance-single:
     :
     Easy:
     3:
     0.171,0.196,0.009,0.098,0.000:
0001
1000
0001
0000
,
0010
0001
0000
0100
,
0000
0010
0010
0000
,
2000
0000
3001
0000
,
1000
0001
1000
0000
,
0100
1000
0100
0000
,
0010
0100
0010
0000
,
0001
1000
0001
0000
,
0100
0001
0100
0000
,
0010
0100
0010
0000
,
1000
0001
1000
0000
,
0100
1000
0100
0000
,
0020
0000
0000
0000
,
0032
0000
0000
0000
,
0203
0000
0000
0000
,
0320
0000
0000
0000
,
2030
0000
0000
0000
,
3002
0000
0000
0000
,
2003
0000
0000
0000
,
3200
0000
0000
0000
,
0310
0001
0010
0000
,
0100
0010
0100
0000
,
1000
0010
1000
0010
,
0100
0010
0100
0000
,
0001
1000
0001
0000
,
0010
0001
0010
0000
,
0001
1000
0001
0000
,
0100
0000
0100
0000
,
0110
0010
0100
0010
,
1000
0001
1000
0001
,
0010
0001
0010
0001
,
1000
0010
1000
0010
,
0100
0010
0100
0010
,
1000
0001
1000
0001
,
1000
0100
1000
0100
,
0010
0001
0010
0001
,
0100
0100
0100
0000
,
0010
0010
0010
0000
,
1000
0001
0001
0000
,
2000
0000
3002
0000
,
1003
0100
0010
0000
,
0100
0010
0001
0000
,
1000
0010
0100
0000
,
0010
0100
0001
0000
,
0001
0000
0000
0000
;

//---------------dance-single - ----------------
#NOTES:
     dance-single:
     :
     Medium:
     6:
     0.264,0.275,0.169,0.062,0.000:
0001
0000
0100
0000
0010
0100
0000
0001
,
1000
0000
0100
0000
0000
0010
0100
0010
,
0000
0001
0001
0000
,
1001
0000
0000
1000
1000
0000
0000
0000
,
0100
1000
0010
0100
,
0010
0000
1000
0000
0001
0100
0001
0000
,
0010
0000
0100
0000
1000
0001
1000
0000
,
0100
0010
0100
0000
,
1000
0000
0010
0100
0010
0000
1000
0000
,
0001
1000
0001
0000
0010
0000
0100
0000
,
1000
0010
1000
0000
0010
0100
0010
0000
,
1000
0001
0010
0100
,
2000
0000
0000
0000
0000
3001
0000
0000
,
0200
0000
0000
0000
0000
0301
0000
0000
,
2000
0000
0000
0000
0000
3001
0000
0000
,
2000
0000
0000
0000
0000
3100
0000
0000
,
0020
0000
0000
0000
0000
0130
0000
0000
,
2000
0000
0000
0000
0000
3001
0000
0000
,
0200
0000
0000
0000
0000
0301
0000
0000
,
1000
0100
0010
0010
,
1001
0000
1000
0000
0100
1000
0100
0000
,
1000
0000
0001
0000
0100
0010
0100
0000
,
0001
0010
0100
1000
,
0001
0100
0010
0000
0100
0000
0010
0000
,
0100
0001
0010
0000
0001
0000
1000
0000
,
0100
1000
0010
0000
0100
0000
0010
0000
,
1000
0000
0100
0010
0100
0010
0000
0000
,
0001
0000
0000
0001
0001
0000
0000
0000
,
0101
0100
0110
0010
,
1010
1000
1001
0001
,
0011
0010
0110
0100
,
1100
0000
0100
0000
1000
0100
1000
0000
,
1100
0010
0110
0100
,
0101
0001
1001
1000
,
1010
0010
0110
0100
,
0001
0010
0100
0000
1000
0100
0010
0000
,
0001
0000
0100
0010
0100
0010
0000
1000
,
0001
0000
0010
0000
0000
0100
0010
0100
,
0000
0000
1000
0001
1000
0001
0000
0000
,
0100
0000
0000
0100
0100
0000
0000
0000
,
0001
0000
0011
0000
0010
0100
0010
0000
,
0100
0000
1100
0000
1000
0001
1000
0000
,
0100
0000
0110
0000
0010
0001
0010
0000
,
0001
0000
1001
0000
1000
0010
1000
0000
,
0001
0000
0000
0000
;

//---------------dance-single - ----------------
#NOTES:
     dance-single:
     :
     Hard:
     9:
     0.419,0.392,0.178,0.143,0.116: // measure 1
0001
0010
0001
1000
0010
0100
0000
0100
,  // measure 2
0010
1000
0100
0010
0000
0001
0001
0100
,  // measure 3
0010
0000
1000
1000
1000
0001
0100
0000
,  // measure 4
0120
0000
0000
0000
0000
0000
1030
0001
1000
0000
0000
0000
0100
0000
0000
0000
,  // measure 5
0011
0000
0010
0001
1000
0001
0010
0100
,  // measure 6
1000
0010
0001
0010
1000
0010
0001
0010
,  // measure 7
1000
0100
0010
0001
0100
0100
0000
0100
,  // measure 8
0020
0000
1030
0100
0000
0100
0010
0000
,  // measure 9
1100
0000
0100
1000
0001
1000
0100
0010
,  // measure 10
0001
0100
1000
0100
0001
0010
1000
0010
,  // measure 11
0001
0100
0010
1000
0100
0010
0000
0010
,  // measure 12
0100
0000
0000
0000
1000
0000
0001
0000
0100
0010
0100
0000
0001
0000
0000
0000
,  // measure 13
0020
0000
0000
0000
0100
0000
0000
0000
0000
0000
0130
0000
0000
1000
0000
0000
,  // measure 14
0002
0000
0000
0000
0100
0000
0000
0000
0000
0000
0103
0000
0000
0001
0000
0000
,  // measure 15
0020
0000
0000
0000
0100
0000
0000
0000
0000
0000
0130
0000
0000
1000
0000
0000
,  // measure 16
0010
0000
0100
0000
0010
0000
0100
0100
,  // measure 17
0002
0000
1003
0100
0010
0100
1000
0000
,  // measure 18
0020
0000
0130
0000
0001
0100
0010
0100
,  // measure 19
0002
0000
0000
0000
1000
0000
0000
0000
0000
0000
1003
0000
0000
0001
0000
0100
,  // measure 20
0010
0100
0010
0100
0001
0000
0001
1000
0001
0000
0000
0000
1001
0000
0000
0000
,  // measure 21
0001
0000
0100
0000
0010
0000
0100
0002
0000
0000
1003
0000
0000
0000
0001
0000
,  // measure 22
1000
0000
0100
0000
0010
0000
0100
2000
0000
0000
3001
0000
0001
0000
1000
0000
,  // measure 23
0002
0203
2300
3200
,  // measure 24
0301
0001
1000
0100
0000
0100
1000
0000
,  // measure 25
0001
1000
0010
1000
0001
0011
0010
0001
,  // measure 26
1000
0100
1000
0001
0100
0101
0001
0000
,  // measure 27
1000
0000
0100
0100
1000
0001
0000
0000
,  // measure 28
0002
0000
0000
0000
0000
0000
1003
0100
1000
0000
0001
0000
0001
0000
0001
0000
,  // measure 29
1000
0000
0010
0000
1010
0000
0000
0010
1000
0000
0100
0000
0010
0000
0000
0000
,  // measure 30
0001
0000
1000
0000
1010
0000
0000
0010
0100
0000
0001
0000
0010
0000
0000
0000
,  // measure 31
0100
0000
0010
0000
0011
0000
0000
0001
1000
0000
0010
0000
0100
0000
0000
0000
,  // measure 32
0010
1000
0010
1000
0010
0000
0000
0000
1000
0000
1000
0000
1001
0000
0000
0000
,  // measure 33
0010
0000
1000
0000
1100
0000
0000
0100
1000
0000
0010
0000
0110
0000
0000
0000
,  // measure 34
0100
0000
0001
0000
0011
0000
0000
0001
0100
0000
0010
0000
0110
0000
0000
0000
,  // measure 35
0100
0000
1000
0000
1001
0000
0000
0001
0010
0000
0001
0000
1001
0000
0000
0000
,  // measure 36
0100
0001
0100
0001
0100
0000
0000
0000
0001
1000
0001
1000
0001
0000
0000
0000
,  // measure 37
0010
0010
0100
1000
0001
0100
0000
0100
,  // measure 38
0001
0001
0010
0100
0000
1000
1000
0001
,  // measure 39
0100
0000
0001
0001
1000
0100
0000
1000
,  // measure 40
0002
0000
0000
0000
0013
0000
0001
1000
0001
0000
0100
0000
0010
0000
0010
0000
,  // measure 41
1000
0100
1100
0000
1000
0100
0001
0100
,  // measure 42
1000
0001
0011
0000
0001
0010
1000
0010
,  // measure 43
0001
1000
1100
0000
1000
0010
0001
0010
,  // measure 44
1000
0001
0101
0000
0001
0100
1000
0100
,  // measure 45
0001
0000
0000
0000
;

//---------------dance-single - ----------------
#NOTES:
     dance-single:
     :
     Beginner:
     1:
     0.085,0.118,0.036,0.000,0.000:
1000
0000
0000
0000
,
1000
0000
0000
0000
,
0010
0000
0000
0000
,
0100
0000
0000
0000
,
0001
0000
1000
0000
,
0001
0000
1000
0000
,
0001
0000
1000
0000
,
0001
0000
0000
0000
,
0100
0000
0010
0000
,
0100
0000
0010
0000
,
0100
0000
0010
0000
,
0100
0000
0000
0000
,
0001
0000
0000
0000
,
0010
0000
0000
0000
,
0100
0000
0000
0000
,
1000
0000
0000
0000
,
0100
0000
0000
0000
,
0010
0000
0000
0000
,
0001
0000
0000
0000
,
1000
0000
0000
0000
,
1001
0000
0000
0000
,
0010
0000
0100
0000
,
0010
0000
0100
0000
,
0010
0000
0000
0000
,
1001
0000
0000
0000
,
0100
0000
0010
0000
,
0100
0000
0010
0000
,
0000
0000
0000
0000
,
1000
0000
0100
0000
,
1000
0000
0000
0000
,
0001
0000
0010
0000
,
0001
0000
0000
0000
,
1000
0000
0001
0000
,
1000
0000
0000
0000
,
0001
0000
1000
0000
,
0001
0000
0000
0000
,
1001
0000
0010
0000
,
0100
0000
0010
0000
,
0100
0000
0000
0000
,
0110
0000
0001
0000
,
1000
0000
0001
0000
,
1000
0000
0000
0000
,
0001
0000
0010
0000
,
0001
0000
0000
0000
,
1000
0000
0000
0000
;
