#TITLE:SATURN 5;
#ARTIST:inspiral carpets;
#BANNER:SATURN 5.png;
#BACKGROUND:SATURN 5-bg.png;
#CDTITLE:./CDTITLES/DANCING STAGE UNLEASHED.png;
#MUSIC:SATURN 5.ogg;
#SAMPLESTART:53.228;
#SAMPLELENGTH:15;
#DISPLAYBPM:128;
#BPMS:0=128.57,8=128.11,40=127.65,88=127.54,120=127.2,128=127.96,140=128.87,152=127.2,168=128.11;

//---------------dance-single - ----------------
#NOTES:
     dance-single:
     :
     Easy:
     4:
     :
0000
0000
0000
0000
,
0000
0000
0000
0000
,
0000
0000
0000
0000
,
0000
0000
0000
0000
,
0000
0000
0000
0000
,
0001
0000
0001
0001
,
0010
0001
1000
0100
,
1000
0000
1000
1000
,
0100
1000
0001
0010
,
0001
0001
0001
0001
,
2000
3100
0020
0031
,
1000
1000
1000
1000
,
0002
0013
2000
3100
,
0010
0100
0001
1000
,
0100
0010
1000
0001
,
0010
0000
0010
0000
0010
0001
1000
0000
,
0100
0000
0100
0000
0100
1000
0001
0000
,
0002
0100
1000
0103
,
2000
0010
0001
3010
,
0002
0013
2000
3010
,
0002
0103
2000
3100
,
0001
0100
0001
0100
,
0010
1000
0001
0100
,
1000
0100
1000
0100
,
0010
0001
1000
0100
,
0001
0010
1001
0000
,
1000
0100
1001
0000
,
0001
0001
1000
1000
,
0010
0100
1001
1001
,
2002
0000
0000
3003
,
0010
1000
0001
1000
,
2002
0000
0000
3003
,
0001
1000
0001
1000
,
0010
0010
0010
0000
,
0001
0001
0001
0110
,
1000
1000
1000
0000
,
0100
0100
0100
1001
,
0220
0000
0000
0330
,
0001
0010
0100
0010
,
0220
0000
0000
0330
,
1000
0010
0100
0010
,
0001
0001
0001
0000
,
1000
1000
1000
0010
,
0100
0001
1000
0010
,
0100
0001
1000
0010
,
2002
0000
0000
3003
;

//---------------dance-single - ----------------
#NOTES:
     dance-single:
     :
     Medium:
     5:
     :
0000
0000
0000
0000
,
0000
0000
0000
0000
,
0000
0000
0000
0000
,
0000
0000
0000
0000
,
0000
0000
0000
0000
,
0001
0000
0010
0100
0010
0100
1000
0000
,
0001
0000
0100
0010
0100
0010
1000
0000
,
0001
0010
0001
0000
1000
0010
1000
0000
,
0010
1000
0010
1000
0001
0100
0101
0000
,
0010
0000
0100
0001
1000
0010
1000
0010
,
0100
0000
0010
1000
0001
0010
0001
0010
,
0001
0001
0001
0000
1000
1000
1000
0000
,
0010
0010
0010
0000
0100
0100
0100
0000
,
0010
0001
1000
0100
0010
0001
1000
0100
,
0010
1001
0100
0100
,
0001
0100
0010
1000
0001
0100
0010
1000
,
0000
0000
0000
0000
0001
0010
0001
0010
,
1000
0100
1000
0100
1000
0100
1000
0100
,
0010
0001
0010
0001
0010
0001
0010
0001
,
2000
3100
0002
0103
,
2000
3100
0002
0103
,
0001
0000
0100
0001
1000
0001
0100
0002
,
0000
2000
0000
0000
0000
0000
3003
0000
,
0010
0001
0100
0000
0010
1000
1000
0020
,
0000
1000
0100
1030
,
0010
1000
0010
0000
1000
0100
1000
0000
,
0010
0100
0100
1000
,
2000
3200
0320
0032
,
1003
1000
0020
0230
,
0302
1000
1000
1003
,
2000
0001
0001
3001
,
0010
0100
0010
0100
,
0001
0100
0010
1000
,
0001
0001
0001
0000
0010
0010
0010
0000
,
0100
0100
0100
0000
1000
1000
1000
0000
,
0001
0000
0001
0001
1000
1000
1000
0000
,
1000
0000
1000
1000
0001
0001
0001
0000
,
0220
0300
2000
3030
,
2002
0003
0020
3030
,
0010
0000
0001
0000
1000
1000
0100
0100
,
0010
0000
0001
0000
1000
1000
0001
0001
,
0010
0010
0100
0000
1000
1000
0010
0000
,
1000
1000
0001
0001
0010
0100
1000
0000
,
0001
0000
1000
1000
0010
0010
0010
0000
,
1000
0000
0001
0001
1000
0100
0010
0001
,
2002
0000
0000
0000
,
3003
0000
0000
0000
;

//---------------dance-single - ----------------
#NOTES:
     dance-single:
     :
     Hard:
     7:
     :
0000
0000
0000
0000
,
0000
0000
0000
0000
,
0000
0000
0000
0000
,
0000
0000
0000
0000
,
0000
0000
0000
0000
,
0001
0100
0001
0100
0001
1000
0010
0100
,
0010
1000
0010
1000
0010
0100
0001
0000
,
1000
0010
1000
0010
1000
0001
0100
0010
,
0100
0001
0100
0001
0100
0010
1000
0001
,
1000
0100
1000
0100
1000
0010
1000
0010
,
1000
0010
0100
0001
1000
0010
0100
0000
,
0001
0100
0001
0100
0001
0010
0001
0010
,
0001
0010
0100
1000
0001
0010
0100
1000
,
0001
0001
0001
1000
0100
0100
0100
0000
,
1000
1000
1000
0001
0010
0010
0010
0000
,
1000
0100
0010
0000
0001
0010
0100
0000
,
1000
0100
0010
0001
1000
0100
0010
0001
,
2000
0100
3100
0000
0002
0100
0103
0000
,
0020
0001
0031
0000
0200
1000
1300
0000
,
1000
0010
1000
0001
1000
0100
0010
0000
,
0001
0010
0001
1000
0001
0100
0101
0000
,
0001
0100
0001
0100
0001
1000
0001
1000
,
0010
1000
0100
0010
0001
0100
0010
1000
,
1000
0010
1000
0010
1000
0001
1000
0001
,
0100
0001
1000
0010
0100
0010
1000
0001
,
0010
0010
0010
0000
0001
0001
0001
0000
,
1000
1000
1000
0000
0100
0100
0100
0000
,
0001
0010
0001
0010
0100
1000
0100
1000
,
0010
1000
0100
0010
0002
0000
2003
0000
,
3002
0000
0100
0100
0000
0000
1003
0000
,
2000
0000
0100
0100
0000
0000
3001
0000
,
0020
0000
1030
0001
1000
0001
0100
0000
,
0002
0000
0013
0100
0010
0100
1000
0000
,
0200
0000
1300
0001
1000
0001
0100
0000
,
0002
0000
0013
0100
0010
0100
1000
0000
,
0001
0010
0001
0010
0001
1000
0100
1000
,
0100
1000
0100
1000
0002
0000
0203
0000
,
0320
0000
1000
1000
0000
0000
1030
0000
,
0002
0000
1000
1000
0000
0000
1003
0000
,
0002
0000
0103
0100
0001
1000
0100
0000
,
2000
0000
3010
0010
1000
0001
0010
0000
,
0001
1000
0010
1000
0100
0010
0001
1000
,
0100
0010
0001
0010
0100
1000
0001
0010
,
0001
0001
1000
1000
0010
1000
0100
0010
,
0001
0100
0010
1000
0001
1000
0010
0100
,
2002
0000
0000
0000
,
3003
0000
0000
0000
;

//---------------dance-double - ----------------
#NOTES:
     dance-double:
     :
     Easy:
     3:
     :
00000000
00000000
00000000
00000000
,
00000000
00000000
00000000
00000000
,
00000000
00000000
00000000
00000000
,
00000000
00000000
00000000
00000000
,
00000000
00000000
00000000
00000000
,
10000000
00000000
00010000
00010000
,
00100000
00001000
00010000
00000100
,
00001000
00000000
00000010
00000010
,
00001000
00000100
00010000
00001000
,
00100000
00100000
00010000
00100000
,
00020000
01030000
20000000
31000000
,
10000000
01000000
10000000
01000000
,
00020000
00130000
20000000
31000000
,
00100000
01000000
00001000
00010000
,
00010000
00000010
00001000
00000100
,
00000010
00000010
00000010
00000001
,
00000100
00000100
00000100
00000010
,
00020000
00001000
00001000
00031000
,
00002000
00010000
00010000
00013000
,
02000000
03010000
20000000
30100000
,
00020000
01030000
20000000
31000000
,
00010000
01000000
00010000
01000000
,
00100000
10000000
00010000
01000000
,
10000000
01000000
00100000
00010000
,
00100000
00001000
00010000
00000010
,
00001000
00001000
00000100
00000000
00001001
00000000
00000000
00000000
,
00000001
00000001
00000100
00000000
00001001
00000000
00000000
00000000
,
00000010
00000010
00000100
00000100
,
00010000
00001000
00110000
01100000
,
20020000
00000000
00000000
30030000
,
00100000
00001000
00010000
00000100
,
00002002
00000000
00000000
00003003
,
00000001
00001000
00000100
00010000
,
00001000
00001000
01000000
00000000
,
00010000
00010000
00010000
00100000
,
10000000
10000000
01000000
00000000
,
00100000
00100000
00001000
00010000
,
00002200
00000000
00000000
00003300
,
00001000
00000100
00010000
00001000
,
00220000
00000000
00000000
00330000
,
10000000
01000000
00010000
00100000
,
01000000
01000000
01000000
00000000
,
10000000
10000000
10000000
00010000
,
00100000
00001000
00010000
00000010
,
00001000
00000001
00001000
00000100
,
00022000
00000000
00000000
00033000
;

//---------------dance-double - ----------------
#NOTES:
     dance-double:
     :
     Medium:
     6:
     :
00000000
00000000
00000000
00000000
,
00000000
00000000
00000000
00000000
,
00000000
00000000
00000000
00000000
,
00000000
00000000
00000000
00000000
,
00000000
00000000
00000000
00000000
,
10000000
01000000
00100000
00001000
,
00010000
00001000
00010000
00000010
,
00001000
00000001
00001000
00000000
00000100
00000010
00000100
00000000
,
00001000
00000100
00001000
00000100
00000010
00000001
00001000
00000000
,
00000100
00000000
00010000
00001000
01000000
00010000
10000000
00000000
,
01000000
00000000
00100000
00001000
00010000
00001000
00010000
00000000
,
00001000
00001000
00001000
00000000
00010000
00010000
00010000
00000000
,
00000100
00000100
00000100
00000000
00001000
00001000
00001000
00000000
,
00000100
00000001
00001000
00000100
00000010
00000100
00010000
00001000
,
00100000
00010000
10000000
10000000
,
00010000
01000000
00100000
10000000
00010000
01000000
00001000
00010000
,
00000000
00000000
00000000
00000000
00001000
00010000
00001000
00010000
,
00000100
00001000
00000100
00001000
00000100
00000010
00000100
00000010
,
00000001
00001000
00000100
00001000
00000100
00010000
00001000
00010000
,
00002000
00013000
00200000
00310000
,
20000000
31000000
00020000
01030000
,
00010000
00000000
01000000
00010000
10000000
00010000
01000000
00020000
,
00000000
20000000
00000000
00000000
00000000
00000000
30030000
00000000
,
00100000
00001000
00010000
00000000
00000010
00001000
00001000
00000020
,
00000000
00001000
00000100
00001030
,
00000100
00000001
00000100
00000000
00001000
00000010
00010000
00000000
,
00001000
00010000
00001000
00100000
,
00020000
20030000
30200000
02300000
,
03010000
00100000
00020000
02030000
,
03020000
10000000
10000000
10030000
,
20000000
00010000
00010000
30010000
,
00100000
01000000
00100000
01000000
,
10000000
01000000
00100000
00001000
,
00010000
00010000
00010000
00000000
00000010
00000010
00000010
00000000
,
00001000
00001000
00001000
00000000
00000001
00000001
00000001
00000000
,
00000100
00000000
00000100
00000100
00000010
00000010
00000010
00000000
,
00000001
00000000
00000001
00000001
00000100
00000100
00000100
00000000
,
00000220
00000300
00002000
00003030
,
00022000
00030000
00020000
00033000
,
00100000
00000000
00010000
00000000
10000000
01000000
10000000
01000000
,
00100000
00000000
00010000
00000000
10000000
00010000
10000000
00010000
,
00100000
00100000
01000000
00000000
10000000
10000000
01000000
00000000
,
00100000
00100000
00010000
00010000
00100000
00001000
00010000
00000000
,
00000010
00000000
00001000
00001000
00000010
00000010
00000010
00000000
,
00001000
00000000
00000001
00000001
00001000
00000100
00000010
00000001
,
00002002
00000000
00000000
00000000
,
00003003
00000000
00000000
00000000
;

//---------------dance-double - ----------------
#NOTES:
     dance-double:
     :
     Hard:
     8:
     :
00000000
00000000
00000000
00000000
,
00000000
00000000
00000000
00000000
,
00000000
00000000
00000000
00000000
,
00000000
00000000
00000000
00000000
,
00000000
00000000
00000000
00000000
,
00000001
00000100
00000001
00000100
00000001
00001000
00000010
00000100
,
00000010
00001000
00000010
00001000
00000100
00010000
00001000
00010000
,
00001000
00100000
00010000
00100000
00010000
10000000
00100000
10000000
,
01000000
10000000
01000000
10000000
01000000
00100000
00010000
10000000
,
00100000
01000000
00100000
01000000
00010000
00100000
00010000
10000000
,
00100000
10000000
00010000
01000000
00001000
00010000
00001000
00010000
,
00001000
00010000
00000100
00001000
00000100
00001000
00000010
00000100
,
00000010
00001000
00000010
00001000
00000001
00001000
00000010
00001000
,
00000001
00000100
00000010
00001000
00000001
00000100
00000010
00001000
,
00000100
00010000
00010000
00010000
00001000
00100000
00100000
00100000
,
00010000
01000000
00010000
01000000
00010000
01000000
00100000
10000000
,
00100000
01000000
00010000
10000000
00100000
10000000
00010000
01000000
,
00020000
01000000
01030000
00000000
00002000
00010000
00013000
00000000
,
00000200
00001000
00001300
00000000
00000002
00000100
00000103
00000000
,
00000010
00000010
00000010
00001000
00000001
00000001
00000100
00000001
,
00000010
00000001
00001000
00000100
00010000
00001000
00100000
00010000
,
10000000
01000000
10000000
01000000
00100000
00010000
10000000
01000000
,
00100000
00010000
00100000
00001000
00010000
00001000
00010000
00000100
,
00001000
00000100
00001000
00000100
00001000
00000001
00000100
00000010
,
00001000
00000010
00010000
00001000
00010000
00001000
00010000
00001000
,
01000000
00010000
01000000
00010000
00100000
01000000
10000000
00010000
,
00100000
00010000
00100000
00010000
10000000
01000000
00100000
00010000
,
00100000
00010000
00100000
00001000
00010000
00001000
00010000
00000100
,
00001000
00000100
00000010
00000001
00002000
00000000
00003002
00000000
,
00000203
00000000
00000001
00000001
00000000
00000000
00000301
00000000
,
00002000
00000000
00000010
00000010
00000000
00000000
00003100
00000000
,
00000020
00000000
00000031
00000001
00001000
00000010
00010000
00000000
,
00002000
00000000
00013000
00010000
00001000
01000000
00010000
00000000
,
20000000
00000000
30010000
00010000
01000000
01000000
00001000
00000000
,
00020000
00000000
00031000
00001000
00010000
00000100
00001000
00000000
,
00000001
00000100
00000001
00000100
00000010
00001000
00000010
00001000
,
00000100
00010000
00001000
00000000
02000000
00000000
03200000
00000000
,
20300000
00000000
00010000
00010000
00000000
00000000
30010000
00000000
,
00020000
00000000
10000000
10000000
00000000
00000000
10030000
00000000
,
00020000
00000000
01030000
01000000
00010000
01000000
00001000
00000000
,
00020000
00000000
00031000
00001000
00010000
00000010
00000100
00000000
,
00000001
00000100
00000010
00001000
00000010
00010000
00001000
01000000
,
00010000
01000000
00100000
10000000
00010000
00100000
01000000
10000000
,
00010000
00100000
00001000
00010000
00000100
00001000
00000001
00000010
,
00000001
00000010
00000100
00010000
00001000
00100000
00010000
01000000
,
20020000
00000000
00000000
00000000
,
30030000
00000000
00000000
00000000
;
