#TITLE:Uprising;
#SUBTITLE:;
#ARTIST:Muse;
#TITLETRANSLIT:;
#SUBTITLETRANSLIT:;
#ARTISTTRANSLIT:;
#GENRE:;
#CREDIT:;
#MENUCOLOR:;
#METERTYPE:DDR;
#BANNER:;
#BACKGROUND:;
#LYRICSPATH:;
#CDTITLE:CDTitle.PNG;
#MUSIC:Uprising.mp3;
#OFFSET:-9.410;
#SAMPLESTART:46.870;
#SAMPLELENGTH:15.000;
#SELECTABLE:YES;
#LISTSORT:;
#BPMS:0.000=128.000;
#STOPS:;
#BGCHANGES:;
#ATTACKS:;

//---------------dance-single - ----------------
#NOTES:
     dance-single:
     :
     Hard:
     8:
     0.422,0.428,0.162,0.190,0.385: // measure 1
1000
0000
0000
0001
0000
0000
0100
0000
0010
1000
0000
0010
,  // measure 2
1000
0000
0000
0001
0000
0000
0100
0000
0010
1000
0000
0001
,  // measure 3
1000
0000
0000
0100
0000
0000
0010
0000
0001
0010
0000
0001
,  // measure 4
0010
0000
0000
0001
0000
0000
0100
0000
0001
0010
0000
0001
,  // measure 5
1000
0000
0000
0010
0000
0000
1000
0000
0000
0100
0000
0010
,  // measure 6
0100
0000
0000
0010
0000
0000
0001
0000
1000
0100
0000
0010
,  // measure 7
0001
0000
0000
0100
0000
0000
0010
0000
0000
1000
0000
0001
,  // measure 8
0100
0000
0000
0001
0000
0000
1000
0000
0000
1100
0000
1000
,  // measure 9
0001
0000
0000
0010
0000
0100
1000
0000
0000
0010
0000
0100
,  // measure 10
0001
0000
0000
1000
0000
0001
0100
0000
0010
1000
0000
1000
,  // measure 11
0100
0000
0000
0010
0000
0001
0100
0000
0000
0010
0000
1000
,  // measure 12
0100
0000
0000
1000
0000
0001
0100
0000
0010
1000
0000
1000
,  // measure 13
0002
0000
0000
0010
0000
0000
1003
0000
0000
0001
0000
0100
,  // measure 14
0010
0000
0000
1000
0000
0100
0010
0000
0010
0001
0000
0001
,  // measure 15
2000
0000
0000
0010
0000
0000
3001
0000
0000
0001
0000
1000
,  // measure 16
0100
0000
0010
0001
0000
1000
0001
0000
0000
0101
0000
1000
,  // measure 17
0002
0010
1000
0100
,  // measure 18
2003
0010
0001
0100
,  // measure 19
3010
0000
0010
1000
0000
1000
0100
0000
0100
0010
0000
0001
,  // measure 20
1000
0000
0000
0001
0000
1000
0001
0100
0001
1000
0100
1000
,  // measure 21
0001
0000
0000
1000
0000
0000
0100
0000
0000
0010
0000
0100
,  // measure 22
0010
0000
0000
0001
0000
0000
1001
0000
0000
1000
0000
0010
,  // measure 23
1000
0100
0001
0100
,  // measure 24
1000
0000
0000
0010
0000
0000
0001
0000
0000
0010
0000
1000
,  // measure 25
0001
0000
0000
0010
0000
0000
0001
0000
0000
0100
0000
0001
,  // measure 26
0100
0010
1010
1000
,  // measure 27
0100
0000
0000
0010
0000
0000
0100
0000
0000
1000
0000
0010
,  // measure 28
0100
0000
0000
0001
0000
1000
0100
0000
0010
0001
0100
0001
,  // measure 29
1000
0000
0000
0001
0000
0000
0010
0000
0000
0001
0000
0001
,  // measure 30
0100
0000
0000
0010
0000
0000
1000
0000
0000
0100
0000
0010
,  // measure 31
0100
0000
0000
0010
0000
0000
0001
0000
0000
0100
0000
0010
,  // measure 32
1000
0000
0000
0010
0000
0000
1000
0000
0001
0100
0000
0100
,  // measure 33
0001
1000
0100
0110
,  // measure 34
0010
0000
0000
0001
0000
0000
0100
0000
0001
1000
0000
1000
,  // measure 35
0010
0000
0000
0100
0000
0000
0001
0000
0000
1000
0000
0100
,  // measure 36
0010
0001
1000
0001
0000
0100
0010
1000
0100
0010
0000
2002
,  // measure 37
0000
0000
0000
0000
,  // measure 38
0000
0000
0000
3003
,  // measure 39
0002
0023
0230
2300
,  // measure 40
3020
0230
0302
1003
,  // measure 41
0110
0000
0000
1001
0000
1000
0010
0000
0100
0001
0000
1000
,  // measure 42
0100
0000
0000
0011
0000
0001
0100
0000
0001
1000
0000
1000
,  // measure 43
0200
2300
3020
0230
,  // measure 44
0320
2030
3200
0310
,  // measure 45
1001
0000
1000
0100
0000
0010
0001
0000
1000
0010
0000
0000
,  // measure 46
0100
0000
0001
0100
0000
0010
1000
0000
0000
1010
0000
1001
,  // measure 47
0000
0000
0000
0101
0000
0000
1000
0000
0100
1000
0000
0000
,  // measure 48
0001
0000
0000
0011
0000
0000
1000
0000
0010
1000
0000
1000
,  // measure 49
0001
0000
0000
0110
0000
0000
1000
0000
0000
0110
0000
0010
,  // measure 50
0001
0000
0000
1001
0000
0000
1000
0000
0010
0100
0000
0001
,  // measure 51
1000
0000
0000
0000
;

//---------------dance-single - ----------------
#NOTES:
     dance-single:
     :
     Medium:
     4:
     0.265,0.262,0.067,0.152,0.071: // measure 1
1000
0001
0100
0000
,  // measure 2
0001
1000
0100
0010
,  // measure 3
0001
0100
0010
0000
,  // measure 4
0010
1000
0100
1000
,  // measure 5
0001
0010
0001
0000
,  // measure 6
1000
0010
0100
0001
,  // measure 7
0010
0100
0010
0000
,  // measure 8
0001
1000
0010
0100
,  // measure 9
0110
0000
0000
0000
0000
0000
0010
0000
0000
1000
0000
0001
,  // measure 10
0100
0000
0001
1000
,  // measure 11
0100
0000
0000
0000
0000
0000
0010
0000
0000
0001
0000
1000
,  // measure 12
0001
0000
1000
0010
,  // measure 13
0100
0000
0000
0000
0000
0000
0001
0000
0000
1000
0000
1000
,  // measure 14
0001
0000
1000
0100
,  // measure 15
0010
0000
0000
0000
0000
0000
0100
0000
0000
1000
0000
1000
,  // measure 16
0001
0000
0000
0000
0000
0000
1000
0000
0000
0010
0000
0020
,  // measure 17
0000
0000
0000
1030
0000
0000
0000
0000
0000
1000
0000
2000
,  // measure 18
0000
0000
0000
3001
0000
0000
0000
0000
0000
0001
0000
0002
,  // measure 19
0000
0000
0000
0103
0000
0000
0000
0000
0000
0100
0000
0200
,  // measure 20
0000
0310
1010
0101
,  // measure 21
2002
0000
0000
3003
,  // measure 22
2000
0010
0002
3003
,  // measure 23
1000
0010
0100
0001
,  // measure 24
0010
0100
0010
0001
,  // measure 25
2001
0000
0010
3000
,  // measure 26
0002
0010
2000
3003
,  // measure 27
1000
0010
0100
0001
,  // measure 28
1000
0100
0010
0000
,  // measure 29
0110
0000
0100
1000
,  // measure 30
0001
0000
1000
0001
,  // measure 31
0100
0000
0001
1000
,  // measure 32
0010
0100
0001
0010
,  // measure 33
0001
0000
1000
0100
,  // measure 34
0001
0100
1000
0010
,  // measure 35
0100
0000
0001
1000
,  // measure 36
0010
0000
0000
1000
0000
0000
0001
0000
0001
1000
0000
2002
,  // measure 37
0000
0000
0000
0000
,  // measure 38
0000
0000
0000
3003
,  // measure 39
2000
0010
0010
0001
,  // measure 40
3002
0010
0010
1000
,  // measure 41
1003
0001
0100
0010
,  // measure 42
1000
0100
0010
0001
,  // measure 43
0200
0010
0010
0001
,  // measure 44
0001
0010
0010
0001
,  // measure 45
0301
1000
0100
0010
,  // measure 46
0001
0000
0000
0100
0000
0000
0010
0000
0000
1000
0000
0001
,  // measure 47
0000
0000
0000
1000
0000
0000
0100
0000
0000
0010
0000
0001
,  // measure 48
0000
0000
0000
1000
0000
0000
0010
0000
0000
0100
0000
0001
,  // measure 49
0000
0000
0000
1000
0000
0000
0100
0000
0000
1000
0000
0100
,  // measure 50
0000
0000
0000
0010
0000
0000
0001
0000
0000
0010
0000
0001
,  // measure 51
0010
0000
0000
0000
;

//---------------dance-single - ----------------
#NOTES:
     dance-single:
     :
     Easy:
     2:
     0.179,0.214,0.105,0.143,0.000: // measure 1
1001
0000
0001
0000
,  // measure 2
1000
0001
1000
0000
,  // measure 3
0010
0000
0100
0000
,  // measure 4
0001
0100
0001
0000
,  // measure 5
1000
0000
0100
0000
,  // measure 6
0010
0100
0010
0000
,  // measure 7
0100
0000
0010
0000
,  // measure 8
0001
1000
0001
0000
,  // measure 9
1000
0000
1000
0000
,  // measure 10
0001
0000
0001
0100
,  // measure 11
0001
0000
1000
0000
,  // measure 12
1000
0000
0010
0100
,  // measure 13
0010
0000
0100
0000
,  // measure 14
0001
0000
1000
0001
,  // measure 15
1000
0000
0001
0000
,  // measure 16
0010
0001
1000
0001
,  // measure 17
2000
0000
3010
0000
,  // measure 18
0002
0000
0103
0000
,  // measure 19
2000
0000
3001
0000
,  // measure 20
0020
0000
0130
0000
,  // measure 21
0220
0000
0000
0330
,  // measure 22
0010
0000
1000
0000
,  // measure 23
0200
0000
0000
0000
,  // measure 24
0020
0000
0000
0330
,  // measure 25
0002
0000
0010
0000
,  // measure 26
1000
0000
0100
0000
,  // measure 27
2003
0000
0000
0000
,  // measure 28
0002
0000
0000
3003
,  // measure 29
0110
0000
0110
0000
,  // measure 30
1001
0000
1001
0000
,  // measure 31
0002
0000
0010
0000
,  // measure 32
2000
0000
0000
3003
,  // measure 33
1001
0000
1001
0000
,  // measure 34
0110
0000
0110
0000
,  // measure 35
0100
0000
0010
0000
,  // measure 36
1000
0000
0001
0000
,  // measure 37
2002
0000
0000
0000
,  // measure 38
0000
0000
0000
3003
,  // measure 39
1000
0001
1000
0000
,  // measure 40
0010
0100
0010
0000
,  // measure 41
1000
0000
0100
0000
,  // measure 42
0010
0000
0001
0000
,  // measure 43
1000
0010
1000
0000
,  // measure 44
0001
0100
0001
0000
,  // measure 45
1000
0000
0100
0000
,  // measure 46
0010
0000
0001
0000
,  // measure 47
0100
0000
0100
0000
,  // measure 48
0010
0000
0010
0000
,  // measure 49
1000
0000
0001
0000
,  // measure 50
1000
0000
0001
0100
,  // measure 51
0001
0000
0000
0000
;

//---------------dance-single - ----------------
#NOTES:
     dance-single:
     :
     Beginner:
     1:
     0.105,0.143,0.067,0.000,0.000: // measure 1
1001
0000
0000
0000
,  // measure 2
0001
0000
0100
0000
,  // measure 3
0001
0000
0000
0000
,  // measure 4
1000
0000
0100
0000
,  // measure 5
1000
0000
0000
0000
,  // measure 6
0001
0000
0100
0000
,  // measure 7
0001
0000
0000
0000
,  // measure 8
1000
0000
0001
0000
,  // measure 9
1000
0000
0001
0000
,  // measure 10
0100
0000
0000
0000
,  // measure 11
0001
0000
1000
0000
,  // measure 12
0100
0000
0000
0000
,  // measure 13
0010
0000
0001
0000
,  // measure 14
0100
0000
0000
0000
,  // measure 15
0010
0000
1000
0000
,  // measure 16
0100
0000
0000
0000
,  // measure 17
1000
0000
0000
0000
,  // measure 18
0001
0000
0000
0000
,  // measure 19
0100
0000
0000
0000
,  // measure 20
0010
0000
0000
0000
,  // measure 21
0110
0000
0000
0000
,  // measure 22
0010
0000
1000
0000
,  // measure 23
0001
0000
0000
0000
,  // measure 24
1000
0000
0000
0000
,  // measure 25
0001
0000
0000
0000
,  // measure 26
1000
0000
0001
0000
,  // measure 27
0010
0000
0000
0000
,  // measure 28
0001
0000
0000
0000
,  // measure 29
0100
0000
0000
0000
,  // measure 30
0010
0000
1000
0000
,  // measure 31
0100
0000
0000
0000
,  // measure 32
0010
0000
0000
0000
,  // measure 33
0001
0000
0000
0000
,  // measure 34
1000
0000
0010
0000
,  // measure 35
1000
0000
0000
0000
,  // measure 36
0001
0000
0000
0000
,  // measure 37
1001
0000
0000
0000
,  // measure 38
0000
0000
0000
0000
,  // measure 39
1000
0000
0100
0000
,  // measure 40
0010
0000
0001
0000
,  // measure 41
1001
0000
0000
0000
,  // measure 42
0110
0000
0000
0000
,  // measure 43
0010
0000
1000
0000
,  // measure 44
0100
0000
0010
0000
,  // measure 45
0110
0000
0000
0000
,  // measure 46
1001
0000
0000
0000
,  // measure 47
1000
0000
1000
0000
,  // measure 48
0001
0000
0001
0000
,  // measure 49
0100
0000
0100
0000
,  // measure 50
0010
0000
0010
0000
,  // measure 51
0010
0000
0000
0000
;
