#TITLE:合体せよ!ストロングイェーガー!!;
#SUBTITLE:(Ryu* remix);
#ARTIST:Remixed by Ryu*;
#TITLETRANSLIT:THE STRONG JAEGER;
#SUBTITLETRANSLIT:;
#ARTISTTRANSLIT:;
#CREDIT:;
#BANNER:;
#BACKGROUND:;
#LYRICSPATH:;
#CDTITLE:;
#MUSIC:THE STRONG JAEGER (Ryu Remix).mp3;
#OFFSET:-2.370;
#SAMPLESTART:70.480;
#SAMPLELENGTH:12.380;
#SELECTABLE:YES;
#BPMS:0.000=155.000;
#STOPS:;
#BGCHANGES:;

//---------------dance-single - ----------------
#NOTES:
     dance-single:
     :
     Hard:
     9:
     0.625,0.667,0.320,0.286,0.349: // measure 1
1000
0000
0000
0100
0000
0000
1000
0000
0000
0100
0000
0000
1000
0000
0001
0000
,  // measure 2
0100
0000
0000
0001
0000
0000
0100
0000
0000
0001
0000
0000
0100
0000
0001
0000
,  // measure 3
0010
0000
0000
0100
0000
0000
0010
0000
0000
0100
0000
0000
0010
0000
0001
0000
,  // measure 4
1000
0000
0000
0001
0000
0000
1000
0000
0000
0001
0000
0000
0100
0010
0100
0010
,  // measure 5
0100
0000
0000
0010
0000
0000
1000
0000
0000
0100
0000
0000
0001
0000
0100
0000
,  // measure 6
1000
0000
0000
0010
0000
0000
0001
0000
0000
0010
0000
0000
1000
0000
0001
0000
,  // measure 7
1000
0000
0000
0100
0000
0000
0010
0000
0000
0100
0000
0000
1000
0000
0001
0000
,  // measure 8
2002
0000
0000
3003
,  // measure 9
1000
0000
0001
0100
0000
0100
0001
0000
1000
0000
0100
0000
0010
0000
0100
0000
,  // measure 10
1000
0000
0001
1000
0000
1000
0001
0000
0100
0000
1000
0000
0100
0000
0010
0000
,  // measure 11
1000
0000
0001
0100
0000
0100
0001
0000
1000
0000
0100
0000
0010
0000
0100
0000
,  // measure 12
1000
0000
0001
1000
0000
1000
0100
0000
0010
0000
0100
0000
0010
0000
0001
0000
,  // measure 13
1000
0001
0000
0001
1000
0000
0010
0000
0100
0010
0000
0010
0100
0000
0001
0000
,  // measure 14
1000
0100
0000
0100
1000
0000
0001
0000
0010
0100
0000
0100
0010
0000
0001
0000
,  // measure 15
1000
0100
0001
0100
1000
0100
0001
0100
,  // measure 16
1000
0100
1000
0000
0001
0010
0001
0000
0101
0000
0000
0000
1010
0000
0000
0000
,  // measure 17
2002
0000
0000
3003
,  // measure 18
0220
0000
0000
0330
,  // measure 19
2002
0000
0000
3003
,  // measure 20
0011
2200
3300
1100
,  // measure 21
2002
0000
0000
0000
,  // measure 22
0000
0000
0000
0000
,  // measure 23
0000
0000
0000
0000
,  // measure 24
0000
0000
0000
3003
,  // measure 25
0110
0100
0010
1000
,  // measure 26
0001
0000
1000
0001
0000
0001
1000
0000
,  // measure 27
0100
0001
0100
1000
,  // measure 28
0100
0000
0010
0100
0000
0100
1000
0000
,  // measure 29
0001
1000
0010
0001
,  // measure 30
1000
0000
0100
0001
0000
0001
0100
0000
,  // measure 31
0001
0000
0010
0100
0000
0100
0010
0000
,  // measure 32
0001
0000
1000
0001
0000
0001
1001
0000
,  // measure 33
0120
0130
0010
1010
,  // measure 34
1002
0103
0001
0011
,  // measure 35
2100
3010
0100
0110
,  // measure 36
1002
0013
0100
0110
,  // measure 37
0010
0001
0010
0001
1000
0001
1000
0001
,  // measure 38
0100
0001
0100
0001
1000
0010
1000
0010
,  // measure 39
1000
0000
1000
0010
0000
0010
0100
0000
0100
0001
0000
0001
,  // measure 40
1000
0000
1000
0100
0000
0100
0010
0001
1000
0001
0000
0000
,  // measure 41
0220
0000
0000
0000
,  // measure 42
0000
0000
0000
0330
,  // measure 43
0220
0330
2020
3030
2002
3003
0022
0033
,  // measure 44
0220
0000
0000
0330
,  // measure 45
0011
0000
0001
0000
1000
0000
0010
0000
0100
0010
0100
0000
0010
0000
1000
0000
,  // measure 46
0100
0000
0001
0000
0100
0000
1000
0000
0001
1000
0001
0000
1000
0010
1000
0000
,  // measure 47
0010
0000
0100
0000
0001
0000
1000
0000
0010
0001
0010
0000
1000
0000
0100
0000
,  // measure 48
0010
0000
0100
0000
1000
0000
0001
0000
0100
0001
0100
0000
0010
1000
0010
0000
,  // measure 49
1000
0000
0100
0000
0010
0000
0100
0000
1000
0001
1000
0000
0001
0000
0100
0000
,  // measure 50
1000
0000
0100
0000
0010
0000
1000
0000
0001
0010
0001
0000
1000
0010
1000
0000
,  // measure 51
0001
1000
0100
0020
0000
0100
0130
0000
,  // measure 52
0010
0001
0100
2000
0000
0100
3100
0000
,  // measure 53
0110
0000
0010
0000
1000
0000
0100
0000
0010
0100
1000
0000
0010
0000
0100
0000
,  // measure 54
0001
0000
0010
0000
0100
0000
0010
0000
0001
1000
0010
0000
1000
0010
0100
0000
,  // measure 55
0010
0000
0100
0000
0001
0000
0010
0000
0100
0010
0001
0000
1000
0000
0010
0000
,  // measure 56
0001
0000
0010
0000
1000
0000
0010
0000
0100
0001
1000
0000
1000
0001
0100
0000
,  // measure 57
0001
0000
0010
0000
0100
0000
1000
0000
0100
0010
0001
0000
1000
0000
0010
0000
,  // measure 58
0001
0000
0010
0000
1000
0000
0100
0000
0010
0100
1000
0000
0010
0100
0001
0000
,  // measure 59
0002
0000
0010
0010
0000
1000
1003
0000
,  // measure 60
1000
0000
0100
0200
0000
0010
0310
0000
,  // measure 61
1001
0000
0001
0000
0100
0000
0010
0100
0010
0000
0100
0000
0001
0000
1000
0000
,  // measure 62
0100
0000
0010
0000
0100
0000
1000
0100
1000
0000
0000
0001
0000
0000
0100
0000
,  // measure 63
0010
0000
0000
0100
0000
0000
0001
0000
0000
1000
0000
0000
0001
0000
1000
0000
0001
0000
1000
0000
0100
0000
0010
0000
,  // measure 64
0100
0110
2002
3003
,  // measure 65
1000
0000
0010
0000
0100
0001
0100
0000
0001
0000
0010
0100
0000
0000
0010
0000
,  // measure 66
0001
0000
1000
0001
0000
0000
1000
0000
0010
0000
0100
0010
0000
0010
0100
0000
,  // measure 67
0001
0000
1000
0000
0100
1000
0100
0000
0010
0000
0100
1000
0000
0000
0001
0000
,  // measure 68
0100
0000
1000
0100
0000
0000
0010
0000
0100
0000
0100
0001
0000
0001
1000
0000
,  // measure 69
0001
0000
1000
0000
0100
0010
0100
0000
0010
0000
0001
0100
0000
0000
0010
0000
,  // measure 70
0100
0000
0001
0010
0000
0000
0100
0000
1000
0000
0001
0100
0000
0100
0001
0000
,  // measure 71
1000
0000
0001
0000
0100
0010
0100
0000
0010
0000
1010
0000
0000
0000
1100
0000
,  // measure 72
0000
0011
0000
0110
0000
1001
0000
0110
,  // measure 73
0110
0000
0000
0000
;

//---------------dance-single - ----------------
#NOTES:
     dance-single:
     :
     Medium:
     6:
     0.441,0.546,0.404,0.168,0.017: // measure 1
1001
0000
0000
0001
0000
0000
1000
0000
,  // measure 2
1010
0000
0000
1000
0000
0000
0010
0000
,  // measure 3
0101
0000
0000
0001
0000
0000
0100
0000
,  // measure 4
0110
0000
0000
0010
0000
0000
0100
0000
,  // measure 5
0101
0000
0000
0001
0000
0000
0001
1000
,  // measure 6
0001
0000
0000
1000
0000
0100
1000
0000
,  // measure 7
0011
0000
0000
1000
0000
0000
0001
1000
,  // measure 8
0020
0000
0000
0030
,  // measure 9
0100
0000
0010
0000
1000
0000
0001
1000
,  // measure 10
0001
0000
1000
0000
0100
0000
0010
0001
,  // measure 11
0100
0000
0010
0000
1000
0000
0001
1000
,  // measure 12
0001
0000
1000
0000
0100
0000
0010
0100
,  // measure 13
0010
0000
0001
0010
0001
0000
1000
0001
,  // measure 14
1000
0000
0001
0100
0001
0000
1000
0010
,  // measure 15
0100
0001
0100
0010
,  // measure 16
1000
0010
1000
0010
0100
0000
0101
0000
,  // measure 17
2002
0000
0000
3003
,  // measure 18
0220
0000
0000
0330
,  // measure 19
2002
0000
0000
3003
,  // measure 20
1001
2002
3003
0110
,  // measure 21
0220
0000
0000
0000
,  // measure 22
0000
0000
0000
0000
,  // measure 23
0000
0000
0000
0000
,  // measure 24
0000
0000
0000
0330
,  // measure 25
1001
0001
1000
0001
,  // measure 26
0100
0000
0010
0100
0000
0100
0010
0000
,  // measure 27
0100
0001
1000
0100
,  // measure 28
0010
0000
0001
1000
0000
1000
0001
0000
,  // measure 29
1000
0010
0100
0010
,  // measure 30
1000
0000
0100
0010
0000
0010
0100
0000
,  // measure 31
0010
0000
0001
0010
0000
0010
0001
0000
,  // measure 32
1000
0000
0010
1000
0000
1000
0010
0000
,  // measure 33
0110
0100
0001
1000
,  // measure 34
1001
0001
0010
0100
,  // measure 35
0110
0010
0001
1000
,  // measure 36
1001
1000
0010
0100
,  // measure 37
0110
0110
1010
1010
,  // measure 38
1100
1100
0011
0011
,  // measure 39
1001
1001
0110
0110
,  // measure 40
1010
1100
0011
0101
,  // measure 41
2002
0000
0000
0000
,  // measure 42
0000
0000
0000
3003
,  // measure 43
1010
1100
0011
0101
,  // measure 44
0220
0000
0000
0330
,  // measure 45
0010
1000
0100
0000
0010
0001
0100
0000
,  // measure 46
0010
0000
1000
0001
0000
0001
1000
0000
,  // measure 47
0001
0010
0100
0000
0100
0010
0001
0000
,  // measure 48
1000
0000
0010
0100
0000
0100
0010
0000
,  // measure 49
1000
0100
0010
0000
0100
0010
0001
0000
,  // measure 50
1000
0000
0001
0100
0000
0010
1000
0000
,  // measure 51
0001
0000
0010
0001
0000
1000
0100
0000
,  // measure 52
1000
0000
0010
0100
0000
0100
0010
0000
,  // measure 53
0110
0000
1001
0000
0001
1000
0100
0000
,  // measure 54
0001
0000
0100
1000
0000
1000
0001
0000
,  // measure 55
0100
0000
0010
0000
0001
0010
0100
0000
,  // measure 56
0001
0000
0010
0100
0000
0100
1000
0000
,  // measure 57
1001
0000
0001
0000
0100
0001
0100
0000
,  // measure 58
0010
0000
1000
0100
0000
0100
1000
0000
,  // measure 59
0001
0010
0100
2000
0000
0001
3001
0000
,  // measure 60
1000
0010
0100
0002
0000
1000
1003
0000
,  // measure 61
0001
1000
0001
0000
1000
0100
0010
0100
,  // measure 62
1000
0000
0000
0000
0001
0000
0000
0000
0100
0000
0000
0100
0000
0000
0100
0000
,  // measure 63
0001
0100
0001
0000
1000
0000
0100
0000
,  // measure 64
0101
1100
2002
3003
,  // measure 65
0001
0000
0100
0000
0010
0000
0100
0000
0001
0000
0000
0001
0000
0000
0001
0000
,  // measure 66
0100
0010
0100
0010
,  // measure 67
1000
0100
0010
0100
0001
0000
0100
0000
,  // measure 68
1000
0000
0000
0000
0100
0000
0000
0000
0010
0000
0000
0010
0000
0000
0010
0000
,  // measure 69
0001
0000
1000
0000
0001
0000
0100
0000
0010
0000
0000
0010
0000
0000
0010
0000
,  // measure 70
0100
0001
1000
0100
,  // measure 71
0010
0100
0010
0001
0010
0002
0000
0010
,  // measure 72
0000
1000
0000
0100
0000
1000
0000
1003
,  // measure 73
1001
0000
0000
0000
;

//---------------dance-single - ----------------
#NOTES:
     dance-single:
     :
     Easy:
     5:
     0.331,0.546,0.286,0.126,0.000: // measure 1
1000
0001
1000
0001
,  // measure 2
0100
0001
0100
0001
,  // measure 3
1000
0100
1000
0100
,  // measure 4
0010
0001
0010
0001
,  // measure 5
1001
0000
0001
0100
,  // measure 6
0001
0000
1000
0100
,  // measure 7
1000
0000
0010
0100
,  // measure 8
0020
0000
0000
0030
,  // measure 9
1000
0010
0100
0001
,  // measure 10
0100
0010
1000
1000
,  // measure 11
1000
0001
0010
0100
,  // measure 12
0010
0001
1000
1000
,  // measure 13
1000
0001
0100
0001
,  // measure 14
0010
0001
1000
0001
,  // measure 15
1000
0100
0001
0100
,  // measure 16
1000
0100
0010
0001
,  // measure 17
1001
0000
0000
0000
,  // measure 18
1001
0000
0000
0000
,  // measure 19
1001
0000
0000
0000
,  // measure 20
1001
0000
0000
0000
,  // measure 21
0220
0000
0000
0000
,  // measure 22
0000
0000
0000
0000
,  // measure 23
0000
0000
0000
0000
,  // measure 24
0000
0000
0000
0330
,  // measure 25
1001
1000
0001
0100
,  // measure 26
0001
0000
0000
0001
0000
0000
0001
0000
,  // measure 27
1000
0100
0010
0100
,  // measure 28
1000
0000
0000
1000
0000
0000
1000
0000
,  // measure 29
0010
0100
0001
0010
,  // measure 30
0100
0000
0000
0100
0000
0000
0100
0000
,  // measure 31
0010
0000
0000
0010
0000
0000
0010
0000
,  // measure 32
0001
0000
0000
0001
0000
0000
1001
0000
,  // measure 33
1001
0001
0100
0110
,  // measure 34
0110
0010
1000
1001
,  // measure 35
1001
0001
0010
0110
,  // measure 36
0110
0100
1000
1001
,  // measure 37
1001
0001
1000
0001
,  // measure 38
0100
0010
0100
0010
,  // measure 39
0110
0110
0110
0110
,  // measure 40
1001
1001
1001
1001
,  // measure 41
2002
0000
0000
0000
,  // measure 42
0000
0000
0000
3003
,  // measure 43
1000
0100
0010
0001
,  // measure 44
2002
0000
0000
3003
,  // measure 45
0001
0100
1000
0100
,  // measure 46
0001
0000
0000
1000
0000
0000
0001
0000
,  // measure 47
1000
0100
0001
0100
,  // measure 48
1000
0000
0000
0001
0000
0000
1000
0000
,  // measure 49
0001
0100
0010
1000
,  // measure 50
0010
0000
0000
0100
0000
0000
0001
0000
,  // measure 51
0010
0000
0000
0001
0000
0000
1000
0000
,  // measure 52
0001
0000
0000
1000
0000
0000
0010
0000
,  // measure 53
0100
0010
0100
0010
,  // measure 54
1000
0010
1000
0001
,  // measure 55
0010
0100
0010
0001
,  // measure 56
1000
0100
0010
0001
,  // measure 57
0100
1000
0100
0001
,  // measure 58
1000
0010
0100
0001
,  // measure 59
2002
0000
0000
3003
,  // measure 60
0220
0000
0000
0330
,  // measure 61
1001
0001
0100
0010
,  // measure 62
0110
0100
0020
0030
,  // measure 63
0110
0100
0001
1000
,  // measure 64
2002
0000
0000
3003
,  // measure 65
1001
0001
0100
0001
,  // measure 66
1000
0100
0010
0010
,  // measure 67
0010
0100
0010
0001
,  // measure 68
0100
0010
1000
1000
,  // measure 69
1000
0010
0100
0001
,  // measure 70
0010
0001
0100
0100
,  // measure 71
0100
0001
1000
0002
,  // measure 72
0003
1000
0000
0001
0000
1000
0000
0001
,  // measure 73
1000
0000
0000
0000
;

//---------------dance-single - ----------------
#NOTES:
     dance-single:
     :
     Beginner:
     2:
     0.164,0.242,0.143,0.000,0.000: // measure 1
1000
0000
0000
0000
,  // measure 2
1000
0000
0000
0000
,  // measure 3
0001
0000
0000
0000
,  // measure 4
0001
0000
0000
0000
,  // measure 5
0100
0000
0000
0000
,  // measure 6
0010
0000
0000
0000
,  // measure 7
0100
0000
0001
0000
,  // measure 8
1001
0000
0000
0000
,  // measure 9
1000
0000
0001
0000
,  // measure 10
0100
0000
0001
0000
,  // measure 11
1000
0000
0001
0000
,  // measure 12
1000
0000
0100
0000
,  // measure 13
0010
0000
0000
0000
,  // measure 14
0100
0000
0000
0000
,  // measure 15
0010
0000
0001
0000
,  // measure 16
1000
0000
0001
0000
,  // measure 17
1001
0000
0000
0000
,  // measure 18
1001
0000
0000
0000
,  // measure 19
1001
0000
0000
0000
,  // measure 20
1001
0000
0000
0000
,  // measure 21
1001
0000
0000
0000
,  // measure 22
0000
0000
0000
0000
,  // measure 23
0000
0000
0000
0000
,  // measure 24
0000
0000
0000
0000
,  // measure 25
1001
0000
0000
0000
,  // measure 26
0001
0000
0100
0000
,  // measure 27
0001
0000
0000
0000
,  // measure 28
1000
0000
0100
0000
,  // measure 29
1000
0000
0000
0000
,  // measure 30
0001
0000
1000
0000
,  // measure 31
0001
0000
0000
0000
,  // measure 32
1000
0000
0010
0010
,  // measure 33
0010
0000
0000
0000
,  // measure 34
0110
0000
0000
0000
,  // measure 35
0110
0000
0000
0000
,  // measure 36
1001
0000
0000
0000
,  // measure 37
1001
0000
0001
0000
,  // measure 38
1000
0000
0001
0000
,  // measure 39
0100
0000
0010
0000
,  // measure 40
0100
0100
0100
0100
,  // measure 41
0100
0000
0000
0000
,  // measure 42
0000
0000
0000
0000
,  // measure 43
0001
0000
1000
0000
,  // measure 44
1001
0000
0000
0000
,  // measure 45
1000
0000
0100
0000
,  // measure 46
0001
0000
0100
0000
,  // measure 47
1000
0000
0001
0000
,  // measure 48
1000
0000
0010
0000
,  // measure 49
0100
0000
0001
0000
,  // measure 50
0010
0000
0001
0000
,  // measure 51
1000
0000
1000
0000
,  // measure 52
0100
0000
0100
0000
,  // measure 53
0010
0000
0100
0000
,  // measure 54
0010
0000
0001
0000
,  // measure 55
0100
0000
1000
0000
,  // measure 56
0100
0000
0001
0000
,  // measure 57
1000
0000
0001
0000
,  // measure 58
1000
0000
0100
0000
,  // measure 59
0110
0000
0000
0000
,  // measure 60
1001
0000
0000
0000
,  // measure 61
1000
0000
0001
0000
,  // measure 62
0100
0000
0010
0000
,  // measure 63
0100
0000
0001
0000
,  // measure 64
1000
0000
1001
0000
,  // measure 65
1001
0000
0001
0000
,  // measure 66
0100
0000
0010
0010
,  // measure 67
0010
0000
0100
0000
,  // measure 68
0001
0000
1000
1000
,  // measure 69
1000
0000
0001
0000
,  // measure 70
0010
0000
0100
0100
,  // measure 71
0100
0000
0010
0000
,  // measure 72
0001
0001
0001
0001
,  // measure 73
1001
0000
0000
0000
;

//---------------dance-single - ----------------
#NOTES:
     dance-single:
     :
     Challenge:
     10:
     0.813,0.940,0.707,0.328,0.749: // measure 1
1000
0000
0000
0100
0000
0000
0001
0000
0000
0100
0000
0000
1000
0000
0001
0000
,  // measure 2
1000
0000
0000
0010
0000
0000
0001
0000
0000
0010
0000
0000
1000
0000
0001
0010
,  // measure 3
0001
0000
0000
0100
0000
0000
0010
0000
0000
0100
0000
0000
0001
0000
1000
0000
,  // measure 4
0100
0000
0000
0001
0000
0000
0100
0000
0000
1000
0000
0000
0001
1000
0010
1000
,  // measure 5
0010
0000
0000
1010
0000
0000
1000
0000
0000
1100
0000
0000
0100
0000
0010
0000
,  // measure 6
0001
0000
0000
1001
0000
0000
1000
0000
0000
1010
0000
0000
0010
0100
0001
0100
,  // measure 7
0010
0000
0000
1010
0000
0000
1000
0000
0000
1001
0000
0000
0011
0000
0110
0000
,  // measure 8
0022
0000
0000
0033
,  // measure 9
0001
0000
1000
0010
0000
0010
1000
0000
0001
0100
0001
0000
1000
0100
1000
0000
,  // measure 10
0001
0000
0010
0100
0000
0100
0010
0000
0001
1000
0001
0000
1000
0010
1000
0010
,  // measure 11
0100
0000
0010
1000
0000
1000
0010
0000
0100
0001
0100
0000
0001
0010
0001
0000
,  // measure 12
1000
0000
0100
0010
0000
0010
0100
0000
0010
0001
0010
0000
0001
1000
0001
1000
,  // measure 13
0001
0100
0000
0100
0010
0100
0010
0000
0010
1000
0000
1000
0001
1000
0001
0000
,  // measure 14
0001
0010
0000
0010
0100
0010
0100
0000
0100
1000
0000
1000
0001
1000
0001
0000
,  // measure 15
0100
0001
0100
0000
0100
0010
0100
0000
0100
1000
0100
0000
0100
0010
0100
0000
,  // measure 16
0010
1000
0001
0100
0001
0010
0100
1000
0100
0000
0000
0000
0011
0000
0000
0000
,  // measure 17
2002
0000
0000
3003
,  // measure 18
0220
0000
0000
0330
,  // measure 19
2002
0000
0000
3003
,  // measure 20
1010
0202
0303
0011
,  // measure 21
2200
0000
0000
0000
,  // measure 22
0000
0000
0000
0000
,  // measure 23
0000
0000
0000
0000
,  // measure 24
0000
0000
0000
3300
,  // measure 25
1001
0101
1010
1100
,  // measure 26
0021
0000
0001
0032
0000
1000
1003
0000
,  // measure 27
1001
1010
0011
1010
,  // measure 28
1002
0000
0100
0203
0000
0010
0310
0000
,  // measure 29
1010
1100
0011
0101
,  // measure 30
0120
0000
1000
2030
0000
0001
3001
0000
,  // measure 31
1001
0000
0011
0011
0000
1100
1100
0000
,  // measure 32
1001
0000
1010
1010
0000
0101
0101
0000
,  // measure 33
1002
0010
1003
0101
,  // measure 34
0120
1000
0130
1010
,  // measure 35
1200
0010
1300
1100
,  // measure 36
0200
0010
0301
1100
,  // measure 37
1000
0100
0000
0010
0001
0000
0000
1000
0010
1000
0000
0001
0100
0000
0000
0001
,  // measure 38
0010
0001
0000
1000
0100
1000
0000
0001
0100
0001
0000
1000
0010
0100
0001
0100
,  // measure 39
0001
0100
0001
0100
1000
0100
1000
0100
0010
1000
0100
0010
,  // measure 40
0001
0100
1000
0001
0010
1000
0001
0010
0100
1000
0000
0000
,  // measure 41
2002
0000
0000
0000
,  // measure 42
0000
0000
0000
3003
,  // measure 43
1001
0100
1001
0010
1001
0100
1001
0110
,  // measure 44
2002
3000
0200
0303
,  // measure 45
0001
1000
0001
1000
0100
0000
0010
0000
0100
0010
0100
0000
0010
0001
0010
0000
,  // measure 46
0001
0100
0010
0100
0001
0000
1000
0000
0001
1000
0100
0000
0010
0100
1000
0000
,  // measure 47
0001
1000
0010
1000
0010
0000
0100
0000
0001
0010
0100
0000
0010
0001
1000
0000
,  // measure 48
0001
0100
1000
0100
0001
0000
1000
0000
0001
0010
1000
0000
0001
0010
1000
0000
,  // measure 49
0010
0001
0010
0001
1000
0000
0010
0000
0001
0000
0100
0000
1000
0000
0010
0000
,  // measure 50
0001
0010
0001
0010
0100
0000
0001
0000
0010
0000
1000
0000
0100
0010
0001
0000
,  // measure 51
0101
0100
0110
0101
0001
1001
1100
0000
,  // measure 52
1001
0001
0011
0110
0100
1100
1001
0000
,  // measure 53
1000
0001
1000
0001
0100
0001
0100
0001
0010
0000
0100
0000
0010
0000
0001
0000
,  // measure 54
1000
0001
1000
0001
0010
0001
0010
0001
0100
0000
0010
0000
0100
0001
0100
0000
,  // measure 55
0010
1000
0010
1000
0001
0100
0001
0100
0001
0000
0010
0000
0001
0000
1000
0000
,  // measure 56
0100
0010
0100
0010
0001
0010
0001
0010
0100
0000
1000
0000
0001
0100
0001
0000
,  // measure 57
1000
0100
0010
0001
1000
0100
0010
0001
1000
0000
0001
0000
0100
0000
0001
0000
,  // measure 58
1000
0010
0100
0001
1000
0010
0100
0001
0010
0000
0001
0000
1000
0001
1000
0000
,  // measure 59
0001
0010
0100
0010
0001
0010
0100
1000
0100
0010
0000
0001
1000
0001
1000
0000
,  // measure 60
0210
0000
0010
0010
0000
0001
0301
0000
,  // measure 61
1001
0000
0100
0000
0010
0000
1000
0100
0010
0000
0100
0000
1000
0000
0001
0000
,  // measure 62
1010
0000
0100
0000
0001
0000
0010
0001
1100
0000
0000
0011
0000
0000
0101
0000
,  // measure 63
1010
0000
0000
0000
0000
0000
0101
0000
0000
0000
0000
0000
0001
0000
0000
0000
0000
0000
0010
0000
0000
0001
0000
0000
1000
0000
0000
0000
0100
0000
0000
0000
0001
0000
0000
0000
0010
0000
0000
0000
0001
0000
0000
0000
0100
0000
0000
0000
,  // measure 64
1000
0010
0100
0001
0100
0010
2000
0000
0000
3000
0000
0000
,  // measure 65
0011
0000
0011
0000
0001
1000
0001
1000
0010
0000
0100
0000
0010
0100
0010
0100
,  // measure 66
0001
0000
0010
0000
0001
0010
0100
0010
0001
0000
1000
0000
0010
0100
0001
0000
,  // measure 67
1000
0000
0100
0000
0001
0100
1000
0100
0010
0000
0100
0000
0010
0001
0100
0001
,  // measure 68
1000
0000
0001
0000
0100
1000
0100
0001
0010
0001
1000
0001
1000
0100
0010
0000
,  // measure 69
1001
0000
0001
0000
0100
1000
0100
0001
0100
0000
0010
0000
1000
0100
0001
0100
,  // measure 70
1000
0000
0001
0000
0010
0001
0010
0100
0010
0000
0001
1000
0000
1000
0001
0000
,  // measure 71
0100
0000
0010
0000
1000
0010
0100
0001
0010
0000
2200
0000
3300
0000
2002
0000
,  // measure 72
3003
0022
0033
0202
0303
2020
3030
0110
,  // measure 73
1001
0000
0000
0000
;
