#TITLE:Session 9;
#SUBTITLE:-Chronicles-;
#ARTIST:PRASTIK DANCEFLOOR;
#TITLETRANSLIT:;
#SUBTITLETRANSLIT:;
#ARTISTTRANSLIT:;
#CREDIT:;
#BANNER:;
#BACKGROUND:;
#LYRICSPATH:;
#CDTITLE:;
#MUSIC:Session 9 -Chronicles-.mp3;
#OFFSET:-1.350;
#SAMPLESTART:55.550;
#SAMPLELENGTH:15.220;
#SELECTABLE:YES;
#BPMS:0.000=182.000,56.000=364.000,88.000=189.000,222.000=378.000,236.000=94.500,252.000=189.000;
#STOPS:234.000=0.952;
#DISPLAYBPM:95:189;
#BGCHANGES:;

//---------------dance-single - ----------------
#NOTES:
     dance-single:
     :
     Hard:
     9:
     0.621,0.696,0.422,0.049,0.187:
1001
0000
0000
0001
0000
0100
0001
0000
0000
0000
0000
0000
,
1001
0000
0000
1000
0000
0100
1000
0000
0000
0000
0000
0000
,
0011
0000
0000
0001
0000
0001
0010
0000
0000
0100
0000
0100
,
1000
0000
0000
1000
0000
1000
0001
0000
0000
1001
0000
0000
,
0110
0000
0000
0010
0000
0010
1000
0000
0000
0000
0000
0000
,
1001
0000
0000
1000
0000
1000
0001
0000
0000
0000
0000
0000
,
0011
0000
0000
0010
0001
0010
0001
0000
0000
0001
0000
0001
,
1000
0000
0000
1000
0000
1000
0010
0000
0000
0110
0000
0000
,
1001
0000
0000
1000
0100
1000
0100
0000
0000
0010
0000
0000
,
0011
0000
0000
0001
1000
0001
1000
0000
0000
0001
0000
0000
,
0101
0000
0000
0100
0001
0100
0001
0000
0000
1000
0001
1000
,
0001
0000
0000
1000
0100
1000
0100
0000
0000
0110
0000
0000
,
0010
0000
0010
0001
0000
0001
1000
0000
1000
0010
0000
0010
,
0100
0000
0100
0001
0000
0001
1000
0000
1000
0100
2000
0002
,
0000
0000
0000
0000
,
0000
0000
0000
0000
,
0000
0000
0000
0000
,
0000
0000
0000
0000
,
0000
0000
0000
0000
,
0000
0000
0000
0000
,
0000
0000
0000
0000
,
0000
0000
3003
0000
,
1001
0000
1000
0100
0000
0010
0001
0000
,
1000
0001
1000
0001
0000
0100
0001
0010
,
0100
0000
0010
0001
0000
0001
1000
0000
,
0001
0100
0010
1000
0000
0010
0000
1000
,
1001
0000
0001
0010
0000
0010
0001
0000
,
1000
0010
0100
0000
0010
1000
0100
0010
,
0100
0000
0010
0001
0000
0001
1000
0000
,
0010
0100
0010
0000
1000
0001
0010
0100
,
0010
0000
0001
0010
0000
0010
0001
0000
,
1000
0010
0001
0010
0000
0110
0000
0100
,
0001
0000
0010
0001
0000
1000
0010
0000
,
1000
0100
0010
0001
0100
0010
1000
0001
,
0011
0000
0010
0001
0000
0001
1000
0000
,
0010
0100
0001
0010
0000
0100
0010
0001
,
0010
0000
0001
1000
0000
0001
1000
0000
,
1010
0000
0000
1001
0000
0000
0011
0000
0000
0110
0000
0000
1000
0000
0001
0000
,
1001
0000
1000
0010
0000
0010
0100
0001
,
0010
0001
0101
1100
,
1000
0000
0100
0001
0000
0001
1000
0100
,
0010
0110
1100
1001
,
0001
0100
0010
1000
0100
0010
0100
1000
,
0001
0000
0100
1000
0000
1000
0100
0001
,
0010
0000
0001
0010
0000
0001
1000
0010
,
0100
0001
0010
0100
0010
0001
1000
0001
,
0101
0000
0001
1000
0000
0001
1000
0100
,
0010
0000
0100
1000
0000
0100
0010
0001
,
0100
0000
0010
0100
0001
0010
0100
0010
,
0001
0000
1000
0010
0100
0001
0010
0001
,
1000
0000
0010
0100
0000
0100
0001
0010
,
0100
0000
0010
0001
1000
0001
0100
0010
,
0100
0000
0010
1000
0000
1000
0001
0000
,
1000
0100
0010
0001
0100
0110
0000
0000
,
1010
0000
1000
1100
0000
0100
0110
0000
,
0010
0011
0000
0001
2002
0000
0000
0000
,
0000
0000
0000
0000
,
0000
0000
0000
0000
,
0000
0000
3003
0000
,
1000
0000
0000
0000
0001
0000
0000
0000
0010
0000
0000
0000
0100
0000
0000
0010
,
0001
0000
0100
0000
1000
0000
0100
0001
,
1001
1000
1100
0100
0110
0010
0011
0001
,
1001
0000
0000
0000
0000
0000
0000
0000
0000
1010
0000
0000
0000
0000
0000
0000
0000
0000
0101
0000
0000
0000
0000
0000
1001
0000
0000
0000
0000
0000
0000
0000
0000
0000
0000
0000
1000
0000
0000
0000
0100
0000
0000
0000
0010
0000
0000
0000
,
2002
0000
0000
0000
,
0000
0000
0000
0000
,
0000
0000
0000
0000
,
0000
0000
0000
3003
,
1001
0000
1000
0010
0000
0100
0001
0010
,
0100
0000
0000
1000
0000
0000
0100
0000
0010
0000
0000
0001
0000
0000
0010
0000
,
0001
0100
1000
0100
0010
1000
0100
0010
,
0100
0000
0000
0010
0000
0000
0100
0000
1000
0000
0001
0000
0100
0000
0010
0000
,
1010
0000
1000
1100
0000
0100
0010
0001
,
0011
0000
0001
0101
0000
0100
0010
1000
,
0100
0001
0100
1000
0000
0001
0100
1000
,
0100
0001
0010
0100
0010
0001
1000
0010
,
0110
0000
0100
0001
0010
0100
0010
0001
,
1000
0000
0000
0100
0000
0000
0010
0000
0001
0000
0000
0100
0000
0000
0010
0000
,
1000
0001
1000
0001
0010
0100
0010
0001
,
1000
0000
0000
0001
0000
0000
0100
0000
0010
0000
0100
0000
0001
0000
1000
0000
,
1100
0000
0100
0110
0000
0010
0001
0100
,
0110
0000
0010
1010
0000
1000
0100
0001
,
0100
0000
0000
1000
0000
0000
0100
0000
0010
0000
0000
0001
0000
0000
1000
0000
,
0100
0010
0001
0010
0001
1000
0010
1000
,
0010
0001
0010
1000
0100
0001
0100
1000
,
0100
0010
0001
0100
0010
1000
0001
0100
,
1000
0100
0010
1000
0001
1000
0100
0010
,
0001
0010
0100
1000
0001
0100
0010
1000
,
0001
0100
1000
0100
0001
0010
0100
0010
,
0001
1000
0100
0001
1000
0010
0001
0100
,
1000
0001
0010
1000
0001
0100
0010
1000
,
0001
1000
0001
1000
0001
0000
0000
0000
0000
0000
0000
0000
0000
0000
0000
0000
;

//---------------dance-single - ----------------
#NOTES:
     dance-single:
     :
     Medium:
     8:
     0.540,0.623,0.422,0.049,0.065:
1001
0001
0101
0000
,
1001
1000
1100
0000
,
0110
0010
0001
0100
,
1000
0100
0001
1000
,
1001
0001
0010
0000
,
0110
0100
1000
0000
,
1001
0000
0000
1000
0000
0000
0010
0000
0000
0100
0000
0100
,
0001
1000
0001
0010
,
0110
1100
1001
0000
,
1001
0101
0110
0000
,
0101
0101
0110
0110
,
1010
1010
1001
1001
,
1000
0000
0001
1000
0000
0000
0001
0000
0100
0001
0000
0000
,
1000
0000
0010
1000
0000
0000
0010
0000
0100
0010
0200
0020
,
0000
0000
0000
0000
,
0000
0000
0000
0000
,
0000
0000
0000
0000
,
0000
0000
0000
0000
,
0000
0000
0000
0000
,
0000
0000
0000
0000
,
0000
0000
0000
0000
,
0000
0000
0330
0000
,
1001
0000
1000
0100
0000
0010
0001
0000
,
1000
0001
1000
0000
0010
0100
0010
0000
,
0100
0000
0001
0100
0000
0010
1000
0000
,
0001
0000
1000
0000
0100
0010
0100
0010
,
0001
0000
1000
0010
0000
0010
1000
0000
,
0001
0100
0001
0000
1000
0010
0100
0000
,
0010
0000
0100
0001
0000
0001
1000
0000
,
0001
0010
0100
0010
0000
1001
0000
0000
,
1001
0000
0001
0100
0000
0100
0001
0000
,
1000
0100
1000
0000
0001
0100
0001
0000
,
1001
0000
1000
0010
0000
0010
0100
0000
,
0010
0100
0001
0000
0010
0100
1000
0100
,
0010
0000
0100
1000
0000
1000
0001
0000
,
1000
0010
0100
0010
0000
0110
0000
0100
,
0001
0000
0001
1000
0000
1000
0100
0000
,
1000
0000
0000
0100
0000
0000
0010
0000
0000
0001
0000
0000
1000
0000
0001
0000
,
1001
0000
1000
0010
0000
0100
0001
0000
,
0100
0000
0001
1000
0000
1000
0100
0010
,
0100
0000
0010
0001
0000
0001
0010
0001
,
0100
0000
0010
0100
0010
1000
0001
0000
,
1001
0000
0001
0010
0000
0100
1000
0000
,
0001
0000
1000
0010
0000
0100
0001
0010
,
0100
0000
0010
0001
0000
0001
1000
0000
,
0010
1000
0010
0100
0001
0100
0001
0000
,
1010
0000
0010
1000
0000
1000
0100
0000
,
0110
0000
0010
0001
0000
0001
1000
0000
,
1001
0000
0001
0100
0000
0010
1000
0100
,
0010
0000
0100
1000
0001
1000
0010
0000
,
0110
0000
0100
0001
0010
0000
0001
1000
,
0100
0000
0010
0001
0100
0000
0010
0000
,
0110
0000
0100
0001
0000
0001
1000
0000
,
0001
0010
0001
1000
0010
1000
0001
0100
,
0110
0000
0000
1010
0000
0000
1100
0000
,
0000
0110
0000
0000
2002
0000
0000
0000
,
0000
0000
0000
0000
,
0000
0000
0000
0000
,
0000
0000
3003
0000
,
1000
0000
0000
0000
1000
0000
0000
0000
0001
0000
0000
0000
0001
0000
0000
0001
,
0100
0100
0010
0010
,
1000
0100
0010
0001
0100
0010
1000
0001
,
1001
0000
0000
0000
0000
0000
0000
0000
0000
1000
0000
0000
0000
0000
0000
0000
0000
0000
0010
0000
0000
0000
0000
0000
0110
0000
0000
0000
0000
0000
0000
0000
0000
0000
0000
0000
0100
0000
0000
0000
0010
0000
0000
0000
0200
0000
0000
0000
,
0020
0000
0000
0000
,
0000
0000
0000
0000
,
0000
0000
0000
0000
,
0000
0000
0000
0330
,
1000
0010
1000
0001
0000
0010
0001
0100
,
0010
0000
0000
1000
0000
0000
0010
0000
0100
0000
0000
0001
0000
0000
0100
0000
,
0001
1000
0100
0010
0001
1000
0001
0000
,
1000
0000
0000
0001
0000
0000
0100
0000
0010
0000
0000
0000
1001
0000
0000
0000
,
0011
0000
1000
0100
0000
0100
1000
0000
,
1001
0000
0001
0100
0000
0100
0001
0000
,
1000
0001
1000
0001
1000
0001
0010
0000
,
0001
0010
0100
0010
0001
0000
1001
0000
,
1000
0010
0100
0001
0000
0010
0001
0100
,
0010
0000
1000
0010
0000
0100
0001
0000
,
1000
0100
0001
0100
1000
0100
0010
0000
,
0110
0000
0100
1000
0000
1000
0001
0000
,
0101
0000
0001
1000
0000
1000
0001
0000
,
0011
0000
0010
0100
0000
0100
0010
0000
,
1001
0000
1000
0010
0100
0001
0100
0000
,
1001
0000
1000
0100
1000
0100
1000
0000
,
0001
0000
0010
0001
0010
0001
0010
0000
,
0001
0000
0100
0010
1000
0010
0100
0000
,
0001
0000
0010
0001
0100
0001
0010
0000
,
1001
0000
1000
0100
0010
0001
0100
0000
,
0010
0000
0100
0001
0010
0100
0010
0000
,
0001
0000
1000
0100
0001
0100
1000
0000
,
0001
1000
0001
1000
0010
0100
0010
0100
,
0001
1000
1001
0000
0000
0000
0000
0000
;

//---------------dance-single - ----------------
#NOTES:
     dance-single:
     :
     Easy:
     5:
     0.378,0.476,0.390,0.114,0.000: // measure 1
1001
0001
0100
0000
,  // measure 2
0010
0100
0001
0000
,  // measure 3
1000
0100
0010
0001
,  // measure 4
0100
0010
1000
0001
,  // measure 5
0010
0100
0010
0000
,  // measure 6
0100
1000
0100
0000
,  // measure 7
0010
0001
0100
0010
,  // measure 8
0100
0001
1000
0001
,  // measure 9
0100
0010
0110
0000
,  // measure 10
0100
0001
1001
0000
,  // measure 11
1000
0100
0010
0100
,  // measure 12
1000
0001
0100
0010
,  // measure 13
0100
0110
0010
1010
,  // measure 14
1000
1100
0100
0220
,  // measure 15
0000
0000
0000
0000
,  // measure 16
0000
0000
0000
0000
,  // measure 17
0000
0000
0000
0000
,  // measure 18
0000
0000
0000
0000
,  // measure 19
0000
0000
0000
0000
,  // measure 20
0000
0000
0000
0000
,  // measure 21
0000
0000
0000
0000
,  // measure 22
0000
0000
0330
0000
,  // measure 23
1001
0000
0000
1000
0000
0000
0001
0000
,  // measure 24
0100
0001
1000
0100
,  // measure 25
0010
0000
0000
0100
0000
0000
0010
0000
,  // measure 26
0001
1000
0001
0100
,  // measure 27
0010
0000
0000
0100
0000
0000
0010
0000
,  // measure 28
1000
0001
1000
0100
,  // measure 29
0010
0000
0000
0001
0000
0000
0010
0000
,  // measure 30
0001
1000
0001
0100
,  // measure 31
0110
0000
0000
1010
0000
0000
2002
0000
,  // measure 32
3003
1000
0100
0010
,  // measure 33
0011
0000
0000
1001
0000
0000
2020
0000
,  // measure 34
3030
0010
0100
0001
,  // measure 35
0011
0000
0000
1100
0000
0000
2002
0000
,  // measure 36
3003
0001
0100
0010
,  // measure 37
0110
0000
0000
0101
0000
0000
1001
0000
,  // measure 38
0220
0000
0000
0330
,  // measure 39
0100
0010
1000
0001
,  // measure 40
0010
0100
0010
0001
,  // measure 41
1000
0100
0010
0001
,  // measure 42
1000
0010
0100
0001
,  // measure 43
1000
0100
0001
0100
,  // measure 44
1000
0010
0001
0010
,  // measure 45
1000
0001
0010
0100
,  // measure 46
0010
0010
0100
0100
,  // measure 47
0110
0010
0001
0100
,  // measure 48
0010
0100
0010
0001
,  // measure 49
1000
0010
0100
0010
,  // measure 50
1000
0100
0010
0001
,  // measure 51
1000
0010
0001
0010
,  // measure 52
1000
0100
0001
0100
,  // measure 53
1000
0100
0010
0001
,  // measure 54
0100
0010
1000
0001
,  // measure 55
1001
0000
0000
1001
0000
0000
0110
0000
,  // measure 56
0000
0110
0000
0000
2002
0000
0000
0000
,  // measure 57
0000
0000
0000
0000
,  // measure 58
0000
0000
0000
0000
,  // measure 59
0000
0000
3003
0000
,  // measure 60
1000
1000
1000
1000
,  // measure 61
0100
0100
0100
0100
,  // measure 62
0010
0010
0010
0010
,  // measure 63
0110
0000
1001
1001
,  // measure 64
2002
0000
0000
0000
,  // measure 65
0000
0000
0000
0000
,  // measure 66
0000
0000
0000
0000
,  // measure 67
0000
0000
0000
3003
,  // measure 68
1000
0010
1000
0010
,  // measure 69
0100
0000
0010
0100
,  // measure 70
0001
0010
0100
0010
,  // measure 71
0001
0000
1000
0010
,  // measure 72
0110
0000
0010
0001
,  // measure 73
0100
0010
1000
0001
,  // measure 74
0101
0000
0001
1000
,  // measure 75
1100
0000
1001
0110
,  // measure 76
1001
1000
0100
0010
,  // measure 77
0100
0010
0001
0100
,  // measure 78
0010
1000
0001
1000
,  // measure 79
0100
0010
0100
0000
,  // measure 80
0011
0001
0100
0000
,  // measure 81
1010
1000
0100
0000
,  // measure 82
0010
0100
1000
0001
,  // measure 83
1001
0000
0000
1001
0000
0000
0000
0000
,  // measure 84
1000
0100
0010
0001
,  // measure 85
1001
0000
0000
1001
0000
0000
0000
0000
,  // measure 86
0001
0100
0010
0100
,  // measure 87
0110
0000
0000
0110
0000
0000
0000
0000
,  // measure 88
0100
0010
1000
0100
,  // measure 89
0110
0000
0000
0110
0000
0000
0100
0000
,  // measure 90
0010
0001
1000
0001
,  // measure 91
0100
0110
0000
0000
;

//---------------dance-single - ----------------
#NOTES:
     dance-single:
     :
     Beginner:
     2:
     0.180,0.220,0.146,0.041,0.000: // measure 1
1001
0000
0000
0000
,  // measure 2
1000
0000
0000
0000
,  // measure 3
0100
0000
0000
0000
,  // measure 4
0010
0000
0001
0000
,  // measure 5
1001
0000
0000
0000
,  // measure 6
1000
0000
0000
0000
,  // measure 7
0001
0000
0000
0000
,  // measure 8
0100
0000
0010
0000
,  // measure 9
0110
0000
0000
0000
,  // measure 10
1001
0000
0000
0000
,  // measure 11
1000
0000
0100
0000
,  // measure 12
0010
0000
0001
0000
,  // measure 13
1001
0000
1000
0000
,  // measure 14
0100
0000
0010
0020
,  // measure 15
0000
0000
0000
0000
,  // measure 16
0000
0000
0000
0000
,  // measure 17
0000
0000
0000
0000
,  // measure 18
0000
0000
0000
0000
,  // measure 19
0000
0000
0000
0000
,  // measure 20
0000
0000
0000
0000
,  // measure 21
0000
0000
0000
0000
,  // measure 22
0000
0000
0030
0000
,  // measure 23
1001
0000
0000
0000
,  // measure 24
1000
0000
0010
0000
,  // measure 25
0100
0000
0000
0000
,  // measure 26
0010
0000
0100
0000
,  // measure 27
0001
0000
0000
0000
,  // measure 28
1000
0000
0001
0000
,  // measure 29
1000
0000
0000
0000
,  // measure 30
0001
0000
0010
0000
,  // measure 31
0110
0000
0000
0000
,  // measure 32
0100
0000
0010
0000
,  // measure 33
0001
0000
0000
0000
,  // measure 34
1000
0000
0001
0000
,  // measure 35
1000
0000
0000
0000
,  // measure 36
0010
0000
1000
0000
,  // measure 37
0001
0000
0010
0000
,  // measure 38
0110
0000
0000
0000
,  // measure 39
1001
0000
0000
0000
,  // measure 40
1000
0000
0010
0000
,  // measure 41
0100
0000
0001
0000
,  // measure 42
1000
0000
0001
0000
,  // measure 43
0010
0000
0000
0000
,  // measure 44
0100
0000
0010
0000
,  // measure 45
0001
0000
1000
0000
,  // measure 46
0010
0000
0100
0000
,  // measure 47
0110
0000
0000
0000
,  // measure 48
1000
0000
0001
0000
,  // measure 49
0010
0000
0100
0000
,  // measure 50
0010
0000
0001
0000
,  // measure 51
1000
0000
1000
0000
,  // measure 52
0001
0000
0001
0000
,  // measure 53
0100
0000
0010
0000
,  // measure 54
1000
0000
0001
0000
,  // measure 55
1001
0000
0000
0000
,  // measure 56
0000
0000
0220
0000
,  // measure 57
0000
0000
0000
0000
,  // measure 58
0000
0000
0000
0000
,  // measure 59
0000
0000
0330
0000
,  // measure 60
1001
0000
1000
0000
,  // measure 61
0100
0000
0010
0000
,  // measure 62
0001
0000
1000
0000
,  // measure 63
0001
0000
0100
0000
,  // measure 64
0220
0000
0000
0000
,  // measure 65
0000
0000
0000
0000
,  // measure 66
0000
0000
0000
0000
,  // measure 67
0000
0000
0000
0330
,  // measure 68
0110
0000
0010
0000
,  // measure 69
0100
0000
0001
0000
,  // measure 70
1000
0000
1000
0000
,  // measure 71
0001
0000
0001
0000
,  // measure 72
0010
0000
0100
0000
,  // measure 73
0010
0000
0001
0000
,  // measure 74
1000
0000
1000
0000
,  // measure 75
0001
0000
0001
0000
,  // measure 76
0100
0000
0010
0000
,  // measure 77
1000
0000
0001
0000
,  // measure 78
0010
0000
0010
0000
,  // measure 79
0100
0000
0100
0000
,  // measure 80
0010
0000
0001
0000
,  // measure 81
1000
0000
1000
0000
,  // measure 82
0010
0000
0100
0000
,  // measure 83
0110
0000
0000
0000
,  // measure 84
0010
0000
1000
0000
,  // measure 85
0001
0000
0100
0000
,  // measure 86
0001
0000
0010
0000
,  // measure 87
0100
0000
1000
0000
,  // measure 88
0100
0000
0010
0000
,  // measure 89
0100
0000
1000
0000
,  // measure 90
0001
0000
1000
0000
,  // measure 91
1001
1001
0000
0000
;

//---------------dance-single - ----------------
#NOTES:
     dance-single:
     :
     Challenge:
     10:
     0.872,1.000,0.812,0.179,0.637:
1001
0000
0000
0001
1000
0001
1000
0000
0000
0000
0000
0000
,
0110
0000
0000
0010
0100
0010
0100
0000
0000
0000
0000
0000
,
1001
0000
0000
1000
0100
1000
0100
0000
0000
0010
0001
0010
,
0001
0000
0000
0100
0001
0100
0010
1000
0010
1000
0000
0000
,
1001
0000
0000
0001
0100
1000
0100
0000
0000
0000
0000
0000
,
1001
0000
0000
0001
0010
1000
0010
0000
0000
0000
0000
0000
,
1001
0000
0000
1000
0100
0010
0001
0000
0000
0001
0100
0010
,
1000
0000
0000
0001
1000
0001
1000
0010
0100
0010
0000
0000
,
1001
0000
0000
0001
0010
0100
0010
0000
0000
0100
0000
0000
,
1001
0000
0000
1000
0010
0100
0010
0000
0000
0100
0000
0000
,
1001
0000
0000
0001
0010
0100
0010
0000
0000
0100
0010
0100
,
1000
0000
0000
0001
1000
0001
0100
0000
0000
0110
0000
0000
,
1001
0000
0001
0100
0000
0100
0010
0000
0010
1000
0000
1000
,
0100
0000
0100
0010
0000
0010
0001
1000
0010
0100
0002
2000
,
0000
0000
0000
0000
,
0000
0000
0000
0000
,
0000
0000
0000
0000
,
0000
0000
0000
0000
,
0000
0000
0000
0000
,
0000
0000
0000
0000
,
0000
0000
0000
0000
,
0000
0000
3003
0000
,
1001
0000
0001
0101
0000
0100
0110
0000
,
0010
1000
0100
0001
0100
1000
0001
0100
,
0101
0000
0001
0011
0000
0100
1100
0000
,
1000
0010
0001
1000
0000
0100
0001
0100
,
0110
0000
0010
1010
0000
1000
1001
0000
,
0001
0010
0100
0010
0001
0100
1000
0100
,
0110
0000
0010
1010
0000
1000
1001
0000
,
0001
1000
0100
0110
0000
0011
0000
0001
,
0101
0000
0100
0010
1000
0100
0110
0000
,
0010
0100
0010
0001
1000
0010
0001
0010
,
1010
0000
1000
0100
0010
0001
0011
0000
,
0010
0001
0100
0010
1000
0001
1000
0010
,
0110
0000
0010
1010
0000
1000
1001
0000
,
0001
0010
0001
0100
1000
0100
0001
1000
,
1100
0000
0000
0000
0010
0000
0011
0000
0000
0000
0001
0000
1001
0000
1000
0010
,
0100
0000
0000
0110
0000
0000
0101
0000
0000
0011
0000
0000
1100
0000
1100
0000
,
1100
0000
0001
0011
0000
0010
0100
1000
,
1001
0000
0001
0101
0000
0100
0010
1000
,
0100
0010
0100
1000
0100
0010
0001
0010
,
0001
0100
1000
0100
0001
1000
0100
1000
,
0001
0000
0100
0101
0000
0001
1000
0100
,
0110
0000
0010
0011
0000
0001
0100
0010
,
1010
0000
1000
1001
0000
0001
0010
0100
,
0010
0000
0001
0010
0001
0000
1000
0010
1000
0000
0001
0100
0001
0000
1000
0100
,
1000
0100
0010
0110
0000
0100
1000
0010
,
0100
0001
0010
0110
0000
0100
1000
0001
,
0100
1000
0100
0110
0000
0010
1000
0100
,
0110
0000
0010
0011
0000
0001
0100
0010
,
0110
0000
0100
0101
0000
0001
0010
0100
,
0010
0001
1000
1010
0000
0010
0100
0001
,
0010
0100
1000
1100
0000
0100
0010
0001
,
1000
0000
0001
0100
0001
0000
1000
0100
1000
0000
0100
0010
0001
0010
0100
0000
,
1100
1000
0001
0101
0000
0100
0110
0000
,
0010
1010
0000
1000
2002
0000
0000
0000
,
0000
0000
0000
0000
,
0000
0000
0000
0000
,
0000
0000
3003
0000
,
1200
0000
0000
0000
0320
0000
0000
0000
0230
0000
0000
0000
2300
0000
0000
0010
,
3020
0000
0032
0000
0203
0000
2300
3010
,
1010
1000
1100
0100
0101
0001
0011
0010
,
1010
0000
0000
0000
0000
0000
0000
0000
0000
1001
0000
0000
0000
0000
0000
0000
0000
0000
0011
0000
0000
0000
0000
0000
1001
0000
0000
0000
0000
0000
0000
0000
0000
0000
0000
0000
1010
0000
0000
0000
0110
0000
0000
0000
0101
0000
0000
0000
,
2001
0000
0010
3020
0000
0100
0230
0000
,
0010
0320
0000
1000
2030
0000
0001
3002
,
0000
0010
0023
0000
0100
0230
0000
1000
,
1300
0000
1000
0001
1000
0001
1000
0001
1000
0001
1000
0001
1000
0000
0000
0000
,
1001
0000
0001
0000
0010
0000
0100
1000
0000
1000
0001
1000
0100
0010
0100
0010
,
0100
0000
0000
0010
0000
0000
0001
0000
0011
0000
0000
0010
0000
0000
0100
0000
,
1000
0000
0001
0100
0000
0010
1000
0100
0010
0000
0100
0000
1100
0000
1000
0000
,
0001
0000
0000
1001
0000
0000
1000
0000
0010
0100
0010
0100
0001
0100
0001
0010
,
0100
0000
1000
0100
0010
0000
0011
0000
0000
0000
0010
0001
1000
0000
0010
1000
,
0001
0000
0100
0010
1000
0000
1001
0000
0000
0000
0001
0010
0100
0010
0001
0000
,
1000
0010
0100
0000
0010
0000
0100
0000
0001
0010
0100
0000
0010
0000
0001
0000
,
1000
0010
1000
0010
0100
0000
0001
0100
0001
0000
1000
0100
0010
0001
0100
0000
,
0110
0000
0010
0000
1000
0000
0100
0010
0000
0100
0010
0001
1000
0100
0010
0001
,
0100
0000
0000
0110
0000
0000
0010
0000
1010
0000
0000
1001
0000
0000
0011
0000
,
0010
0000
0100
1000
0000
1000
0001
0100
0010
0000
0100
0000
0001
0000
1000
0000
,
0100
0000
0000
0220
0000
0000
0330
0000
0010
0001
0010
0001
1000
0010
1000
0010
,
0100
0000
0000
0110
0000
0000
0010
0000
1000
0000
0000
1001
0000
0000
0001
0000
,
0011
0000
0000
1001
0000
0000
1010
0000
0110
0000
0000
0101
0000
0000
1001
0000
,
1100
0000
0000
1100
0000
0000
0011
0000
1001
0000
1000
0001
1000
0001
1000
0001
,
1000
0000
0010
0100
0010
0000
0100
0001
0100
0000
0001
0010
0001
0000
1000
0100
,
1000
0000
0010
0001
0010
0000
0100
1000
0100
0000
1000
0001
1000
0000
0001
0100
,
0001
0000
1000
0010
0100
0000
0010
0100
0001
0000
0100
0001
1000
0000
0001
1000
,
0100
0000
1000
0100
0010
0000
0100
0010
0001
0000
0010
0001
1000
0000
0001
1000
,
0010
1000
0010
0000
0100
0001
0100
0000
0001
0010
0001
0000
1000
0100
1000
0000
,
0001
0010
0100
0000
0010
0100
1000
0000
0100
1000
0001
0000
1000
0001
0100
0000
,
0010
1000
0010
1000
0010
1000
0010
1000
0001
1000
0001
1000
0001
1000
0001
1000
,
0001
0010
0001
0010
0100
1000
0100
1000
0001
0100
0010
1000
0001
0100
0010
1000
,
0001
1000
0100
0010
0100
0000
0000
0000
0000
0000
0000
0000
0000
0000
0000
0000
;
