#TITLE:Satellite;
#SUBTITLE:;
#ARTIST:Lena Meyer-Landrut;
#TITLETRANSLIT:;
#SUBTITLETRANSLIT:;
#ARTISTTRANSLIT:;
#CREDIT:;
#BANNER:;
#BACKGROUND:;
#LYRICSPATH:;
#CDTITLE:;
#MUSIC:Satellite.mp3;
#OFFSET:-5.080;
#SAMPLESTART:30.340;
#SAMPLELENGTH:10.110;
#SELECTABLE:YES;
#BPMS:0.000=190.000;
#STOPS:;
#BGCHANGES:;

//---------------dance-single - ----------------
#NOTES:
     dance-single:
     :
     Hard:
     7:
     0.514,0.595,0.405,0.356,0.415: // measure 1
2000
0000
3020
0000
,  // measure 2
0230
0000
0302
0000
,  // measure 3
2003
0000
3200
0000
,  // measure 4
0020
0000
0330
0000
,  // measure 5
0011
0000
0000
0000
0000
2200
0000
0000
0000
3300
0000
0000
,  // measure 6
0001
0000
0000
0100
0000
0001
0000
0000
0001
1000
0000
0000
,  // measure 7
1001
0000
0000
0000
0000
0220
0000
0000
0000
0330
0000
0000
,  // measure 8
0010
0000
0000
1000
0000
0001
0000
0000
0001
1000
0000
0000
,  // measure 9
0101
0000
0000
1000
0000
0100
0000
0000
0100
1000
0000
0000
,  // measure 10
0100
0001
0100
0010
,  // measure 11
0001
0000
0000
0100
0000
0000
0010
0000
1000
0000
0000
2002
,  // measure 12
0000
0000
0000
3003
,  // measure 13
0001
0000
0000
0100
0000
0001
0000
0000
0001
0100
0000
0000
,  // measure 14
0001
0000
0000
1000
0000
0100
0000
0000
0100
1000
0000
0000
,  // measure 15
0001
0100
1000
0100
,  // measure 16
0001
0000
0000
1000
0000
0001
0000
0000
0001
0010
0000
0000
,  // measure 17
0100
0010
0001
1000
,  // measure 18
0010
0000
0000
0100
0000
0001
0000
0000
0100
0001
0000
0000
,  // measure 19
1000
0100
0010
0001
,  // measure 20
0022
0000
0000
0033
,  // measure 21
0001
0000
0000
1000
0000
0100
0000
0000
0100
1000
0000
0000
,  // measure 22
0001
0000
0000
0100
0000
0001
0000
0000
0100
0001
0000
1000
,  // measure 23
0100
0010
0100
1000
,  // measure 24
0001
0000
0000
1000
0000
0010
0000
0000
0010
0100
0000
0000
,  // measure 25
0101
0000
0000
0000
0000
0001
0000
0000
1000
0100
0000
0000
,  // measure 26
0010
0000
0000
0000
0000
0100
0000
0000
1000
0001
0000
0000
,  // measure 27
1000
0000
0000
0010
0000
0100
0000
0000
0101
0000
0000
2002
,  // measure 28
0000
0000
0000
3003
,  // measure 29
1000
0010
0001
0100
,  // measure 30
1000
0000
0000
0001
0000
0100
0000
0000
0101
0000
0000
1001
,  // measure 31
0000
0000
1000
0100
0000
0000
0001
0000
0000
0010
0000
0000
,  // measure 32
0001
0100
1000
0010
,  // measure 33
0100
0000
0000
0001
0000
0000
1000
0000
0001
1000
0000
0001
,  // measure 34
0100
0000
0000
0001
0000
0000
1000
0000
0100
0000
0000
0010
,  // measure 35
0001
0000
0000
1000
0000
0010
0000
0000
0110
0000
0000
0100
,  // measure 36
0002
0000
0000
0003
,  // measure 37
1000
0000
0000
0001
0000
0202
0000
0000
0000
0303
0000
0000
,  // measure 38
0001
0000
0000
1000
0000
2200
0000
0000
0000
3300
0000
0000
,  // measure 39
0010
0001
0100
1000
,  // measure 40
0001
0100
0010
0001
,  // measure 41
1000
0000
0000
0001
0000
0100
0000
0000
0000
0101
0000
0000
,  // measure 42
0001
0000
0000
1000
0000
0100
0000
0000
0000
1100
0000
0000
,  // measure 43
0011
0100
1010
0100
,  // measure 44
0011
1100
1001
0110
,  // measure 45
1001
0000
0000
1000
0000
0200
0000
0000
0310
0000
0000
0000
,  // measure 46
1100
0000
0000
0010
0000
0002
0000
0000
0103
0000
0000
0000
,  // measure 47
0010
0000
0000
0001
0000
0000
0010
0000
0000
1000
0000
0001
,  // measure 48
0000
0000
0100
0001
0000
1000
0010
0000
0000
1000
0000
0100
,  // measure 49
1000
0010
0001
0110
,  // measure 50
1000
0100
0001
0110
,  // measure 51
1001
0001
0101
0100
,  // measure 52
0202
0000
0000
0303
,  // measure 53
2010
0000
0000
0000
0000
0001
0000
0000
0000
0000
0000
0000
,  // measure 54
3200
0000
0000
0000
0000
0010
0000
0000
0000
0000
0000
0000
,  // measure 55
0320
0000
0000
0000
0000
0001
0000
0000
0000
0000
0000
0000
,  // measure 56
0032
0000
0000
0000
0000
0200
0000
0000
0000
0303
0000
0000
,  // measure 57
0001
0000
0000
1000
0000
0100
0000
0000
0000
0010
0000
0000
,  // measure 58
0100
0000
0000
0010
0000
0001
0000
0000
0000
1000
0000
0000
,  // measure 59
0010
0000
0000
0100
0000
0001
0000
0000
0001
1000
0000
2002
,  // measure 60
0000
0000
0000
3003
,  // measure 61
1010
0000
0000
0002
0000
2000
0000
0000
0000
3003
0000
0000
,  // measure 62
1100
0000
0000
0010
0000
0001
0000
0000
0001
1000
0000
0000
,  // measure 63
0010
0000
0000
0100
0000
0001
0000
0000
0001
1000
0000
1000
,  // measure 64
0100
0001
0100
1000
,  // measure 65
0010
0001
0010
1000
,  // measure 66
0001
0000
0000
1000
0000
0010
0000
0000
0100
0001
0000
0000
,  // measure 67
1000
0000
0000
0001
0000
0010
0000
0000
0100
1000
0000
0000
,  // measure 68
0001
0000
1000
0010
0000
1010
0000
0000
1001
0000
0000
0102
,  // measure 69
0000
0000
0010
0000
,  // measure 70
1003
0000
0000
0001
0000
1000
0000
0000
1000
0001
0000
0000
,  // measure 71
1000
1100
0010
0001
,  // measure 72
0100
0101
0010
1000
,  // measure 73
0100
0000
0000
0001
0000
0100
0000
0000
0100
1000
0000
0000
,  // measure 74
0010
0000
0000
0001
0000
0010
0000
0000
0010
1000
0000
0000
,  // measure 75
0100
0001
0100
1000
,  // measure 76
1010
1001
0000
0000
;

//---------------dance-single - ----------------
#NOTES:
     dance-single:
     :
     Medium:
     6:
     0.438,0.521,0.326,0.366,0.163: // measure 1
1000
0000
0100
0000
,  // measure 2
1000
0000
0001
0000
,  // measure 3
0100
0000
0010
0000
,  // measure 4
0220
0000
0330
0000
,  // measure 5
1001
0000
0000
0000
0000
1001
0000
0000
0000
0000
0000
0000
,  // measure 6
1000
0100
0010
0001
,  // measure 7
1001
0000
0000
0000
0000
1001
0000
0000
0000
0000
0000
0000
,  // measure 8
0010
1000
0100
0010
,  // measure 9
0110
0000
0000
0000
0000
0110
0000
0000
0000
0000
0000
0000
,  // measure 10
0010
0001
1000
0010
,  // measure 11
0100
0001
0100
0010
,  // measure 12
0220
0000
0000
0330
,  // measure 13
1000
0000
0000
0001
0000
0100
0000
0000
0000
0001
0000
0000
,  // measure 14
1000
0000
0000
0100
0000
1000
0000
0000
0000
0001
0000
0000
,  // measure 15
0010
0100
0010
0001
,  // measure 16
0100
0010
0100
0001
,  // measure 17
1000
0000
0000
0001
0000
0100
0000
0000
0000
0001
0000
0000
,  // measure 18
1000
0000
0000
0100
0000
1000
0000
0000
0000
0100
0000
0000
,  // measure 19
0001
0100
1000
0010
,  // measure 20
0100
0000
0000
0001
0000
1000
0000
0000
0001
1000
0000
0000
,  // measure 21
1001
0000
0000
0000
0000
0000
1000
0000
0100
1000
0000
0000
,  // measure 22
0001
0000
0000
0000
0000
0000
0100
0000
0001
0100
0000
0000
,  // measure 23
0001
1000
0100
0010
,  // measure 24
0100
1000
0010
0100
,  // measure 25
0110
0000
0000
0000
0000
0000
0100
0000
0001
0100
0000
0000
,  // measure 26
0001
0000
0000
0000
0000
0000
1000
0000
0100
1000
0000
0000
,  // measure 27
0100
0000
0000
0010
0000
0000
0001
0000
0010
0000
0000
0022
,  // measure 28
0000
0000
0000
0033
,  // measure 29
0001
0100
1000
0100
,  // measure 30
0010
0100
0001
1000
,  // measure 31
0100
0010
0001
0010
,  // measure 32
0001
0000
0000
1000
0000
0001
0000
0000
0000
1000
0000
0000
,  // measure 33
0001
0100
0010
0100
,  // measure 34
0001
0000
1000
0100
,  // measure 35
0001
0100
1000
0010
,  // measure 36
0202
0000
0000
0303
,  // measure 37
1010
0000
0000
0000
0000
2002
0000
0000
0000
3003
0000
0000
,  // measure 38
0101
0000
0000
0000
0000
2020
0000
0000
0000
3030
0000
0000
,  // measure 39
0001
0000
0000
0000
0000
1000
0000
0000
0000
0100
0000
0000
,  // measure 40
0010
0001
0100
0010
,  // measure 41
0100
0000
0000
0000
0000
0202
0000
0000
0000
0303
0000
0000
,  // measure 42
2000
0000
3200
0000
,  // measure 43
0310
0100
1000
0100
,  // measure 44
0011
0101
1010
0101
,  // measure 45
1001
0000
0000
0001
0000
0200
0000
0000
0000
0300
0000
0000
,  // measure 46
0001
0000
0000
1000
0000
0200
0000
0000
0000
0300
0000
0000
,  // measure 47
0010
0001
0100
1000
,  // measure 48
0010
0001
1000
0010
,  // measure 49
0100
0000
0000
0001
0000
2000
0000
0000
0000
3000
0000
0000
,  // measure 50
0001
1000
0100
0010
,  // measure 51
0220
0330
2002
3003
,  // measure 52
2020
0000
0000
3030
,  // measure 53
0001
0000
0000
0000
0000
0002
0000
0000
0000
0000
0000
0000
,  // measure 54
1000
0000
0000
0000
0000
2003
0000
0000
0000
0000
0000
0000
,  // measure 55
0010
0000
0000
0000
0000
3020
0000
0000
0000
0000
0000
0000
,  // measure 56
0100
0000
0000
0000
0000
0230
0000
0000
0000
0000
0000
0000
,  // measure 57
0001
0000
0000
0000
0000
0320
0000
0000
0000
0000
0000
0000
,  // measure 58
1000
0000
0000
0000
0000
0230
0000
0000
0000
0000
0000
0000
,  // measure 59
0010
0000
0000
0000
0000
0002
0000
0000
0000
0303
0000
0000
,  // measure 60
2002
0000
0000
3003
,  // measure 61
1001
0000
0000
2000
0000
0002
0000
0000
0000
3003
0000
0000
,  // measure 62
1001
1000
0010
0001
,  // measure 63
0010
1000
0001
1000
,  // measure 64
0100
0010
0001
0100
,  // measure 65
0010
0000
0000
0000
0000
1000
0000
0000
0000
0001
0000
0000
,  // measure 66
1000
0100
0001
0100
,  // measure 67
1000
0010
0100
0001
,  // measure 68
1000
0100
0010
0001
,  // measure 69
0102
0000
0000
0000
0000
0000
1000
0000
0000
0000
0000
1003
,  // measure 70
0000
1000
0010
0100
,  // measure 71
0101
0001
1000
0100
,  // measure 72
0010
0100
0010
0001
,  // measure 73
0101
0100
0010
1000
,  // measure 74
0100
0001
0100
1000
,  // measure 75
0010
0100
0010
1000
,  // measure 76
1001
0110
0000
0000
;

//---------------dance-single - ----------------
#NOTES:
     dance-single:
     :
     Easy:
     3:
     0.218,0.260,0.089,0.030,0.000: // measure 1
1000
0000
0001
0000
,  // measure 2
1000
0000
0001
0000
,  // measure 3
0100
0000
0010
0000
,  // measure 4
0110
0000
0000
0000
,  // measure 5
1001
0000
0000
0000
,  // measure 6
1000
0000
0100
0000
,  // measure 7
1000
0000
0000
0000
,  // measure 8
0001
0000
0010
0000
,  // measure 9
0001
0000
0000
0000
,  // measure 10
0100
0000
0010
0000
,  // measure 11
0100
0000
0010
0000
,  // measure 12
1000
0000
0000
0000
,  // measure 13
0001
0000
0100
0000
,  // measure 14
0010
0000
0100
0000
,  // measure 15
0001
0000
1000
0000
,  // measure 16
0100
0000
0010
0000
,  // measure 17
0100
0000
0010
0000
,  // measure 18
0001
0000
1000
0000
,  // measure 19
1001
0000
0000
0000
,  // measure 20
0110
0000
0000
0000
,  // measure 21
1000
0001
0000
1000
,  // measure 22
0010
1000
0000
0001
,  // measure 23
0100
0000
0001
0000
,  // measure 24
1000
0000
0100
0000
,  // measure 25
0010
0001
0000
1000
,  // measure 26
0100
1000
0000
0001
,  // measure 27
1000
0000
0010
0000
,  // measure 28
0110
0000
0000
0000
,  // measure 29
1000
0100
0000
0000
,  // measure 30
1000
0001
0000
0000
,  // measure 31
0100
0000
0001
0000
,  // measure 32
0100
0000
0010
0000
,  // measure 33
0100
0001
0000
0000
,  // measure 34
1000
0010
0000
0000
,  // measure 35
1000
0000
0100
0000
,  // measure 36
1100
0000
0000
0000
,  // measure 37
0010
0010
0000
0000
,  // measure 38
0001
0001
0000
0000
,  // measure 39
1000
0000
0001
0000
,  // measure 40
1000
0000
0010
0000
,  // measure 41
0100
0100
0000
0000
,  // measure 42
0010
0010
0000
0000
,  // measure 43
1000
0000
0001
0000
,  // measure 44
0110
0000
1001
0000
,  // measure 45
0100
0010
0000
0000
,  // measure 46
1000
0001
0000
0000
,  // measure 47
1000
0000
0100
0000
,  // measure 48
0010
0000
0001
0010
,  // measure 49
0001
0000
1000
0000
,  // measure 50
0010
0000
0100
0000
,  // measure 51
0001
0000
1000
0000
,  // measure 52
2002
0000
3003
0000
,  // measure 53
1000
0000
0001
0000
,  // measure 54
1000
0000
0000
0000
,  // measure 55
0010
0000
0100
0000
,  // measure 56
0010
0000
0000
0000
,  // measure 57
1000
0000
0100
0000
,  // measure 58
0010
0000
0001
0000
,  // measure 59
0100
0000
0010
0000
,  // measure 60
0200
0000
0000
0000
,  // measure 61
0300
0000
0000
0000
,  // measure 62
0010
0000
1000
0000
,  // measure 63
0100
0000
0000
0000
,  // measure 64
0010
0000
0001
0000
,  // measure 65
1000
0000
0001
0000
,  // measure 66
0100
0000
0010
0000
,  // measure 67
0100
0000
0000
0000
,  // measure 68
0010
0000
0100
0000
,  // measure 69
0001
0000
1000
0000
,  // measure 70
0100
0100
0000
0000
,  // measure 71
0010
0010
0000
0000
,  // measure 72
0001
0001
0000
0000
,  // measure 73
1000
0000
0010
0000
,  // measure 74
0100
0100
0000
0000
,  // measure 75
0001
0001
1000
1000
,  // measure 76
0001
0001
0000
0000
;

//---------------dance-single - ----------------
#NOTES:
     dance-single:
     :
     Beginner:
     2:
     0.155,0.220,0.059,0.020,0.000: // measure 1
1000
0000
0000
0000
,  // measure 2
0001
0000
0000
0000
,  // measure 3
0100
0000
0010
0000
,  // measure 4
0100
0000
0000
0000
,  // measure 5
0110
0000
0000
0000
,  // measure 6
0010
0000
0000
0000
,  // measure 7
1000
0000
0000
0000
,  // measure 8
0001
0000
0000
0000
,  // measure 9
0010
0000
0000
0000
,  // measure 10
0100
0000
0000
0000
,  // measure 11
1000
0000
0000
0000
,  // measure 12
0001
0000
0000
0000
,  // measure 13
1001
0000
0000
0000
,  // measure 14
1000
0000
0001
0000
,  // measure 15
1000
0000
0000
0000
,  // measure 16
0001
0000
0100
0000
,  // measure 17
0001
0000
0000
0000
,  // measure 18
1000
0000
0010
0000
,  // measure 19
0100
0000
0000
0000
,  // measure 20
0010
0000
0000
0000
,  // measure 21
0110
0000
0100
0000
,  // measure 22
0001
0000
0000
0000
,  // measure 23
1000
0000
0100
0000
,  // measure 24
1000
0000
0000
0000
,  // measure 25
0001
0000
0001
0000
,  // measure 26
0001
0000
0000
0000
,  // measure 27
0100
0000
0010
0000
,  // measure 28
0100
0000
0000
0000
,  // measure 29
0010
0000
1000
0000
,  // measure 30
0001
0000
0000
0000
,  // measure 31
0001
0000
1000
0000
,  // measure 32
0100
0000
0000
0000
,  // measure 33
0010
0000
0001
0000
,  // measure 34
1000
0000
0010
0000
,  // measure 35
0100
0000
0010
0000
,  // measure 36
1000
0000
0000
0000
,  // measure 37
0001
0000
0000
0000
,  // measure 38
1000
0000
0000
0000
,  // measure 39
0100
0000
0010
0000
,  // measure 40
0100
0000
0010
0000
,  // measure 41
0001
0000
0000
0000
,  // measure 42
0100
0000
0000
0000
,  // measure 43
0010
0000
0100
0000
,  // measure 44
0010
0000
1000
0000
,  // measure 45
1001
0000
0000
0000
,  // measure 46
0110
0000
0000
0000
,  // measure 47
0010
0000
1000
0000
,  // measure 48
0001
0000
1000
0000
,  // measure 49
0100
0000
0000
0000
,  // measure 50
0010
0000
0000
0000
,  // measure 51
0001
0000
1000
0000
,  // measure 52
0001
0000
0000
0000
,  // measure 53
1000
0000
0000
0000
,  // measure 54
1000
0000
0000
0000
,  // measure 55
1000
0000
0000
0000
,  // measure 56
1000
0000
0000
0000
,  // measure 57
0001
0000
0000
0000
,  // measure 58
0001
0000
0000
0000
,  // measure 59
0001
0000
0000
0000
,  // measure 60
2002
0000
0000
0000
,  // measure 61
3003
0000
0000
0000
,  // measure 62
1000
0000
0010
0000
,  // measure 63
1000
0000
0000
0000
,  // measure 64
0001
0000
0100
0000
,  // measure 65
0001
0000
0000
0000
,  // measure 66
1000
0000
0100
0000
,  // measure 67
0010
0000
0001
0000
,  // measure 68
1000
0000
0001
0000
,  // measure 69
1000
0000
0000
0000
,  // measure 70
0001
0000
0000
0000
,  // measure 71
0100
0000
0000
0000
,  // measure 72
0010
0000
0000
0000
,  // measure 73
0100
0000
0010
0000
,  // measure 74
0100
0000
0001
0000
,  // measure 75
1000
1000
0000
0000
;
