#TITLE:Popular;
#SUBTITLE:;
#ARTIST:Eric Saade;
#TITLETRANSLIT:;
#SUBTITLETRANSLIT:;
#ARTISTTRANSLIT:;
#CREDIT:;
#BANNER:;
#BACKGROUND:;
#LYRICSPATH:;
#CDTITLE:;
#MUSIC:Popular.mp3;
#OFFSET:-9.870;
#SAMPLESTART:30.270;
#SAMPLELENGTH:15.360;
#SELECTABLE:YES;
#BPMS:0.000=125.000;
#STOPS:107.500=1.920
;
#BGCHANGES:;

//---------------dance-single - ----------------
#NOTES:
     dance-single:
     :
     Hard:
     7:
     0.452,0.409,0.300,0.455,0.000:
0010
0000
1000
0000
0001
0010
0001
1000
,
0020
1000
0200
0330
,
0010
1000
0100
0000
0220
0000
0330
0000
,
0010
0001
0100
0000
0220
0000
0330
0000
,
0100
0000
0001
0000
1000
0100
0010
0001
,
2000
0010
0002
3003
,
1000
0001
0100
0000
0220
0000
0330
0000
,
0010
1000
0100
0000
0220
0000
0330
0000
,
0010
0000
0001
0000
1000
0001
0100
1000
,
0200
0000
1000
0000
0001
0001
0301
0000
,
0001
1000
0001
0010
0220
0000
0330
0000
,
1000
0100
1000
0002
0000
0100
0103
0000
,
0001
0100
0001
2000
0000
0100
3100
0000
,
0010
0000
0011
0000
0001
0100
0101
0000
,
0001
0100
0010
2000
0000
3100
0010
0100
,
1000
0001
0100
0020
0000
0130
0001
0010
,
0100
1000
0001
2000
0000
3010
0100
0001
,
0010
0000
0110
0000
0100
1000
1001
0000
,
0001
0100
0010
2000
0000
0000
3010
0000
,
0101
0000
0010
0000
1000
0001
1001
0000
,
0001
0000
0010
0000
0100
1000
1100
0000
,
1000
0000
0100
0000
0001
0100
1100
0000
,
1000
0010
0100
0001
0010
0001
0011
0000
,
0001
0100
0010
0000
0110
0110
0110
0000
,
0010
1000
0001
0000
1001
1001
1001
0000
,
1000
0100
0010
0001
0100
0010
1000
0002
,
0000
0000
0000
0000
1000
1000
1003
1001
,
0220
0000
0000
0330
,
2002
0000
0000
3003
,
0022
0033
2200
3300
,
2002
0000
3003
0000
,
1001
0000
1000
0100
0010
0001
0100
0010
,
0100
0000
0010
0100
0001
0010
0100
0010
,
0002
0203
2300
3200
,
0310
0100
0001
0020
0000
0100
0130
0000
,
1001
0000
1000
0100
0010
0001
1000
0001
,
0200
0320
0230
0302
,
1003
0100
0001
0100
1000
0000
1001
0000
,
0001
0100
0010
0100
0001
0000
1000
0100
,
1100
0000
1000
0100
0010
0001
0100
1000
,
0100
0000
0010
0100
0001
0010
0100
0010
,
2000
3020
0032
0203
,
0320
0000
2030
0000
,
3001
1000
0100
0010
0100
0100
0100
1000
,
0001
0100
0010
0100
0001
0001
0001
0010
,
1000
0010
0001
0100
0010
0010
0010
0100
,
0001
1000
0010
0100
0001
0001
0001
1001
;

//---------------dance-single - ----------------
#NOTES:
     dance-single:
     :
     Medium:
     5:
     0.328,0.318,0.107,0.203,0.000: // measure 1
1000
0000
0001
0000
0100
0001
0100
0000
,  // measure 2
0001
0001
0002
0003
,  // measure 3
1000
0000
1000
0000
2000
0000
3000
0010
,  // measure 4
0010
0010
0020
0030
,  // measure 5
0100
0000
0001
0000
1000
0100
1000
0000
,  // measure 6
0001
0010
0002
0003
,  // measure 7
1000
0010
2000
3000
,  // measure 8
0010
0100
0020
0030
,  // measure 9
0100
0000
0001
0000
1000
0000
0100
1000
,  // measure 10
0200
0000
0320
0000
,  // measure 11
0002
0000
0033
0000
,  // measure 12
1001
0000
1000
0100
0000
0010
0001
0000
,  // measure 13
1000
0000
0001
0100
0000
0010
1000
0000
,  // measure 14
0001
0000
1000
0000
0100
0010
0100
0000
,  // measure 15
0010
0000
0001
1000
0000
1000
0001
0000
,  // measure 16
0110
0000
0010
1000
0000
1000
0100
0000
,  // measure 17
0010
0000
0001
0100
0000
0100
0010
0000
,  // measure 18
1000
0000
0100
0000
0001
0100
1000
0000
,  // measure 19
0001
0000
1000
0010
0000
0010
0100
0000
,  // measure 20
0101
0000
0001
0000
1000
1000
1000
0000
,  // measure 21
0100
0000
0010
0000
0100
0100
0100
0000
,  // measure 22
0010
0000
0001
0000
0010
0010
0010
0000
,  // measure 23
0001
0000
1000
0000
0001
0001
0001
0000
,  // measure 24
0100
0000
0010
0000
1000
0001
1000
0000
,  // measure 25
0001
0000
0010
0000
0100
0010
0100
0000
,  // measure 26
1000
0000
0001
0000
1000
0010
0100
0000
,  // measure 27
0010
0000
0100
0000
0001
1000
0001
1000
,  // measure 28
2002
0000
0000
3003
,  // measure 29
0220
0000
0000
0330
,  // measure 30
2020
3030
0202
0303
,  // measure 31
2002
0000
3003
0000
,  // measure 32
1001
0000
0001
0010
0000
0100
1000
0000
,  // measure 33
0001
0000
1000
0010
0000
0100
0001
0000
,  // measure 34
1000
0000
0001
0000
0010
0100
0010
0000
,  // measure 35
0100
0000
1000
0010
0100
0000
0001
0000
,  // measure 36
1001
0000
1000
0100
0010
0001
0010
0000
,  // measure 37
0001
1000
0010
0100
,  // measure 38
0001
0000
0100
0001
0100
0010
1000
0000
,  // measure 39
0001
0000
1000
0000
0100
0010
0100
0000
,  // measure 40
1001
0000
1000
0010
0000
0100
0001
0000
,  // measure 41
0010
0000
0100
0010
0000
0010
0001
0000
,  // measure 42
1000
0010
0100
0001
,  // measure 43
2000
0000
3002
0000
,  // measure 44
1003
0100
0010
0000
0100
0100
0100
0000
,  // measure 45
0010
0001
1000
0000
0001
0001
0001
0000
,  // measure 46
0100
0010
1000
0000
0001
0001
0001
0000
,  // measure 47
1000
0001
0100
0000
0010
0010
0010
0010
;

//---------------dance-single - ----------------
#NOTES:
     dance-single:
     :
     Easy:
     3:
     0.237,0.318,0.097,0.232,0.000: // measure 1
1000
0100
0010
0001
,  // measure 2
1000
1000
1000
0000
,  // measure 3
0001
0001
0001
0000
,  // measure 4
0100
0100
0100
0000
,  // measure 5
0010
0100
0001
0010
,  // measure 6
0100
0100
0100
0000
,  // measure 7
0010
0010
0010
0000
,  // measure 8
0001
0001
0001
0000
,  // measure 9
1000
1000
1000
0000
,  // measure 10
0001
0000
0100
0000
,  // measure 11
0220
0000
0330
0000
,  // measure 12
1001
0000
1000
0100
,  // measure 13
1000
0000
0001
0100
,  // measure 14
0001
1000
0100
0010
,  // measure 15
0001
0100
0010
0100
,  // measure 16
0001
0000
1000
0001
,  // measure 17
1000
0000
0001
0100
,  // measure 18
0001
1000
0100
0010
,  // measure 19
0100
1000
0001
0000
,  // measure 20
1002
0000
0100
0100
,  // measure 21
0203
0000
0010
0010
,  // measure 22
0320
0000
1000
1000
,  // measure 23
2030
0000
0100
0100
,  // measure 24
3200
0000
0010
0010
,  // measure 25
0320
0000
0001
0001
,  // measure 26
0032
0000
1000
1000
,  // measure 27
2000
0000
0000
3003
,  // measure 28
0220
0000
0000
0330
,  // measure 29
2002
0000
0000
3003
,  // measure 30
2020
3030
0202
0303
,  // measure 31
0220
0000
0330
0000
,  // measure 32
1001
0000
1000
0100
,  // measure 33
1000
0000
0001
0010
,  // measure 34
0001
1000
0001
0100
,  // measure 35
0010
0100
0010
0000
,  // measure 36
1001
0000
1000
0100
,  // measure 37
0020
0000
0130
0000
,  // measure 38
0100
0010
0001
1000
,  // measure 39
0002
0000
0103
0000
,  // measure 40
0100
0001
1000
0000
,  // measure 41
0001
1000
0010
0000
,  // measure 42
0100
0000
0001
0000
,  // measure 43
2000
0000
3002
0000
,  // measure 44
0103
0001
0100
0100
,  // measure 45
0010
1000
0001
0001
,  // measure 46
0010
0100
0010
0010
,  // measure 47
0001
0000
1000
0000
0001
0000
1000
1000
;

//---------------dance-single - ----------------
#NOTES:
     dance-single:
     :
     Beginner:
     1:
     0.148,0.181,0.097,0.019,0.000: // measure 1
1000
0000
0001
0000
,  // measure 2
0100
0100
0100
0000
,  // measure 3
0010
0000
0100
0000
,  // measure 4
0010
0010
0010
0000
,  // measure 5
1000
0000
0100
0000
,  // measure 6
0010
0010
0010
0000
,  // measure 7
0100
0000
0100
0000
,  // measure 8
1000
1000
1000
0000
,  // measure 9
0001
0000
1000
0000
,  // measure 10
0001
0000
0100
0000
,  // measure 11
0110
0000
0000
0000
,  // measure 12
1001
0000
0000
0000
,  // measure 13
0001
0000
0000
0000
,  // measure 14
1000
0000
0100
0000
,  // measure 15
1000
0000
0000
0000
,  // measure 16
0001
0000
0000
0000
,  // measure 17
0010
0000
0000
0000
,  // measure 18
0100
0000
0010
0000
,  // measure 19
0100
0000
1000
0000
,  // measure 20
1001
0000
0001
0001
,  // measure 21
0001
0000
0001
0001
,  // measure 22
0001
0000
1000
1000
,  // measure 23
1000
0000
1000
1000
,  // measure 24
1000
0000
0010
0010
,  // measure 25
0010
0000
0010
0010
,  // measure 26
0010
0000
0010
0010
,  // measure 27
0010
0000
0100
0100
,  // measure 28
0110
0000
0000
0000
,  // measure 29
1001
0000
0000
0000
,  // measure 30
1001
0000
1001
0000
,  // measure 31
2002
0000
3003
0000
,  // measure 32
1001
0000
1000
0000
,  // measure 33
0100
0000
0010
0000
,  // measure 34
0001
0000
0000
0000
,  // measure 35
1000
0000
0000
0000
,  // measure 36
0001
0000
0100
0000
,  // measure 37
0010
0000
0100
0000
,  // measure 38
0010
0000
1000
0000
,  // measure 39
0001
0000
0000
0000
,  // measure 40
1000
0000
0100
0000
,  // measure 41
1000
0000
0001
0000
,  // measure 42
0100
0000
0010
0000
,  // measure 43
1000
0000
0001
0000
,  // measure 44
1001
0000
1000
0000
,  // measure 45
0100
0000
0010
0000
,  // measure 46
0001
0000
1000
0000
,  // measure 47
0010
0000
0100
0100
;
