#TITLE:One Of Us Is Gonna Die Young;
#SUBTITLE:;
#ARTIST:The Ark;
#TITLETRANSLIT:;
#SUBTITLETRANSLIT:;
#ARTISTTRANSLIT:;
#CREDIT:;
#BANNER:;
#BACKGROUND:;
#LYRICSPATH:;
#CDTITLE:;
#MUSIC:One Of Us Is Gonna Die Young.mp3;
#OFFSET:-7.530;
#SAMPLESTART:76.630;
#SAMPLELENGTH:13.510;
#SELECTABLE:YES;
#BPMS:0.000=144.000,108.000=142.000,112.000=68.000,117.000=69.000,125.000=144.000,137.000=141.960,217.000=109.000,219.000=103.000,225.000=112.000,226.000=94.000;
#STOPS:112.000=2.647;
#DISPLAYBPM:68:144;
#BGCHANGES:;

//---------------dance-single - ----------------
#NOTES:
     dance-single:
     :
     Hard:
     7:
     0.446,0.490,0.188,0.024,0.041:
1000
0100
0010
0100
,
1000
0001
1000
0001
0000
0100
0010
0000
,
0100
0001
0100
0010
,
1000
0001
1000
0001
0000
0100
0010
1000
,
0001
0000
1000
0000
0010
0100
0010
0000
,
1000
0100
1000
0000
0001
0010
0001
0000
,
1000
0000
0001
0000
0100
0010
1000
0000
,
0001
0010
0100
0000
0010
0001
0100
0000
,
0010
0000
0001
0000
1000
0010
1000
0000
,
0001
0100
0001
0000
1000
0010
0100
0001
,
0010
0000
0100
0000
0010
0001
1000
0010
,
0000
1000
0001
0000
1000
0100
1000
0001
,
0100
0000
0100
0000
0010
0100
0010
0000
,
1000
0100
0010
0001
0100
0010
0100
0000
,
0010
0000
0010
0000
1000
0010
1000
0000
,
0010
0100
0001
0010
0100
0010
0001
0000
,
1000
1000
0100
0000
0010
0010
0100
0000
,
0010
0001
1000
0001
0100
0010
0100
0000
,
0001
1000
0010
0100
0001
1000
0000
0001
,
0000
0010
0100
0000
0010
0001
0100
0010
,
0110
1000
0010
0001
,
0200
0000
1000
0000
0001
0301
0000
0000
,
1001
0000
1000
0000
0100
0010
0100
0000
,
0010
0001
0010
0001
0000
1000
0001
0100
,
0010
0000
1000
0100
1000
0000
0001
0010
,
0001
0000
1000
0010
0100
0001
0010
0100
,
0110
0000
0010
0001
1000
0000
0001
1000
,
0010
0000
0100
0000
0010
0000
0000
0000
1000
0000
0000
0010
0000
0000
0100
0000
,
0110
0000
0000
0000
0010
0000
1000
0000
0100
0000
0010
0000
0001
0000
1000
0001
,
0000
1000
0001
0000
1000
0010
1000
0000
0001
0010
0001
0000
1000
0000
0010
0000
,
0110
0000
0000
0000
0001
0000
1000
0000
0100
0000
0010
0000
0100
0000
0010
0001
,
0000
0001
0010
0100
1000
0000
0100
0000
1000
0000
0100
0000
0010
0000
0001
0000
,
0010
0001
0100
0010
0100
0001
0010
0100
,
0010
0001
1000
0010
0001
0010
1000
0100
,
0110
0000
1001
0000
0001
0101
0000
0100
,
0110
0000
0010
1010
0000
1000
0100
0010
,
0011
0000
1001
0000
0001
0100
0010
0100
,
0001
0000
1100
0000
0010
0001
0100
0010
,
0100
0000
0010
1000
0100
0010
0100
0010
,
0001
0020
0001
0100
,
0031
0000
1000
0010
0100
0001
0010
0010
,
0010
0000
0100
0010
0100
1000
0010
0010
,
0010
0000
0100
0001
0010
0000
0100
0010
,
0001
0000
1001
0000
0101
0000
0010
0100
,
0010
0100
0010
0100
0010
0000
0100
0000
0010
0000
0000
0000
1000
0000
0001
0000
,
1000
0100
0010
0000
0100
1000
0000
0001
,
0010
0001
0100
0010
1000
0000
0010
0100
,
0001
2000
0010
0001
,
0100
0100
3100
0000
1000
0000
0010
0100
,
0001
0010
0100
0010
0001
1000
0010
0100
,
0000
0010
0100
0001
0010
0100
0010
0001
,
1000
0000
1010
0000
0101
0000
0001
0010
,
0001
0000
1000
0100
0001
0100
1000
1000
,
1000
0000
0010
0000
0100
0000
0001
0010
,
0001
0000
0110
0000
0010
0001
1001
0000
,
1000
0010
0110
0000
0010
1000
0100
0001
,
0100
1000
1001
0000
0001
0100
0010
1000
,
1100
1001
0000
0000
;

//---------------dance-single - ----------------
#NOTES:
     dance-single:
     :
     Medium:
     5:
     0.357,0.350,0.131,0.163,0.000:
1000
0001
0100
0010
,
1000
0000
0001
0100
0000
0100
0001
0000
,
1000
0100
0010
0001
,
1000
0000
0010
0100
0000
0100
0010
0010
,
1000
0001
1000
0100
,
0010
0001
0020
0000
0000
0001
0031
0000
,
0001
0100
0010
1000
,
0001
1000
0002
0000
0000
0100
0103
0000
,
0010
1000
0100
0001
,
0100
0010
0200
0000
0000
0010
0310
0000
,
0010
0001
0000
0001
1000
0000
1000
0010
,
0000
0010
0100
0000
0001
1000
0001
0000
,
1000
0100
0010
0001
,
1000
0001
1000
0000
0001
1000
0001
0000
,
1000
0010
0100
0001
,
0100
0010
0100
0000
0010
1000
0010
0000
,
1000
0100
0010
0100
,
0010
0001
0100
0000
0001
0100
0010
0000
,
1000
0000
0001
0000
0100
0000
0010
1000
,
0000
1000
0100
0000
0010
0001
0010
0000
,
2002
0003
0010
0001
,
0100
0000
0100
0000
0100
0200
3300
0000
,
1000
0001
1000
0000
0001
0000
0100
0000
,
0010
0000
1000
0001
0000
0001
1000
0100
,
0010
0100
1000
0100
,
0010
0000
0001
1000
0001
1000
0001
0000
,
1010
0000
0000
1001
0000
0000
0101
0000
,
0000
0011
0000
0000
2002
0000
3003
0000
,
0110
0000
0010
1000
0010
0000
1000
0001
,
1000
0000
0001
0010
0001
0010
0002
0000
,
1003
0000
1000
0100
0010
0000
0100
0010
,
0001
1000
0010
0100
,
0001
1000
0100
0010
,
0100
0000
0010
0001
0010
0000
0001
1000
,
0001
0000
1001
0000
0000
0110
0000
0000
,
1010
0000
0000
0101
0000
0000
0011
0000
,
1100
0000
1001
0000
1000
0001
1000
0000
,
0001
0000
0100
0000
0010
0100
0010
0000
,
0100
0000
0001
0010
0001
0000
1000
0100
,
1000
0000
0001
0000
0100
0000
0010
1000
,
0100
0010
0001
0000
1000
0000
0010
0100
,
0010
0000
1000
0000
0001
0000
0010
0100
,
0010
0000
0001
1000
0001
0000
1000
0010
,
1000
0000
0001
0000
0100
0000
0010
1000
,
0001
1000
0001
0000
1000
0000
0100
0010
,
0100
0000
0010
0000
0001
1000
0000
1000
,
0001
0000
0100
0010
0100
0000
0001
1000
,
0001
2000
0010
0001
,
0200
3300
0000
1000
0100
0000
0010
0000
,
0001
0010
0001
0000
1000
0010
1000
0000
,
0001
0000
0100
0010
1000
0000
0100
0010
,
0001
2000
0010
0001
,
3010
0000
1000
0001
0100
0000
0001
1000
,
0100
0020
0001
0100
,
0031
2002
0003
0200
,
3000
0020
0300
0002
,
0030
2000
0003
0020
,
3030
1001
0000
0000
;

//---------------dance-single - ----------------
#NOTES:
     dance-single:
     :
     Easy:
     4:
     0.255,0.304,0.139,0.008,0.000:
1000
0001
0100
0010
,
1000
0100
0010
0100
,
0010
0001
0100
0010
,
1000
0001
0100
0010
,
0110
0000
0010
0000
,
1000
0001
1000
0001
,
0100
0000
0001
0000
,
1000
0100
0010
0001
,
0100
0000
0010
0000
,
1000
0001
1000
0100
,
0010
0000
0100
0000
,
0010
0001
1000
0001
,
0100
1000
0100
0001
,
0100
0010
1000
0100
,
0010
0001
0010
1000
,
0010
0001
0100
0001
,
1000
0010
0100
0010
,
1000
0100
0010
0010
,
0100
0010
0001
0010
,
0100
0010
0001
0001
,
1001
0000
1000
0000
,
0001
0100
0001
0100
,
0001
0000
1000
0000
,
0100
0010
0100
0010
,
0001
0000
1000
0000
,
0010
0000
0100
0001
,
1000
0000
0000
0001
0000
0000
1000
0000
,
0000
0010
0000
0000
0110
0000
0000
0000
,
1001
1000
0001
1000
,
0001
0000
0100
0100
0100
0000
0020
0000
,
0030
1000
0100
0010
,
0001
1000
1000
0001
,
0001
0100
0010
0100
,
0001
0010
0100
0010
,
0001
0000
1001
0000
0000
1001
0000
0000
,
1001
0000
0000
1001
0000
0000
1001
0000
,
1001
1000
0010
0100
,
0001
1000
0100
0010
,
0001
1000
0001
1000
,
0001
0100
0000
0010
,
0000
1000
0010
0100
,
0001
0010
0100
0010
,
0001
1000
0010
0100
,
0001
1000
0000
0001
,
1000
0100
0001
0100
,
1000
0100
0010
0100
,
0010
0001
0010
0001
,
0100
0010
0100
0010
,
1000
0010
0001
0010
,
0100
0010
1000
0100
,
0010
0001
0100
0010
,
1000
0100
0001
0010
,
1000
0001
1000
0100
,
0010
0001
0100
1000
,
0010
0110
0000
1001
,
0000
1100
0000
0011
,
0000
0101
0000
1010
,
0000
1001
0000
0000
;

//---------------dance-single - ----------------
#NOTES:
     dance-single:
     :
     Beginner:
     1:
     0.128,0.163,0.049,0.000,0.000: // measure 1
1000
0000
0100
0000
,  // measure 2
1000
0000
0000
0000
,  // measure 3
0001
0000
0100
0000
,  // measure 4
0001
0000
0000
0000
,  // measure 5
1000
0000
1000
0000
,  // measure 6
0001
0000
0000
0000
,  // measure 7
0100
0000
0100
0000
,  // measure 8
0010
0000
0000
0000
,  // measure 9
0100
0000
0010
0000
,  // measure 10
1000
0000
0000
0000
,  // measure 11
1000
0000
0100
0000
,  // measure 12
0010
0000
0000
0000
,  // measure 13
0100
0000
0010
0000
,  // measure 14
0100
0000
0000
0000
,  // measure 15
0010
0000
0001
0000
,  // measure 16
0010
0000
0000
0000
,  // measure 17
0001
0000
1000
0000
,  // measure 18
0001
0000
0000
0000
,  // measure 19
1000
0000
0010
0000
,  // measure 20
0100
0000
0001
0000
,  // measure 21
1001
0000
0000
0000
,  // measure 22
1000
1000
1000
1000
,  // measure 23
1000
0000
0001
0000
,  // measure 24
0100
0000
0010
0000
,  // measure 25
0100
0000
0100
0000
,  // measure 26
0001
0000
1000
0000
,  // measure 27
1001
0000
0000
0000
,  // measure 28
0000
0000
0000
0000
,  // measure 29
0110
0010
0000
1000
,  // measure 30
0000
0001
0001
0001
,  // measure 31
0000
1000
0000
0100
,  // measure 32
0000
0010
0000
0001
,  // measure 33
0000
0010
0000
0000
,  // measure 34
0000
0001
0000
1000
,  // measure 35
0000
1001
0000
0000
,  // measure 36
0000
0000
0000
0000
,  // measure 37
0000
1001
0000
0001
,  // measure 38
0000
1000
0000
0010
,  // measure 39
0000
0100
0000
0001
,  // measure 40
0001
0001
0000
0000
,  // measure 41
0000
1000
0000
0100
,  // measure 42
0000
0010
0000
0001
,  // measure 43
0000
0100
0000
0010
,  // measure 44
0010
0010
0000
0000
,  // measure 45
0000
0100
0000
0001
,  // measure 46
0000
1000
0000
0100
,  // measure 47
0000
0010
0000
0100
,  // measure 48
0000
0010
0000
0001
,  // measure 49
0000
1000
0000
0010
,  // measure 50
0000
0100
0000
0001
,  // measure 51
0000
1000
0000
0001
,  // measure 52
0001
0001
0000
1000
,  // measure 53
0000
0010
0000
0100
,  // measure 54
0100
0100
0000
0010
,  // measure 55
0000
1000
0000
0100
,  // measure 56
0000
0010
0000
0001
,  // measure 57
0000
1000
0000
0001
,  // measure 58
0000
1001
0000
0000
;
