#TITLE:OPA;
#SUBTITLE:;
#ARTIST:Giorgos Alkaios and Friends;
#TITLETRANSLIT:;
#SUBTITLETRANSLIT:;
#ARTISTTRANSLIT:;
#CREDIT:;
#BANNER:;
#BACKGROUND:;
#LYRICSPATH:;
#CDTITLE:;
#MUSIC:OPA.mp3;
#OFFSET:-4.980;
#SAMPLESTART:56.570;
#SAMPLELENGTH:15.860;
#SELECTABLE:YES;
#BPMS:0.000=121.000;
#STOPS:;
#BGCHANGES:;

//---------------dance-single - ----------------
#NOTES:
     dance-single:
     :
     Hard:
     9:
     0.554,0.550,0.369,0.198,0.274: // measure 1
1000
0000
0001
0000
1000
0000
0100
0000
0010
0000
0001
0000
1000
0010
1000
0000
,  // measure 2
0001
0000
0100
0000
0010
0000
1000
0000
0001
0000
1000
0001
1000
0000
0000
0000
,  // measure 3
0001
0000
0010
0000
0001
0000
1000
0000
0100
0000
0010
0000
0100
0010
0100
0000
,  // measure 4
0010
0000
0001
0000
1000
0000
0010
0000
0100
0000
0001
1000
0001
0000
0000
0000
,  // measure 5
1000
0000
0001
0010
0001
0000
1000
0000
0010
0000
0100
0000
0110
0000
0010
0000
,  // measure 6
1000
0000
0001
1000
0001
0000
1000
0000
0100
0000
0010
0000
0011
0000
0001
0000
,  // measure 7
0100
0000
0010
1000
0010
0000
0100
0000
0001
0000
1000
0000
0001
1000
0001
0000
,  // measure 8
1000
0100
1000
0000
0001
0100
0001
0000
1000
0100
0010
0001
1000
0000
0000
0000
,  // measure 9
2002
0000
0000
3003
,  // measure 10
1000
0000
0000
1000
0010
0000
0200
0000
0002
0000
0000
0000
0303
0000
0000
0000
,  // measure 11
0001
0000
0000
1000
0001
0000
0200
0000
0020
0000
0000
0000
0330
0000
0000
0000
,  // measure 12
0010
0000
1000
0000
0100
0000
0010
0000
0001
0000
0000
1000
0000
0000
0001
0000
,  // measure 13
1000
0100
0010
0002
0200
0000
0303
0000
,  // measure 14
1001
0000
0000
0001
0000
0000
1000
0000
0010
0000
0000
0000
0110
0000
0000
0000
,  // measure 15
0100
0000
0000
0001
0000
0000
1000
0000
0001
0000
0000
0000
1001
0000
0000
0000
,  // measure 16
1000
0000
0000
0100
0000
0000
0010
0000
0001
0010
0000
0001
0000
0000
1000
0000
,  // measure 17
0010
0100
0001
0000
0010
0000
0100
0000
1000
0000
0100
0010
0001
0000
0010
0001
,  // measure 18
1000
0000
0000
1000
0001
0000
1000
0000
0001
0000
0000
0000
0110
0000
0000
0000
,  // measure 19
0010
0000
0000
1000
0010
0000
1000
0000
0010
0000
0000
0000
0101
0000
0000
0000
,  // measure 20
0001
0000
1000
0000
0100
0000
0010
0000
0100
1000
0000
0100
0000
0000
0010
0000
,  // measure 21
0001
1000
0010
0100
0202
0000
0303
0000
,  // measure 22
1001
0000
0000
1000
0010
0000
1000
0000
0001
0000
0000
0000
1001
0000
0000
0000
,  // measure 23
0001
0000
0000
1000
0100
0000
0010
0000
0001
0000
0000
0000
1100
0000
0000
0000
,  // measure 24
0001
0000
1000
0000
0010
0000
0100
0000
0001
0100
0000
0001
0000
0000
0100
0000
,  // measure 25
0010
1000
1100
0100
0220
0000
0330
0000
,  // measure 26
2002
0000
0000
3003
,  // measure 27
0001
0000
1000
0001
1000
0000
0001
0000
0100
0000
0000
0000
1010
0000
0000
0000
,  // measure 28
0001
0100
0001
0000
1000
0100
1000
0000
0001
0000
1000
0000
1001
0000
0000
0000
,  // measure 29
0001
0000
1000
0010
1000
0000
0010
0000
0100
0000
0000
0000
0101
0000
0000
0000
,  // measure 30
1000
0001
0100
0000
0001
1000
0100
0000
1000
0000
0001
0000
1001
0000
0000
0000
,  // measure 31
1000
0010
1000
0001
0100
0000
0101
1001
,  // measure 32
1000
0100
0010
0001
0100
0000
0110
1010
,  // measure 33
1000
0100
0010
0100
1000
0100
0010
0100
,  // measure 34
1000
0010
0100
0001
0010
0001
1001
0000
,  // measure 35
0220
0000
0000
0330
,  // measure 36
0001
1000
0001
0000
1000
0000
0100
0000
0010
0001
0010
0000
0001
0000
0100
0000
,  // measure 37
0010
1000
0010
0000
1000
0000
0001
0000
1000
0000
0100
0000
0010
0000
0001
0000
,  // measure 38
1000
0001
1000
0001
1000
0000
0001
0000
0100
0001
0100
0001
0100
0000
0001
0000
,  // measure 39
1000
0100
1000
0100
1000
0000
0001
0000
0010
0001
0010
0001
0010
0000
0000
0000
,  // measure 40
0001
1000
0100
0000
1000
0000
0001
0000
0000
0000
0001
0000
0100
0000
0010
0000
,  // measure 41
1000
0010
0100
0000
0010
0000
1000
0000
0000
0000
1000
0000
0001
0000
0000
0000
,  // measure 42
0220
0000
0000
0000
,  // measure 43
0000
0000
0330
0000
,  // measure 44
1001
0110
1001
0220
,  // measure 45
0000
0000
0000
0330
,  // measure 46
0010
0001
0010
0000
0100
1000
0100
0000
1000
0000
0001
0000
0100
0000
0000
0000
,  // measure 47
0001
0000
1000
0001
1000
0000
0010
0000
0100
0000
0000
0000
0101
0000
0000
0000
,  // measure 48
0010
1000
0100
0000
0010
0001
0100
0000
0010
1000
0010
1000
0001
0000
0000
0000
,  // measure 49
1001
0000
0000
1000
0010
0000
0100
0000
0001
0000
0000
0000
1001
0000
0110
0000
,  // measure 50
0010
0000
1000
0010
1000
0000
0001
0000
1000
0000
0100
0000
0011
0000
1100
0000
,  // measure 51
0010
0001
0100
0001
0010
0001
0100
0001
,  // measure 52
1000
0010
0100
0001
0101
1010
2002
0000
,  // measure 53
3003
0000
1000
0001
0010
0000
0001
0000
1000
0000
0100
0000
0010
0001
1000
0000
,  // measure 54
1001
1001
0000
0000
0000
0000
0000
0000
;

//---------------dance-single - ----------------
#NOTES:
     dance-single:
     :
     Medium:
     7:
     0.424,0.382,0.180,0.234,0.063: // measure 1
1000
0100
0010
0001
1000
1000
0001
0000
,  // measure 2
0100
0001
0100
0000
0010
1000
0010
0000
,  // measure 3
0001
1000
0100
0010
0001
0001
0100
0000
,  // measure 4
0010
1000
0010
0000
0100
0001
0100
0000
,  // measure 5
0002
0000
0010
0000
1000
0000
0100
0100
,  // measure 6
0203
0000
1000
0000
0010
0000
0001
0001
,  // measure 7
0302
0010
1000
0100
,  // measure 8
1003
0100
0010
0001
0100
0001
0100
0000
,  // measure 9
0220
0000
0000
0330
,  // measure 10
0010
0000
0000
1000
0000
0000
0002
0000
2000
0000
0000
0000
3003
0000
0000
0000
,  // measure 11
0001
0000
0000
1000
0000
0000
0200
0000
0020
0000
0000
0000
0330
0000
0000
0000
,  // measure 12
0010
0000
0000
0001
0000
0000
1000
0000
0001
0000
0000
1000
0000
0000
0010
0000
,  // measure 13
1000
0001
0100
0002
2000
0000
3003
0000
,  // measure 14
0001
0000
0000
1000
0000
0000
0200
0000
2000
0000
0000
0000
3300
0000
0000
0000
,  // measure 15
1000
0000
0000
0001
0000
0000
0200
0000
0002
0000
0000
0000
0303
0000
0000
0000
,  // measure 16
0001
0000
0000
1000
0000
0000
0100
0000
0010
0000
0000
0001
0000
0000
0010
0000
,  // measure 17
0001
1000
0010
0100
0001
0010
0100
0000
,  // measure 18
1001
0000
0000
0001
0000
0000
1000
0000
0010
0000
0000
0000
0101
0000
0000
0000
,  // measure 19
0001
0000
0000
1000
0000
0000
0100
0000
0010
0000
0000
0000
1001
0000
0000
0000
,  // measure 20
1000
0000
0000
0010
0000
0000
1000
0000
0001
0000
0000
0100
0000
0000
0001
0000
,  // measure 21
1000
0100
0010
0002
2000
0000
3003
0000
,  // measure 22
1000
0100
0010
0001
0100
0000
0110
0000
,  // measure 23
0010
1000
0100
0010
0001
0000
1001
0000
,  // measure 24
1000
0000
0001
0000
1000
0000
0001
0000
0100
0000
0000
0001
0000
0000
0100
0000
,  // measure 25
0010
1000
0100
0010
0001
0000
1001
0000
,  // measure 26
0220
0000
0000
0330
,  // measure 27
1000
0010
1000
0001
1000
0000
0011
0000
,  // measure 28
1000
0001
1000
0010
0100
0001
0100
0000
,  // measure 29
0001
1000
0010
0100
0001
0000
0011
0000
,  // measure 30
1000
0100
1000
0001
0100
0001
0100
0000
,  // measure 31
1010
0000
0101
0000
1000
0001
0100
0100
,  // measure 32
0100
0000
0010
0000
1000
0100
1000
1000
,  // measure 33
1000
0000
0001
0000
0100
0010
1000
0000
,  // measure 34
0100
0010
0001
1000
0010
0100
0001
0000
,  // measure 35
2002
0000
0000
3003
,  // measure 36
1000
0010
1000
0000
0001
0100
0001
0000
,  // measure 37
1000
0001
1000
0001
0100
0010
0100
0000
,  // measure 38
0010
1000
0100
0010
0001
0100
0010
1000
,  // measure 39
0010
0100
0001
0010
0001
1000
0100
0000
,  // measure 40
0010
0001
0100
0010
0000
0010
1000
0100
,  // measure 41
0010
0001
0100
0001
0000
1000
0010
1000
,  // measure 42
2002
0000
0000
0000
,  // measure 43
0000
0000
3003
0000
,  // measure 44
1100
0011
0101
2020
,  // measure 45
0000
0000
0000
3030
,  // measure 46
0001
0100
0001
0100
0010
0100
0010
0000
,  // measure 47
1000
0000
0001
0001
0001
0000
1010
0000
,  // measure 48
1000
0100
0010
0001
1000
0001
1000
0000
,  // measure 49
0001
0000
0100
0000
0010
0000
1000
1000
,  // measure 50
1000
0000
0100
0000
0010
0000
0001
0001
,  // measure 51
0001
0000
0100
0000
0010
1000
0010
1000
,  // measure 52
0100
0010
0001
0100
0001
0100
0020
0000
,  // measure 53
0030
0000
0100
0010
0100
0000
0010
0000
1000
0000
0001
0000
1000
0000
0100
0000
,  // measure 54
1100
0000
0000
0000
;

//---------------dance-single - ----------------
#NOTES:
     dance-single:
     :
     Beginner:
     1:
     0.118,0.143,0.054,0.000,0.000: // measure 1
1000
0000
0001
0000
,  // measure 2
0100
0000
0010
0000
,  // measure 3
0100
0000
0001
0000
,  // measure 4
1000
0000
0100
0000
,  // measure 5
0010
0000
0000
0000
,  // measure 6
0100
0000
0000
0000
,  // measure 7
0010
0000
0000
0000
,  // measure 8
0001
0000
1000
0000
,  // measure 9
1001
0000
0000
0000
,  // measure 10
0001
0000
0000
0000
,  // measure 11
0001
0000
0000
0000
,  // measure 12
1000
0000
0010
0000
,  // measure 13
1000
0000
0010
0000
,  // measure 14
0100
0000
0000
0000
,  // measure 15
0100
0000
0000
0000
,  // measure 16
0010
0000
1000
0000
,  // measure 17
0010
0000
1000
0000
,  // measure 18
0001
0000
0100
0000
,  // measure 19
0010
0000
1000
0000
,  // measure 20
0001
0000
1000
0000
,  // measure 21
0100
0000
0010
0000
,  // measure 22
0001
0000
0000
0000
,  // measure 23
1000
0000
0000
0000
,  // measure 24
0001
0000
1000
0000
,  // measure 25
0001
0000
0100
0000
,  // measure 26
0110
0000
0000
0000
,  // measure 27
1001
0000
0001
0000
,  // measure 28
1000
0000
0000
0000
,  // measure 29
0001
0000
1000
0000
,  // measure 30
0100
0000
0000
0000
,  // measure 31
0010
0000
0100
0000
,  // measure 32
0010
0000
0001
0000
,  // measure 33
1000
0000
0010
0000
,  // measure 34
0100
0000
0000
0000
,  // measure 35
1001
0000
0000
0000
,  // measure 36
0010
0000
0010
0000
,  // measure 37
0100
0000
0100
0000
,  // measure 38
1000
0000
0001
0000
,  // measure 39
1000
0000
0001
0000
,  // measure 40
1000
0000
0010
0000
,  // measure 41
0100
0000
0001
0000
,  // measure 42
1001
0000
0000
0000
,  // measure 43
0000
0000
0000
0000
,  // measure 44
0100
0100
0100
0100
,  // measure 45
0000
0000
0000
0000
,  // measure 46
0010
0000
0100
0000
,  // measure 47
0001
0000
0000
0000
,  // measure 48
1000
0000
0001
0000
,  // measure 49
0100
0000
0001
0000
,  // measure 50
1000
0000
0100
0000
,  // measure 51
0010
0000
0001
0000
,  // measure 52
1000
0000
0010
0000
,  // measure 53
0000
0000
0000
0000
,  // measure 54
1001
0000
0000
0000
;

//---------------dance-single - ----------------
#NOTES:
     dance-single:
     :
     Easy:
     4:
     0.258,0.262,0.171,0.081,0.000: // measure 1
1000
0100
1000
0001
,  // measure 2
0100
0010
0100
0010
,  // measure 3
1000
0100
0010
0001
,  // measure 4
0100
0001
0100
0001
,  // measure 5
1001
0000
0100
0010
,  // measure 6
0110
0000
0010
1000
,  // measure 7
1001
0000
1000
0100
,  // measure 8
0110
0010
0001
1000
,  // measure 9
2002
0000
0000
3003
,  // measure 10
0001
1000
0001
0000
,  // measure 11
0100
0001
0100
0000
,  // measure 12
0010
1000
0100
1000
,  // measure 13
0001
0010
0100
0000
,  // measure 14
0010
0001
0010
0000
,  // measure 15
0100
1000
0100
0000
,  // measure 16
1000
0010
0100
0001
,  // measure 17
1000
0010
0100
0000
,  // measure 18
0010
1000
1001
0000
,  // measure 19
0001
0100
0110
0000
,  // measure 20
0010
1000
0100
0010
,  // measure 21
0001
0100
0010
0000
,  // measure 22
1000
0001
0101
0000
,  // measure 23
0001
1000
1100
0000
,  // measure 24
0010
0001
0100
0010
,  // measure 25
1000
0100
0010
0100
,  // measure 26
0220
0000
0000
0330
,  // measure 27
0010
0001
0100
0010
,  // measure 28
0100
0100
0001
0001
,  // measure 29
1000
0100
0010
0001
,  // measure 30
1000
1000
0001
0001
,  // measure 31
1001
0000
1000
0010
,  // measure 32
0100
0000
0010
0100
,  // measure 33
0001
1000
0100
0010
,  // measure 34
0001
1000
0001
1000
,  // measure 35
0020
0000
0000
0030
,  // measure 36
1000
0001
1000
0001
,  // measure 37
1000
0010
1000
0010
,  // measure 38
0100
0001
0100
0001
,  // measure 39
1000
0100
1000
0100
,  // measure 40
0010
0001
0100
0000
,  // measure 41
0010
1000
0100
0000
,  // measure 42
0220
0000
0000
0000
,  // measure 43
0000
0000
0330
0000
,  // measure 44
1001
0110
1001
0110
,  // measure 45
2002
0000
0000
3003
,  // measure 46
1000
0100
0010
0001
,  // measure 47
0100
0010
0100
0000
,  // measure 48
0001
0100
0010
1000
,  // measure 49
1001
0000
1000
0001
,  // measure 50
0100
0000
0001
1000
,  // measure 51
0100
0010
0001
0100
,  // measure 52
0010
0100
0001
1000
,  // measure 53
0001
0001
1000
1000
,  // measure 54
1001
0000
0000
0000
;
