#TITLE:Ge-Ko-Ku-Jo;
#SUBTITLE:;
#ARTIST:kors k feat. MC RALLY;
#TITLETRANSLIT:;
#SUBTITLETRANSLIT:;
#ARTISTTRANSLIT:;
#CREDIT:;
#BANNER:;
#BACKGROUND:;
#LYRICSPATH:;
#CDTITLE:;
#MUSIC:Ge-Ko-Ku-Jo.mp3;
#OFFSET:-11.000;
#SAMPLESTART:21.970;
#SAMPLELENGTH:10.970;
#SELECTABLE:YES;
#BPMS:0.000=175.000,160.000=87.500,176.000=175.000;
#STOPS:;
#BGCHANGES:;

//---------------dance-single - ----------------
#NOTES:
     dance-single:
     :
     Hard:
     7:
     0.471,0.502,0.217,0.130,0.000:
1000
0000
0000
0000
0001
0000
1000
0001
,
1000
0000
0010
0100
0010
0000
0100
0001
,
0100
0000
0001
0000
,
1000
0000
0100
0000
,
0010
0001
1000
0100
,
0010
0100
1000
0010
,
0001
0100
1000
0010
,
2000
0010
0002
3003
,
1001
0000
1000
0010
0000
0010
0100
0000
,
0001
0010
0001
0000
1000
0010
1000
0000
,
0001
0000
0010
0100
0000
0100
0010
0000
,
0001
1000
0001
0000
0100
0010
0100
0000
,
0010
1000
0100
0010
0000
0100
1000
0000
,
0001
0100
0001
0000
1000
0010
1000
0000
,
0001
0010
0100
0010
0000
0001
0100
0000
,
0010
1000
0100
0000
0010
0001
0100
0000
,
1001
0000
1000
0000
0100
0010
0000
0001
,
1000
0001
0100
0000
0001
1000
0000
1000
,
0100
0000
0010
0000
0100
1000
0000
0100
,
0010
0001
1000
0000
0001
0100
0001
0000
,
2100
0000
0001
0001
,
0001
0001
0001
0001
,
3001
1000
0001
1000
0001
1000
0001
1000
,
0010
0100
0020
0200
0000
0000
0330
0000
,
1010
0000
0101
0000
1001
0000
1000
0100
,
0000
0010
0001
0000
1000
0001
1000
0000
,
0001
0010
0100
0000
0010
0001
0100
0000
,
0010
1000
0100
0000
0010
0001
0000
0000
,
1001
0000
1000
0010
0000
0100
0001
0000
,
0001
0010
0100
0000
0110
0000
1001
0000
,
1100
0000
1000
0100
0000
0001
0100
0000
,
2200
0000
0000
0000
3300
0000
1000
0010
,
0100
0010
1000
0000
0100
0010
0100
1000
,
0000
0001
0100
0000
0001
1000
0001
0000
,
1000
0100
0010
0001
0010
0000
0001
0100
,
0000
0010
1000
0000
0010
0100
0001
0000
,
1000
0000
0010
0000
1000
0000
0010
1000
,
0010
0100
0001
0010
,
0001
0100
0001
0100
0010
1000
0010
1000
,
0001
1000
0001
1000
0100
0010
0100
0000
,
0220
0000
0030
0000
,
2300
0000
3020
0000
,
0200
0000
0000
0000
0000
0330
0000
0000
,
0000
0000
0000
0000
,
1000
0100
1000
0000
0001
0000
0100
0000
,
0001
0100
0001
0000
1000
0000
0100
0000
,
0010
0100
1000
0000
0010
0000
0100
0000
,
0001
0010
0100
0000
0010
0000
0001
0000
,
1000
0001
1000
0001
0100
0001
0100
0001
,
1000
0010
1000
0000
0202
0000
0303
0000
,
0001
0010
0100
1000
0001
0010
0100
1000
,
0001
0100
0010
1000
0002
0000
0003
0000
,
0011
0000
1100
0000
0001
0100
0000
0110
,
0000
0010
1000
0100
0010
0000
1100
0000
,
0010
0000
0001
0100
0000
0100
1000
0000
,
1000
0010
0000
0010
0001
0000
1001
0000
,
1000
0010
1000
0001
0100
0000
0001
0000
,
0010
0001
1000
0100
1000
0000
0001
0000
,
1000
0000
1000
0100
0000
0100
0001
0000
,
0001
0010
0000
0010
1000
0000
1001
0000
,
1100
0000
0011
0000
0001
1000
0000
1000
,
0001
0000
0101
0000
0001
1000
0000
1000
,
0100
0000
0010
0100
0000
0010
0001
0000
,
1000
0001
0000
1000
0100
0000
0011
0000
,
1000
0001
1000
0001
0100
0010
0000
0100
,
0001
0100
0001
0100
0010
1000
0001
0000
,
0010
0000
0001
0010
0000
0010
0100
0000
,
0100
0010
0001
1000
0001
0000
0101
0000
,
1001
0000
0000
0000
;

//---------------dance-single - ----------------
#NOTES:
     dance-single:
     :
     Medium:
     5:
     0.371,0.413,0.148,0.139,0.000:
1000
0000
0001
1000
,
0100
0000
0010
0000
0100
0010
0100
0000
,
0010
0000
0001
0000
,
1000
0000
0010
0000
,
0100
0001
1000
0100
,
0010
0001
1000
0001
,
0010
0100
0010
0000
0100
0010
0100
0000
,
2002
0000
0000
3003
,
1001
0000
0000
1000
0000
0001
0100
0000
,
0001
1000
0100
0010
,
0100
0000
0000
0010
0000
0001
0010
0000
,
0001
0000
1000
0000
0010
0100
0010
0000
,
1000
0000
0100
0000
0010
0001
0010
0000
,
0001
0000
0100
0000
0010
1000
0000
0000
,
0001
0000
0100
0000
0001
1000
0001
0000
,
1000
0001
1000
0000
1001
0000
0110
0000
,
1001
0000
0001
0100
0000
0010
0000
1000
,
0100
0010
0001
0100
,
0010
0000
0100
0010
0000
1000
0000
0001
,
0100
0001
0010
0100
,
2010
0000
0010
0010
,
0010
0010
0010
3010
,
1000
0000
0010
0000
0100
0001
0100
0000
,
0001
2000
0002
0000
0000
0000
3003
0000
,
1000
0000
0001
0000
0100
0000
0010
0100
,
0000
0100
0001
0000
1000
0000
0100
0000
,
0010
0000
0001
0000
0100
0000
0010
1000
,
0000
1000
0100
0000
0010
0100
0010
0000
,
0011
0000
0001
0100
0000
0100
0001
1000
,
0100
0010
0100
1000
,
0001
0000
0100
0010
0000
0010
1000
0000
,
2002
0000
0000
3003
,
1000
0000
0100
0000
0010
0100
0010
0000
,
0001
0000
1000
0000
0001
0100
0000
0000
,
0010
0000
1000
0000
0100
0010
0100
0000
,
1000
0000
0010
0000
0100
0010
0000
0000
,
1010
1000
0100
0001
,
0100
1000
0100
0001
,
0100
0000
0010
0000
0001
1000
0001
0000
,
2002
0000
0000
3003
,
2002
0000
0000
3003
,
0002
0000
0203
0000
,
0020
0000
0330
0000
,
0000
0000
0000
0000
,
0010
1000
0001
1000
,
0100
1000
0001
1000
,
0010
1000
0100
0010
,
0100
1000
0001
0100
,
0010
1000
0010
0000
0100
0001
0100
0000
,
0001
1000
1001
0000
,
1000
0100
1000
0000
0001
0010
0001
0000
,
1000
0010
1000
0000
0202
0000
0303
0000
,
0001
0000
1000
0000
0100
0010
0100
0000
,
0010
0001
1000
0001
,
0100
0000
0000
0010
0000
0000
1000
0000
,
0000
0001
0000
0000
1000
0000
0100
0000
,
1000
0000
0001
0000
0010
0100
0010
0000
,
0001
1000
0010
0100
,
0001
0000
0000
0100
0000
0000
1000
0000
,
0000
0100
0000
0000
0001
0000
1000
0000
,
1001
0000
0001
0000
0010
0100
0000
0010
,
0001
0000
0100
0000
0001
0100
0000
0100
,
0010
0000
0000
1000
0000
0000
0100
0000
,
0000
0010
0000
0000
0001
0000
1000
0000
,
0001
0000
1000
0000
0010
0100
0000
0001
,
1000
0000
0100
0000
0010
0100
0000
0100
,
0010
0000
0000
0001
0000
0000
1000
0000
,
0000
0001
0100
0000
0101
0000
1001
0000
,
1100
0000
0000
0000
;

//---------------dance-single - ----------------
#NOTES:
     dance-single:
     :
     Easy:
     4:
     0.276,0.295,0.043,0.061,0.000: // measure 1
1000
0000
0001
0100
,  // measure 2
0001
1000
0100
0010
,  // measure 3
0100
0000
0010
0000
,  // measure 4
0001
0000
1000
0000
,  // measure 5
0001
1000
0001
1000
,  // measure 6
0001
1000
0001
1000
,  // measure 7
0010
0100
0010
0100
,  // measure 8
0010
0100
0010
0000
,  // measure 9
0010
1000
0100
0000
,  // measure 10
0010
0001
0100
0000
,  // measure 11
0001
1000
0001
1000
,  // measure 12
0010
0100
0010
0000
,  // measure 13
1000
0010
0100
0000
,  // measure 14
0010
0100
0001
0000
,  // measure 15
1000
0100
0010
0001
,  // measure 16
1000
0001
1000
0000
,  // measure 17
0001
0100
0010
1000
,  // measure 18
0100
0010
0100
0000
,  // measure 19
0010
0001
1000
0010
,  // measure 20
0100
0001
1000
0000
,  // measure 21
1002
0000
0000
1000
,  // measure 22
1000
1000
1000
1000
,  // measure 23
1003
0001
1000
0001
,  // measure 24
0100
0020
0000
0030
,  // measure 25
1000
0001
1000
0100
,  // measure 26
0010
0100
0100
0000
,  // measure 27
0010
0001
0100
0010
,  // measure 28
1000
0001
0001
0000
,  // measure 29
1001
0000
1000
0000
,  // measure 30
0001
0100
0001
0000
,  // measure 31
1000
0000
0100
0000
,  // measure 32
0110
0000
0000
0000
,  // measure 33
0010
0001
1000
0001
,  // measure 34
1000
0010
0100
0000
,  // measure 35
0010
0100
0001
1000
,  // measure 36
0100
0010
0100
0000
,  // measure 37
0010
0001
0010
0001
,  // measure 38
1000
0100
1000
0100
,  // measure 39
1000
0010
1000
0010
,  // measure 40
0100
0001
0100
0001
,  // measure 41
2000
0000
0000
0000
,  // measure 42
3002
0000
0000
0000
,  // measure 43
0203
0000
0000
0000
,  // measure 44
0300
0000
0000
0000
,  // measure 45
0010
1000
0010
0000
,  // measure 46
0100
0001
0100
0000
,  // measure 47
0001
0010
0001
0000
,  // measure 48
1000
0100
1000
0000
,  // measure 49
0001
1000
0001
1000
,  // measure 50
0010
0100
0010
0000
,  // measure 51
0100
0001
0100
0001
,  // measure 52
2002
0000
0000
3003
,  // measure 53
1000
0001
1000
0000
,  // measure 54
0010
0100
0010
0000
,  // measure 55
1000
0010
0100
0001
,  // measure 56
0010
0100
0010
0000
,  // measure 57
0100
0010
0001
0000
,  // measure 58
1000
0001
1000
0000
,  // measure 59
0010
0100
0001
1000
,  // measure 60
0001
1000
0100
0000
,  // measure 61
0010
0001
0100
0000
,  // measure 62
0010
1000
0100
0000
,  // measure 63
1000
0001
1000
0010
,  // measure 64
0100
0001
1000
0000
,  // measure 65
0001
0010
0100
0000
,  // measure 66
0010
0001
0100
0000
,  // measure 67
0010
1000
0100
0010
,  // measure 68
0100
1000
0001
0100
,  // measure 69
0110
0000
0000
0000
;

//---------------dance-single - ----------------
#NOTES:
     dance-single:
     :
     Beginner:
     1:
     0.141,0.177,0.052,0.000,0.000: // measure 1
1000
0000
1000
0000
,  // measure 2
0001
0000
0001
0000
,  // measure 3
0100
0000
0100
0000
,  // measure 4
0010
0000
0010
0000
,  // measure 5
0100
0000
0001
0000
,  // measure 6
1000
0000
0010
0000
,  // measure 7
1000
0000
0100
0000
,  // measure 8
0010
0000
0000
0000
,  // measure 9
0110
0000
0000
0000
,  // measure 10
0100
0000
0010
0000
,  // measure 11
0001
0000
0000
0000
,  // measure 12
1000
0000
0001
0000
,  // measure 13
1000
0000
0000
0000
,  // measure 14
0010
0000
0100
0000
,  // measure 15
0001
0000
1000
0000
,  // measure 16
0100
0000
0010
0000
,  // measure 17
0001
0000
0000
0000
,  // measure 18
1000
0000
0010
0000
,  // measure 19
1000
0000
0000
0000
,  // measure 20
0001
0000
0100
0000
,  // measure 21
0001
0000
1000
0000
,  // measure 22
0100
0000
0010
0000
,  // measure 23
0100
0000
1000
0000
,  // measure 24
1001
0000
0000
0000
,  // measure 25
1001
0000
0001
0000
,  // measure 26
0100
0000
0010
0000
,  // measure 27
0100
0000
0001
0000
,  // measure 28
1000
0000
0100
0000
,  // measure 29
0010
0000
0000
0000
,  // measure 30
0100
0000
0000
0000
,  // measure 31
0010
0000
0000
0000
,  // measure 32
0001
0000
0000
0000
,  // measure 33
1001
0000
1000
0000
,  // measure 34
0010
0000
0100
0000
,  // measure 35
0010
0000
0100
0000
,  // measure 36
0001
0000
1000
0000
,  // measure 37
0001
0000
0000
0000
,  // measure 38
0001
0000
0000
0000
,  // measure 39
1000
0000
0000
0000
,  // measure 40
1000
0000
0001
0000
,  // measure 41
1000
0000
0000
0000
,  // measure 42
0010
0000
0000
0000
,  // measure 43
0100
0000
0000
0000
,  // measure 44
0000
0000
0000
0000
,  // measure 45
0010
0000
0010
0000
,  // measure 46
0100
0000
0100
0000
,  // measure 47
0001
0000
1000
0000
,  // measure 48
0001
0000
1000
0000
,  // measure 49
0100
0000
0010
0000
,  // measure 50
0100
0000
0010
0000
,  // measure 51
0001
0000
0000
0000
,  // measure 52
0000
0000
0000
0000
,  // measure 53
1001
0000
1000
0000
,  // measure 54
0001
0000
0100
0000
,  // measure 55
0010
0000
0000
0000
,  // measure 56
0100
0000
0000
0000
,  // measure 57
0001
0000
1000
0000
,  // measure 58
0001
0000
1000
0000
,  // measure 59
0100
0000
0000
0000
,  // measure 60
0010
0000
0000
0000
,  // measure 61
0100
0000
0010
0000
,  // measure 62
0001
0000
1000
0000
,  // measure 63
0001
0000
0000
0000
,  // measure 64
1000
0000
0000
0000
,  // measure 65
0010
0000
1000
0000
,  // measure 66
0001
0000
0100
0000
,  // measure 67
0001
0000
0000
0000
,  // measure 68
1000
0000
0001
0000
,  // measure 69
1001
0000
0000
0000
;
