#TITLE:GOLDEN CROSS;
#SUBTITLE:;
#ARTIST:dj REMO-CON VS dj TAKA;
#TITLETRANSLIT:;
#SUBTITLETRANSLIT:;
#ARTISTTRANSLIT:;
#CREDIT:;
#BANNER:GOLDEN CROSS.png;
#BACKGROUND:GOLDEN CROSS-bg.png;
#LYRICSPATH:;
#MUSIC:GOLDEN CROSS.mp3;
#OFFSET:1.191;
#SAMPLESTART:83.600;
#SAMPLELENGTH:15.000;
#SELECTABLE:YES;
#BPMS:0.000=150.000;
#STOPS:;
#BGCHANGES:;

//---------------dance-single - ----------------
#NOTES:
     dance-single:
     :
     Hard:
     9:
     0.581,0.558,0.193,0.151,0.306:
0000
0000
0000
0000
,
0000
0000
0000
0000
,
0000
0000
0000
0000
0000
1001
0000
0000
,
1000
0100
1000
0001
,
0100
0001
0010
0001
,
1000
0010
1000
0010
,
0100
0000
0001
0000
0100
0000
0001
1000
,
1001
0000
0010
0000
1000
0000
0100
0010
,
0001
0000
0010
0100
1000
0000
0100
0010
,
0001
0100
0010
1000
,
0001
0000
0100
0000
0001
0000
0100
0000
0001
0000
0000
1000
0000
0000
0100
0000
,
1000
0000
0000
1000
0100
0000
0000
0100
1000
0000
0000
1000
0010
0000
0000
0010
,
0100
0000
0000
0001
0100
0000
0000
0010
1000
0000
0000
0100
1000
0000
0000
0100
,
0010
0000
0000
0010
0001
0000
0000
0001
1000
0000
0000
1000
0010
0000
0000
0010
,
0100
0000
0000
0001
0100
0000
0010
0000
1000
0000
0000
0001
1000
0000
0010
0000
,
0110
0000
0001
1000
0100
0000
0010
0001
,
0100
0000
0000
0000
0010
0000
1000
0000
0100
0000
0000
0010
0100
0000
0100
0000
,
0100
0000
1000
0100
0020
0000
0031
0100
,
0010
0000
1000
0000
0010
0000
0100
0000
0010
0000
0000
1000
0000
0000
0100
0000
,
0110
0000
0010
0000
0001
0000
0100
0000
0010
0000
0000
1000
0000
0000
0010
0000
,
0100
0000
0001
0000
0010
0000
0001
0000
1000
0000
0000
0100
0000
0000
0010
0000
,
0001
0000
0100
0000
0010
0000
0100
0000
0001
0000
0000
1000
0000
0000
0100
0000
,
0001
0000
0100
0000
1000
0000
0010
0000
0100
0000
0000
0010
0000
0000
1000
0000
,
1001
0000
0000
0001
0000
0000
0100
0000
0001
0000
0000
0010
0000
0000
0100
0000
,
1000
0000
0000
1000
0000
0000
0010
0000
0100
0000
0000
0001
0000
0000
1000
0000
,
0001
0000
0000
0100
0000
0000
0100
0000
0001
0000
0000
0010
0000
0000
0001
0000
,
1000
0000
0001
1000
0000
0000
0001
0000
0000
0000
0010
1000
0000
0000
0001
0000
,
0101
0001
0000
1000
0100
1000
0000
0010
,
0100
0001
0000
0010
0100
1000
0000
0010
,
0100
0001
0000
1000
0001
0100
0000
0001
,
0010
0001
0000
1000
0010
0100
0001
0010
,
0110
0100
1000
0010
,
0100
0001
1000
0010
1000
0100
0010
0001
,
1000
0100
1000
0100
0001
0100
0001
0100
,
1000
0010
0001
0100
0001
0010
1000
0100
,
0120
0000
0000
0001
0000
0100
0230
0000
,
2300
0000
0000
0010
0000
0001
3002
0000
,
0203
0000
0000
1000
0000
0010
0320
0000
,
1030
0000
0000
1000
0000
0000
0010
0000
0100
0000
0000
0001
0000
0000
0001
0000
,
0100
0000
0000
0001
0100
0000
0000
0001
0000
1000
0100
0000
0200
0000
0000
0000
,
0310
0000
0000
0001
0010
0000
0000
0100
0000
1000
0100
0000
2000
0000
0000
0000
,
3010
0000
0000
1000
0001
0000
0000
1000
0000
0100
1000
0000
0200
0000
0000
0000
,
1300
0000
0000
0011
0000
0000
1000
0000
0100
0000
0000
0011
0000
0000
0100
0000
,
0010
0000
0000
1000
0010
0000
0000
0100
0010
0000
0000
1000
0001
0000
0000
0001
,
1000
0000
0000
0100
1000
0000
0000
0001
1000
0000
0000
0100
1000
0000
0000
0100
,
0010
0000
0000
0001
0010
0000
0000
0100
0010
0000
0000
0100
1000
0000
0000
0100
,
1000
0000
0000
0100
0000
0000
0010
0000
0001
0000
0000
0100
0000
0000
0010
0000
,
0110
0000
0000
0000
1010
0000
0000
0001
0100
0000
0000
0001
1000
0000
0000
0000
,
1100
0000
0000
0000
1001
0000
0000
0010
0100
0000
0000
0010
1000
0000
0000
0000
,
0101
0000
0000
0000
0000
0000
0000
0000
0000
0000
0000
0000
0011
0000
0000
0000
0000
0000
0000
0000
0000
0001
0000
0000
1000
0000
0000
0000
0000
0000
0000
0000
0000
0000
0000
0000
0100
0000
0000
0000
0010
0000
0000
0000
0100
0000
0000
0000
,
0001
0000
0000
1000
0000
0000
0001
0000
1000
0000
0000
0001
0000
0000
2002
0000
,
0000
0000
0000
3003
0000
0000
0000
0000
0000
0010
1000
0010
,
1000
0000
0000
0101
0000
0000
2002
0000
0000
0000
0000
0000
3003
0000
0000
0000
,
1000
0100
0010
0001
1000
0010
0100
0001
,
1000
0100
0001
0100
1000
0010
0001
0010
,
1000
0010
0100
0001
0010
0100
0010
0001
,
1000
0100
1000
0100
0010
0100
0010
0002
,
1003
0001
0100
0001
0010
0001
1000
0010
,
0100
0000
0001
0000
0010
0000
0001
0000
0100
0000
0000
0010
0000
0000
1000
0000
,
0100
0010
0001
0100
0010
1000
0001
0010
,
0012
0000
0000
0000
,
0003
1000
0001
0010
0000
0001
0010
0100
,
1000
0010
0100
0001
0000
0100
0001
1000
,
0010
0100
0010
1000
0000
0100
1000
0100
,
0010
0100
1000
0001
0000
0010
0001
0100
,
0101
0000
0010
1000
0000
0010
1000
0001
,
0000
0010
0001
0100
0000
0010
1000
0100
,
0000
0010
0001
0100
0000
0001
1000
0010
,
0100
0001
0100
0001
1000
0010
1000
0010
,
0100
0010
0100
0001
,
1000
0000
0100
0000
0010
0000
0100
1000
,
1100
0000
0000
1000
0100
0000
0000
0100
0010
0000
0000
0010
0001
0000
0000
0001
,
0100
0001
0001
0100
0010
1000
0100
1000
,
2002
0000
0000
0000
,
3003
0000
0000
0000
;

//---------------dance-single - ----------------
#NOTES:
     dance-single:
     :
     Challenge:
     10:
     0.737,0.743,0.209,0.126,0.703:
0000
0000
0000
0000
,
0000
0000
0000
0000
,
0000
0000
0000
0000
0000
1001
0000
0000
,
0101
0010
1000
0100
,
1000
0001
0010
0001
,
0100
0010
1000
0100
,
0001
0000
0100
0000
1000
0000
0010
0100
,
1001
0000
0001
0000
0010
0000
0001
0100
,
0010
0000
0000
0000
0000
0000
1000
0000
0000
0010
1000
0010
1000
0000
0000
0000
0000
0000
0001
0000
0000
0100
0000
0000
,
0010
0000
1000
0100
0010
0000
0001
0000
,
0100
0010
0100
0000
0001
0000
1000
0000
0100
0000
0010
0000
0001
0000
0100
0000
,
0101
0000
0001
0100
0000
0000
0010
1000
0000
0000
1000
0100
0000
0000
0010
0001
,
0000
0000
0010
0100
0000
0000
0010
0001
0000
0000
1000
0001
0000
0000
0100
0001
,
0000
0000
1000
0010
0000
0000
0100
0010
0000
0000
0100
0001
0000
0000
1000
0001
,
0000
0000
0010
0001
0000
0000
1000
0100
0000
0000
0010
0100
0000
0000
1000
0100
,
1000
0000
0010
0000
0100
0000
0001
0010
0000
0000
0001
0000
0100
0000
0010
1000
,
0000
0000
0001
0000
1000
0000
0001
1000
0000
0000
0001
0000
0100
0000
0010
1000
,
0000
0000
0100
0000
0010
0000
0001
1000
0000
0000
1000
0000
0010
0000
0100
0000
,
0001
1000
0100
1000
0001
0000
0100
0000
0010
0000
0000
1000
0000
1000
0001
0000
,
0100
0001
0100
0000
0010
0000
1000
0000
0100
0000
0000
1000
0000
0000
0010
0000
,
0100
0001
0100
0000
0010
0000
1000
0000
0001
0000
0000
0100
0000
0000
0010
0000
,
1000
0001
1000
0000
0100
0000
0010
0000
0001
0000
0000
0100
0000
0000
0010
0000
,
0100
0010
0100
0000
0001
0000
1000
0000
0010
0000
0000
1000
0000
0000
0001
0000
,
1000
0100
1000
0000
0100
0000
0010
0000
0001
0010
0001
0000
0010
0000
0001
0000
,
0100
0001
0100
0000
0010
0000
1000
0000
0100
1000
0100
0000
0010
0000
0001
0000
,
0100
0001
1000
0000
0100
0000
0010
0000
0001
0100
0010
0000
0100
0000
0001
0000
,
2002
0000
0000
3003
,
0110
0000
0000
0000
0001
0100
0001
0100
0001
0000
0000
0000
0010
1000
0010
1000
,
0010
0000
0000
0000
1000
0100
1000
0100
1000
0000
0000
0000
0010
0001
0010
0001
,
0010
0000
0000
0000
0001
0100
0001
0100
0001
0000
0000
0000
1000
0010
1000
0010
,
1000
0000
0000
0000
0010
0100
0010
0100
0010
0000
0000
0000
1000
0000
0010
0000
,
0100
0010
0100
0000
1000
0000
0010
0000
1000
0001
1000
0000
0010
0000
0100
0000
,
0001
0100
0010
0000
1000
0000
0100
0000
1000
0010
0100
0000
0001
0000
0010
0000
,
0001
0010
0001
0000
1000
0100
1000
0000
0001
0010
0100
0000
1000
0100
0010
0000
,
0001
0010
0001
0010
0100
0010
0100
0010
0100
1000
0100
0010
0001
0010
0001
0100
,
0020
0000
0000
1000
0000
0100
1030
0000
,
0002
0000
0000
0010
0000
1000
0103
0000
,
2000
0000
0000
0010
0000
0001
3010
0000
,
0002
0000
0000
0100
0000
0000
0013
0000
2000
0000
0000
0100
0000
0000
3001
0000
,
0100
0000
0000
0001
1000
0000
0001
1000
0000
0001
0100
0000
0110
0000
0000
0000
,
1000
0000
0000
0001
0010
0000
0100
1000
0000
0010
0100
0000
1001
0000
0000
0000
,
0010
0000
0000
0001
0100
0000
0010
1000
0000
0100
1000
0000
0011
0000
0000
0000
,
1010
0000
0000
1000
0000
0000
0100
0000
0110
0000
0000
0010
0000
0000
0001
0000
,
0011
0000
0000
1000
0001
0000
0100
0001
0100
0000
0000
0000
0101
0000
0000
0000
,
1010
0000
0000
0010
1000
0000
0100
1000
0100
0000
0000
0000
1100
0000
0000
0000
,
0011
0000
0000
0100
0001
0000
0100
0010
1000
0000
0000
0000
1001
0000
0000
0000
,
0001
0000
0000
0010
0000
0000
0100
0000
1000
0000
0000
0010
0000
0000
0100
0000
,
0001
0000
0000
0001
1000
0000
0000
1000
0010
0000
0100
0001
0100
0000
0000
0000
,
0001
0000
0000
0001
1000
0000
0000
1000
0100
0000
0010
0100
0010
0000
0000
0000
,
0001
0000
0000
0000
0000
0000
0000
0000
0000
0001
0000
0000
1000
0000
0000
0000
0000
0000
0000
0000
0000
1000
0000
0000
0010
0000
0000
0000
0000
0000
0000
0000
0000
0010
0000
0000
0100
0000
0000
0000
0001
0000
0000
0000
2000
0000
0000
0000
,
0001
0000
0000
0001
0000
0000
3002
0000
1000
0000
0000
1000
0000
0000
2000
0000
,
0000
0000
0000
3003
0000
0000
0000
0000
0000
1000
0100
0010
,
0001
0000
0000
1100
0000
0000
2002
0000
0000
0000
0000
0000
3003
0000
0000
0000
,
1000
0000
0100
1000
0100
0000
1000
0000
0010
0000
0100
0001
0100
0000
0001
0000
,
0010
0000
0001
0010
0001
0000
0100
0000
0010
0000
1000
0010
1000
0001
0100
0000
,
0010
0000
1000
0100
1000
0000
0100
0000
0010
0000
0001
0100
0001
0000
1000
0000
,
0010
0000
0100
0001
0100
0000
0010
0000
1000
0000
0100
1000
0001
0010
0001
1000
,
0001
0000
0100
0001
0100
0000
0010
0000
1000
0000
0100
1000
0100
0000
0010
0000
,
0100
0000
0010
0000
0001
0000
0100
0000
0101
0000
0000
1010
0000
0000
0110
0000
,
1001
0000
0000
0000
0000
0000
0000
0000
0000
1000
0000
0000
0100
0000
0000
0000
0000
0000
0010
0000
0000
0000
0000
0000
0001
0000
0010
0000
0001
0000
0010
0000
0000
0000
0000
0000
0001
0000
0000
0000
0000
0000
0100
0000
0000
0000
0000
0000
,
0220
0000
0000
0330
,
1000
0000
0010
1000
0001
0000
0010
0000
0000
0001
0100
0001
1000
0000
0100
0000
,
0010
0000
0001
1000
0100
0000
1000
0000
0000
0001
0100
0001
1000
0000
0010
0000
,
0100
0000
0010
1000
0001
0000
0010
0000
0000
0001
0100
0010
1000
0000
0100
0000
,
0010
0000
0001
1000
0100
0000
1000
0000
0000
0010
0100
0001
0010
0001
1000
0000
,
1001
0000
0001
0010
0001
0000
0100
0000
0010
1000
0001
0010
0001
0000
0100
0000
,
0010
0000
1000
0100
1000
0000
0010
0000
0100
0001
0100
0010
1000
0001
0100
0000
,
0100
0000
0001
1000
0010
0000
1000
0000
0010
0100
0010
1000
0001
0000
0001
0000
,
0100
0000
0100
0001
1000
0000
1000
0001
0010
0000
0010
0001
0100
0000
0100
0010
,
1000
0000
0100
0000
0010
0000
0001
0010
0000
0000
0001
0000
0010
0000
0100
1000
,
0000
0000
1000
0000
0010
0000
0100
0001
0000
0000
0001
0000
0100
0000
0010
1000
,
0010
0000
1000
0100
1000
0000
0001
0010
0001
0000
0100
0001
1000
0000
0010
0000
,
0100
0001
0100
0001
1000
0100
0010
0001
0100
0010
1000
0100
0010
0001
0100
0010
,
0200
0000
0000
0000
,
0300
0000
0000
0000
;

//---------------dance-single - ----------------
#NOTES:
     dance-single:
     :
     Medium:
     6:
     0.452,0.458,0.167,0.193,0.013:
0000
0000
0000
0000
,
0000
0000
0000
0000
,
0000
0000
0000
0000
0000
1001
0000
0000
,
1001
0001
1000
0100
,
0010
0001
0100
0010
,
1000
0100
1000
0001
,
0010
0000
0001
0000
0100
0000
0010
0010
,
0010
1000
0100
0010
,
0001
0000
0100
0000
0010
0000
1000
0001
,
1000
0001
0010
0001
,
2002
0000
0000
3003
,
1000
0000
0100
0000
0010
0000
0001
0010
,
0001
0000
0010
0000
0100
0000
1000
0010
,
1000
0000
0010
0000
0100
0000
0001
0100
,
0001
1000
0100
0110
,
1001
0000
1000
0000
0010
0000
0100
0001
,
0100
0000
0001
0000
0010
0000
0001
0100
,
0001
0000
1000
0100
1000
0000
0010
0000
,
1000
0010
0100
0001
0020
0000
0030
0000
,
1000
0000
0100
0000
0010
0001
0010
0001
,
0100
0000
0010
0000
1000
0010
0100
0001
,
0010
0000
0001
0000
1000
0010
1000
0010
,
0100
0000
0001
0000
1000
0010
1000
0100
,
2000
0010
0001
0100
,
3002
0010
1000
0100
,
0013
0000
0001
0000
1000
0001
0100
0000
,
0001
1000
0100
0000
0010
0001
0100
0000
,
0001
0002
0000
0000
1003
2000
0000
0000
,
3100
0200
0000
0000
0310
0020
0000
0000
,
0031
0002
0000
0000
0103
0200
0000
0000
,
0310
0020
0000
0000
1030
2000
0000
0000
,
3010
1000
0000
0001
0100
0001
0000
0010
,
0001
0010
0000
0001
1000
0001
0000
0100
,
0001
1000
0010
0100
,
0001
0010
0001
1000
0100
1000
0001
0000
,
2001
0000
0000
0010
0000
0000
3001
0000
,
0002
0000
0000
0010
0000
0000
1003
0000
,
2000
0000
0000
0010
0000
0000
3100
0000
,
1000
0010
0100
0001
,
0010
0000
0000
0000
0001
0100
0101
0000
,
1000
0000
0000
0000
0010
1000
1010
0000
,
0001
0000
0000
0000
0100
0010
0110
0000
,
1010
0101
0011
1100
,
1000
0010
0100
0000
0001
0000
0011
0000
,
0001
0100
0010
0000
1000
0000
1100
0000
,
1000
0001
0100
0000
0001
0000
1001
0000
,
0010
0001
0100
0010
,
1000
0100
0010
0000
0010
0100
1000
0000
,
1000
0001
0010
0000
0010
0001
0100
0000
,
0010
1000
0100
0000
0010
0000
0002
0000
,
1003
0000
0000
0001
0000
0000
1000
0000
0001
0000
0000
2000
0000
0000
0002
0000
,
0000
0000
0000
0000
,
0000
0000
0000
3003
0000
0000
0000
0000
,
1000
0001
1000
0000
0001
0100
0001
0000
,
1000
0010
1000
0000
0010
0100
0010
0000
,
1000
0001
0100
0000
0001
1000
0100
0000
,
0010
0000
0001
1000
0100
0000
0010
0001
,
0100
0000
0110
0000
0001
1000
0001
0000
,
0010
0000
0001
0000
0100
0000
0000
0000
0010
0000
0000
1000
0000
0000
0010
0000
,
1000
0000
0001
0000
0100
0100
0100
0000
,
2002
0000
0000
3003
,
1000
0100
0010
0000
0001
0100
0010
1000
,
0001
0000
0010
0000
0001
0100
0001
0000
,
1000
0010
0100
0000
0001
0010
0001
1000
,
0100
0000
1000
0000
0010
0100
0010
0000
,
1000
0001
1000
0000
0001
0010
0001
1000
,
0010
0000
0100
0000
0001
1000
0001
0000
,
0010
0001
0100
0000
0010
1000
0100
0000
,
1000
0100
0010
0001
0010
0100
1000
0000
,
1002
1000
0010
0010
,
0100
0100
1000
1003
,
2010
0001
0100
3010
,
1000
0010
0100
0001
1000
0010
0100
0001
,
0100
0000
0000
0000
;

//---------------dance-single - ----------------
#NOTES:
     dance-single:
     :
     Easy:
     4:
     0.298,0.428,0.117,0.100,0.000: // measure 1
0000
0000
0000
0000
,  // measure 2
0000
0000
0000
0000
,  // measure 3
0000
0000
0000
0000
,  // measure 4
1000
0100
1000
0010
,  // measure 5
0100
0001
0010
0000
,  // measure 6
0001
0100
0001
0100
,  // measure 7
0010
1000
0100
0000
,  // measure 8
0010
0001
0100
1000
,  // measure 9
0100
0001
0010
0100
,  // measure 10
1000
0010
1000
0001
,  // measure 11
0220
0330
2002
3003
,  // measure 12
1001
0001
1000
0010
,  // measure 13
0100
0001
0010
0010
,  // measure 14
0010
0001
0100
0010
,  // measure 15
1000
0100
1000
1000
,  // measure 16
1000
0010
0100
0010
,  // measure 17
0001
0010
0100
0100
,  // measure 18
0100
0010
1000
0100
,  // measure 19
1000
0001
0010
0000
,  // measure 20
0001
1000
0010
1000
,  // measure 21
0100
1000
0001
0100
,  // measure 22
0010
1000
0001
1000
,  // measure 23
0100
1000
0001
0010
,  // measure 24
0001
0100
1000
0100
,  // measure 25
0001
0010
1000
0010
,  // measure 26
0001
0100
0010
1000
,  // measure 27
0100
0000
0010
0000
,  // measure 28
0001
0000
1000
0000
,  // measure 29
0010
0000
0100
0000
,  // measure 30
0001
0000
1000
0000
,  // measure 31
1000
0100
0010
0001
,  // measure 32
1001
0000
1000
0000
,  // measure 33
0010
0000
0100
0000
,  // measure 34
0001
0000
0010
0000
,  // measure 35
0001
0100
0010
0100
,  // measure 36
0120
0000
0000
0000
,  // measure 37
2030
0000
0000
0000
,  // measure 38
3200
0000
0000
0000
,  // measure 39
0320
0000
0000
0000
,  // measure 40
0031
0000
1000
1001
,  // measure 41
0001
0000
0100
0110
,  // measure 42
0010
0000
0001
1001
,  // measure 43
1000
0000
0100
0010
,  // measure 44
0001
0000
0100
0010
,  // measure 45
1000
0000
0001
0100
,  // measure 46
0001
0000
1000
0100
,  // measure 47
2000
0000
0002
3003
,  // measure 48
1000
0010
0100
0110
,  // measure 49
0010
1000
0100
0110
,  // measure 50
0010
0001
1000
0001
,  // measure 51
1002
0000
2000
0000
,  // measure 52
0000
0000
0000
0000
,  // measure 53
0000
0000
0000
3003
0000
0000
0000
0000
,  // measure 54
1000
0010
0001
0010
,  // measure 55
1000
0100
0001
0100
,  // measure 56
1000
0010
0001
0010
,  // measure 57
1000
0100
0010
0100
,  // measure 58
0110
0010
0001
0100
,  // measure 59
1000
0100
0001
0010
,  // measure 60
0001
0100
0010
1000
,  // measure 61
0010
0000
1000
0000
,  // measure 62
1001
0000
0001
0100
,  // measure 63
0010
0000
0010
1000
,  // measure 64
0100
0000
0010
0001
,  // measure 65
0100
0001
1000
0010
,  // measure 66
0100
0000
0010
1000
,  // measure 67
0100
0000
0010
0001
,  // measure 68
0100
0000
0001
1000
,  // measure 69
0010
1000
0100
0010
,  // measure 70
0001
0001
1000
1000
,  // measure 71
0010
0010
0100
0100
,  // measure 72
0010
1000
0100
0010
,  // measure 73
0001
1000
0001
1000
,  // measure 74
1001
0000
0000
0000
;

//---------------dance-single - ----------------
#NOTES:
     dance-single:
     :
     Beginner:
     1:
     0.151,0.183,0.042,0.000,0.000: // measure 1
0000
0000
0000
0000
,  // measure 2
0000
0000
0000
0000
,  // measure 3
0000
0000
0000
0000
,  // measure 4
1000
0000
0001
0000
,  // measure 5
0100
0000
0010
0000
,  // measure 6
1000
0000
0100
0000
,  // measure 7
0010
0000
0001
0000
,  // measure 8
0100
0000
0010
0000
,  // measure 9
1000
0000
0001
0000
,  // measure 10
0100
0000
0001
0000
,  // measure 11
1001
0000
0000
0000
,  // measure 12
0010
0000
0010
0000
,  // measure 13
1000
0000
1000
0000
,  // measure 14
0100
0000
0010
0000
,  // measure 15
0001
0000
0100
0000
,  // measure 16
0010
0000
1000
0000
,  // measure 17
0001
0000
0001
0000
,  // measure 18
0100
0000
0100
0000
,  // measure 19
0110
0000
0000
0000
,  // measure 20
0010
0000
1000
0000
,  // measure 21
0100
0000
1000
0000
,  // measure 22
0001
0000
0010
0000
,  // measure 23
0001
0000
0100
0000
,  // measure 24
0010
0000
1000
0000
,  // measure 25
0100
0000
0001
0000
,  // measure 26
0010
0000
0001
0000
,  // measure 27
1000
0000
0100
0000
,  // measure 28
0110
0000
0001
0000
,  // measure 29
1000
0000
0000
0000
,  // measure 30
0001
0000
1000
0000
,  // measure 31
0010
0000
0000
0000
,  // measure 32
0110
0000
0100
0000
,  // measure 33
0001
0000
0000
0000
,  // measure 34
0010
0000
0001
0000
,  // measure 35
1000
0000
0001
0000
,  // measure 36
1001
0000
0000
0000
,  // measure 37
0001
0000
0000
0000
,  // measure 38
0100
0000
0000
0000
,  // measure 39
0010
0000
0000
0000
,  // measure 40
1000
0000
0000
0000
,  // measure 41
0100
0000
0000
0000
,  // measure 42
0010
0000
0000
0000
,  // measure 43
0100
0000
1000
0000
,  // measure 44
0001
0000
0000
0000
,  // measure 45
0010
0000
0000
0000
,  // measure 46
0001
0000
0000
0000
,  // measure 47
0100
0000
0001
0000
,  // measure 48
1000
0000
0000
0000
,  // measure 49
0010
0000
0000
0000
,  // measure 50
0100
0000
0000
0000
,  // measure 51
0001
0000
1000
0000
,  // measure 52
0000
0000
0000
0000
,  // measure 53
0000
0000
0000
0000
,  // measure 54
1000
0000
1000
0000
,  // measure 55
0100
0000
0100
0000
,  // measure 56
0010
0000
0010
0000
,  // measure 57
0001
0000
0001
0000
,  // measure 58
0100
0000
0001
0000
,  // measure 59
1000
0000
0100
0000
,  // measure 60
1000
0000
0001
0000
,  // measure 61
0010
0000
0001
0000
,  // measure 62
1000
0000
1000
0000
,  // measure 63
0001
0000
0001
0000
,  // measure 64
0100
0000
0100
0000
,  // measure 65
0010
0000
0010
0000
,  // measure 66
1000
0000
0100
0000
,  // measure 67
0001
0000
0100
0000
,  // measure 68
1000
0000
0010
0000
,  // measure 69
0001
0000
0010
0000
,  // measure 70
1000
0000
0100
0000
,  // measure 71
0010
0000
0001
0000
,  // measure 72
0100
0000
0010
0000
,  // measure 73
1000
1000
1000
1000
,  // measure 74
1000
0000
0000
0000
;
