#TITLE:Fantasia;
#SUBTITLE:;
#ARTIST:TERRA;
#TITLETRANSLIT:;
#SUBTITLETRANSLIT:;
#ARTISTTRANSLIT:;
#CREDIT:;
#BANNER:;
#BACKGROUND:;
#LYRICSPATH:;
#CDTITLE:;
#MUSIC:Fantasia.mp3;
#OFFSET:-6.600;
#SAMPLESTART:30.310;
#SAMPLELENGTH:11.630;
#SELECTABLE:YES;
#BPMS:0.000=165.000;
#STOPS:;
#BGCHANGES:;

//---------------dance-single - ----------------
#NOTES:
     dance-single:
     :
     Hard:
     8:
     0.596,0.533,0.606,0.260,0.106: // measure 1
1000
0000
0000
0100
0000
0000
1000
0000
0002
0000
0000
0000
0013
0000
0000
0000
,  // measure 2
0110
0000
0000
0100
0000
0000
1000
0000
0020
0000
0000
0000
0030
0000
0000
0000
,  // measure 3
1010
0000
0000
1000
0000
0000
0100
0000
0110
0000
0000
0010
0000
0000
0001
0000
,  // measure 4
1001
0000
0000
1000
0000
0000
0001
0000
2002
0000
0000
0000
3003
0000
0000
0000
,  // measure 5
1000
0010
0100
0001
0000
1000
0100
0001
,  // measure 6
0100
0110
0100
1100
,  // measure 7
1000
0001
0100
0010
0000
0100
0001
0010
,  // measure 8
0000
0110
0000
0011
0000
1001
0000
1000
,  // measure 9
0001
1000
0100
0010
,  // measure 10
0210
0000
0000
1000
2000
0000
3300
0000
,  // measure 11
1000
0001
0010
0100
,  // measure 12
2100
0000
0000
0001
0001
0000
3010
0000
,  // measure 13
2002
0000
0000
0000
3003
0000
0000
0000
1000
0000
0000
1000
0000
0000
1000
0000
,  // measure 14
0001
0000
0000
0100
0000
0000
0010
0000
2000
0000
0000
0000
3000
0000
0000
0000
,  // measure 15
0002
0103
2000
3100
,  // measure 16
0020
0000
0031
0000
0001
0100
0010
1000
,  // measure 17
2002
3003
0220
0330
,  // measure 18
1001
0000
1000
0100
0010
0000
0110
0000
,  // measure 19
1100
0000
1000
0001
1000
0010
0100
0001
,  // measure 20
0010
0101
0010
1001
,  // measure 21
1000
0010
0100
0001
0010
1000
0010
0001
,  // measure 22
1000
1010
0110
0101
,  // measure 23
0001
0000
0000
1000
0000
0000
0001
0000
0010
0000
0000
0000
0110
0000
0000
0000
,  // measure 24
1100
0000
1000
0001
0100
1000
0100
0010
,  // measure 25
1000
0000
0000
0001
0000
0000
1000
0000
0100
0000
0000
0000
0110
0000
0000
0000
,  // measure 26
1001
0000
1000
0010
0001
0000
0011
0000
,  // measure 27
1010
0000
1000
0100
0010
0100
1000
0001
,  // measure 28
0100
0000
0000
0000
0010
0000
1000
0000
0100
0000
0000
0010
0000
0000
0001
0000
,  // measure 29
1000
0000
0000
0010
0000
0000
0100
0000
0001
0000
0000
0000
1001
0000
0000
0000
,  // measure 30
1000
0000
0000
0010
0000
0000
1000
0000
0001
0000
0000
0100
0000
0000
0001
0000
,  // measure 31
0100
0000
0000
0000
0010
0000
1000
0000
0100
0000
0000
0001
0000
0000
0100
0000
,  // measure 32
1000
1100
0110
0011
,  // measure 33
0001
1000
0010
0100
0010
0000
1001
0000
,  // measure 34
1000
0100
0010
0001
0100
0010
0100
0001
,  // measure 35
2000
0100
0000
0100
0000
0100
0000
3100
,  // measure 36
0110
0000
0010
0000
0001
0010
1000
0010
,  // measure 37
0100
0000
1000
0000
0010
0000
0100
0001
,  // measure 38
0200
0000
0010
0010
0310
0000
0010
1000
,  // measure 39
0001
1000
0100
0010
,  // measure 40
0011
0000
0001
0000
1000
0010
1000
0000
,  // measure 41
0001
0100
0001
1000
0100
1000
0001
0000
,  // measure 42
1000
0010
1010
0000
0001
0010
0011
0000
,  // measure 43
2002
0000
0000
3003
,  // measure 44
1000
0000
0000
0000
0100
0000
0100
0010
0100
0000
0000
0000
0010
0000
0000
0000
,  // measure 45
0001
0000
1000
0000
0001
1000
0001
1000
,  // measure 46
0100
0010
0100
1000
,  // measure 47
0001
0000
0000
0000
1000
0000
1000
0001
1000
0000
0000
0000
0001
0000
0000
0000
,  // measure 48
0011
1100
1010
0101
,  // measure 49
0001
0000
0000
1000
0000
0000
0100
0000
0010
0000
0000
0000
0110
0000
0000
0000
,  // measure 50
1001
0000
1000
0001
1000
0100
0010
0100
,  // measure 51
1000
0000
0000
0001
0000
0000
0100
0000
0020
0000
0000
0000
0030
0000
0000
0000
,  // measure 52
1001
0000
0000
0000
1000
0000
0001
1000
0001
0000
0000
0000
0101
0000
0000
0000
,  // measure 53
1010
0000
1000
0001
1000
0100
0001
0100
,  // measure 54
1000
0000
0000
0000
0001
0000
0010
0000
0100
0000
0000
0010
0000
0000
0001
0000
,  // measure 55
1000
0000
0000
0001
0000
0000
1000
0000
0001
0000
0100
0000
0010
0000
1000
0000
,  // measure 56
0100
0110
1100
1001
,  // measure 57
0001
0000
0000
0000
0101
0000
0000
0000
0100
0000
0000
0010
0000
0000
1000
0000
,  // measure 58
1001
1100
0110
0011
,  // measure 59
0020
0032
2003
3010
,  // measure 60
1001
0000
0001
0100
1000
0100
0010
1000
,  // measure 61
0100
0010
0100
1000
0001
0000
0011
0000
,  // measure 62
1001
0000
1000
0100
0001
0100
1000
0001
,  // measure 63
0010
0100
0010
0001
1000
0000
1010
0000
,  // measure 64
0101
0000
1000
0010
0100
0001
0010
1000
,  // measure 65
0010
0001
0100
0010
0001
0000
0110
0000
,  // measure 66
2002
3003
0000
0000
;

//---------------dance-single - ----------------
#NOTES:
     dance-single:
     :
     Challenge:
     9:
     0.660,0.596,0.634,0.336,0.139: // measure 1
1000
0000
0000
0001
0000
0000
0100
0000
0110
0000
0000
0000
1000
0000
0001
0000
,  // measure 2
0010
0000
0000
0100
0000
0000
0010
0000
0022
0000
0000
0000
0033
0000
0000
0000
,  // measure 3
1001
0000
0000
1000
0000
0000
0010
0000
0011
0000
0000
0001
0000
0000
0010
0000
,  // measure 4
1010
0000
0000
1000
0000
0000
0100
0000
0220
0000
0000
0000
0330
0000
0000
0000
,  // measure 5
1000
0100
0010
0001
0100
0010
0100
0001
,  // measure 6
2000
0000
3010
0000
0001
0100
0101
0000
,  // measure 7
0001
1000
0100
0010
0100
1000
0001
0100
,  // measure 8
0000
0101
0000
1010
0000
1100
0000
1000
,  // measure 9
0100
0000
0010
0001
0100
0000
0010
0000
,  // measure 10
0220
0000
0000
0000
0330
0000
1000
0002
2000
0000
0000
0000
3003
0000
0000
0000
,  // measure 11
1000
0001
0100
0010
,  // measure 12
2002
0000
3003
1000
0010
0100
0001
0010
,  // measure 13
0220
0000
0000
0000
0330
0000
0100
0000
0100
0000
0000
0010
0000
0000
0001
0000
,  // measure 14
1000
0000
0000
0010
0000
0000
0100
0000
0002
0000
0000
0000
0003
0000
0000
0000
,  // measure 15
1000
0100
1100
0000
0001
0010
0011
0000
,  // measure 16
0001
0100
0010
1000
0100
0010
0100
1000
,  // measure 17
2002
0003
0020
3030
,  // measure 18
0010
0000
1000
0000
0100
0000
0010
0001
0010
0000
0001
0000
0100
0000
0010
0000
,  // measure 19
1000
0000
0001
0100
0001
0010
0100
0000
,  // measure 20
0011
0101
1010
1100
,  // measure 21
1000
0001
0100
0010
0010
0100
0001
0010
,  // measure 22
0100
1100
1001
0101
,  // measure 23
0001
0000
0000
0001
0100
0000
0010
0000
1000
0000
0000
0000
1001
0000
0000
0000
,  // measure 24
0011
0000
0001
0010
1000
0001
0100
0010
,  // measure 25
0001
0000
0000
1001
0000
0000
1000
0000
2002
0000
0000
0000
3003
0000
0000
0000
,  // measure 26
0100
0000
0010
0000
1000
0000
0001
0010
0001
0000
1000
0000
0010
0000
0100
0000
,  // measure 27
0001
0000
1000
0100
0010
0001
0100
0010
,  // measure 28
0110
0000
0000
0000
0100
0000
0001
0000
0010
0000
0000
0100
0000
0000
0010
0000
,  // measure 29
0001
0000
0000
1000
0000
0000
0001
0000
0202
0000
0000
0000
0303
0000
0000
0000
,  // measure 30
0101
0000
0000
0001
0000
0000
0100
0000
0110
0000
0000
0010
0000
0000
1000
0000
,  // measure 31
1100
0000
0000
0000
0010
0000
0001
0000
0100
0000
0000
0001
0000
0000
1000
0000
,  // measure 32
1001
0110
0101
0011
,  // measure 33
0100
1000
0100
0001
0100
0000
0110
0000
,  // measure 34
0010
0000
0001
0000
1000
0000
0100
0010
0001
0000
1000
0000
0100
0000
0010
0000
,  // measure 35
0100
0000
1000
0000
0010
0000
0100
0010
1000
0000
0001
0000
0010
0000
0100
0000
,  // measure 36
1001
0000
1000
0000
0100
0010
0001
1000
,  // measure 37
0010
0000
0100
0000
0001
0000
1000
0100
,  // measure 38
2000
0000
0001
0001
3001
0000
1000
0001
,  // measure 39
0100
0000
0010
0000
0100
0001
1000
0001
,  // measure 40
0101
0000
0100
0000
0001
0010
0100
0010
,  // measure 41
0001
1000
0010
0001
1000
0100
0001
1000
,  // measure 42
0100
0001
0101
0000
0100
1000
1100
0000
,  // measure 43
2002
0000
0000
3003
,  // measure 44
1000
0000
0000
0000
0001
0000
0100
0001
0100
0000
0000
0000
0010
0000
0000
0000
,  // measure 45
1000
0000
0100
0010
0100
1000
0100
0010
,  // measure 46
0001
0100
0010
1000
,  // measure 47
0001
0000
0000
0000
1000
0000
0001
0100
0001
0000
0000
0000
1000
0000
0000
0000
,  // measure 48
1100
0011
0101
1010
,  // measure 49
1000
0000
0000
1010
0000
0000
0010
0000
0220
0000
0000
0000
0330
0000
0000
0000
,  // measure 50
0010
0000
1000
0100
0010
0001
0100
0010
,  // measure 51
1000
0000
0000
0001
0000
0000
1000
0000
2002
0000
0000
0000
3003
0000
0000
0000
,  // measure 52
0001
0000
0010
0000
0100
0000
1000
0100
0010
0000
0001
0000
0100
0000
0010
0000
,  // measure 53
1000
0001
1000
0010
0100
0001
0010
0100
,  // measure 54
0010
0000
0000
0000
0001
0000
1000
0000
0001
0000
0000
1000
0000
0000
0010
0000
,  // measure 55
0100
0000
0000
0100
0000
0000
0001
0000
2002
0000
0000
0000
3003
0000
0000
0000
,  // measure 56
1000
0000
0000
1000
0100
0000
0010
0000
0001
0000
0000
1001
0000
0000
1000
0000
,  // measure 57
1100
0000
0000
0000
0100
0000
0010
0000
0011
0000
0000
1001
0000
0000
1010
0000
,  // measure 58
1010
0101
0011
1100
,  // measure 59
2000
3200
0320
0031
,  // measure 60
1010
0010
1000
0001
0100
0001
0010
0100
,  // measure 61
0010
0001
1000
0010
0100
0000
0101
0000
,  // measure 62
0011
0010
0100
0010
0001
1000
0010
0001
,  // measure 63
0010
1000
0100
0010
0100
0000
1100
0000
,  // measure 64
1001
0001
0100
0010
1000
0001
0010
0100
,  // measure 65
0010
0001
1000
0010
0100
0000
0110
0000
,  // measure 66
2002
3003
0000
0000
;

//---------------dance-single - ----------------
#NOTES:
     dance-single:
     :
     Medium:
     6:
     0.507,0.502,0.509,0.327,0.029: // measure 1
1000
0000
0000
0001
0000
0000
1000
0000
0001
0000
0000
0000
0000
0000
0000
0000
,  // measure 2
0001
0000
0000
1000
0000
0000
0001
0000
1000
0000
0000
0000
0000
0000
0000
0000
,  // measure 3
0001
0000
0000
0010
0000
0000
0001
0000
0010
0000
0000
0000
0100
0000
0000
0000
,  // measure 4
1000
0000
0000
0100
0000
0000
1000
0000
0100
0000
0000
0000
0000
0000
0000
0000
,  // measure 5
0010
0001
0010
0100
0000
0100
1000
0000
,  // measure 6
0001
0000
0100
0000
0010
1000
0010
0000
,  // measure 7
1000
0001
1000
0001
0000
0001
0100
0000
,  // measure 8
0010
0100
0000
0110
0000
1010
0000
1000
,  // measure 9
0001
1000
0001
1000
,  // measure 10
0020
0000
0000
0100
0200
0000
0330
0000
,  // measure 11
0100
0001
1000
0100
,  // measure 12
0020
0000
0000
0001
0001
0000
0031
0000
,  // measure 13
2001
0000
0000
0010
3020
0000
0100
0000
,  // measure 14
2030
0010
0002
3003
,  // measure 15
0001
0000
0000
0000
1001
0000
0000
0000
1000
0000
0000
0001
0000
0000
1000
0000
,  // measure 16
0002
0010
1000
0103
,  // measure 17
0220
0000
0000
0330
,  // measure 18
1001
0000
0001
1000
0001
0000
1000
0000
,  // measure 19
0200
0001
0010
1300
,  // measure 20
1100
1000
1001
0001
,  // measure 21
0101
0000
0100
0010
0200
0000
0300
0000
,  // measure 22
0001
0101
0100
0110
,  // measure 23
0010
0000
1000
0001
2000
0000
3000
0000
,  // measure 24
0001
0000
0010
0001
0010
0000
0100
1000
,  // measure 25
0100
1000
2002
3003
,  // measure 26
0101
0000
0100
0010
1000
0000
0001
0000
,  // measure 27
2001
0100
0001
3010
,  // measure 28
0220
0330
0100
0001
,  // measure 29
1001
0000
1000
0100
0020
0000
0030
0000
,  // measure 30
0001
0011
0110
1100
,  // measure 31
1000
1010
0110
0101
,  // measure 32
1000
0000
0001
0010
0001
0000
1000
0010
,  // measure 33
0100
0010
0110
1001
,  // measure 34
1001
0000
0001
0010
0100
0010
0001
0000
,  // measure 35
2000
0010
0000
0010
0000
0010
0000
0010
,  // measure 36
3010
0100
0001
0010
,  // measure 37
0220
0000
0330
0100
,  // measure 38
2000
0000
0001
0001
3001
0000
1000
0000
,  // measure 39
0010
0000
0100
0000
0001
1000
0001
0000
,  // measure 40
1001
1000
0100
0010
,  // measure 41
0022
0033
2200
3300
,  // measure 42
1000
0010
1000
0000
0001
0100
0001
0000
,  // measure 43
2002
0000
0000
3003
,  // measure 44
0110
0000
0000
0100
0010
0000
1000
0000
,  // measure 45
0100
0000
0010
0000
0001
1000
0001
1000
,  // measure 46
0001
1000
0100
0010
,  // measure 47
0100
0000
0010
0001
1000
0000
0001
0000
,  // measure 48
1000
1010
0110
0101
,  // measure 49
0001
0000
1000
0001
1000
0000
0000
0000
,  // measure 50
0001
0011
0110
1100
,  // measure 51
1001
0000
1000
0001
1000
0000
0000
0000
,  // measure 52
0001
0010
0001
1000
0100
0000
0001
0000
,  // measure 53
0200
0010
1000
0310
,  // measure 54
0001
0000
1000
0001
1000
0000
0001
0000
,  // measure 55
0100
0000
0000
0010
0000
0000
2000
0000
0002
0000
0000
0000
3003
0000
0000
0000
,  // measure 56
1000
1100
0100
0110
,  // measure 57
0010
0011
0001
1001
,  // measure 58
0110
0000
0010
0000
1000
0100
1000
0001
,  // measure 59
0100
0010
0110
1001
,  // measure 60
0011
0000
1000
0100
1000
0100
1000
0000
,  // measure 61
0001
0010
0100
0110
,  // measure 62
1001
0000
1000
0010
1000
0010
1000
0000
,  // measure 63
0010
0100
0101
1001
,  // measure 64
1100
0000
0010
0001
0100
0010
0100
0000
,  // measure 65
0001
1000
0100
0110
,  // measure 66
2002
3003
0000
0000
;

//---------------dance-single - ----------------
#NOTES:
     dance-single:
     :
     Easy:
     5:
     0.382,0.408,0.452,0.163,0.000: // measure 1
1000
0001
1000
0000
,  // measure 2
0001
0100
0001
0000
,  // measure 3
1000
0010
1000
0001
,  // measure 4
0010
0100
0010
0000
,  // measure 5
0100
1000
0010
0001
,  // measure 6
0100
0000
1000
0000
,  // measure 7
0001
0010
1000
0100
,  // measure 8
0001
0000
1000
0000
,  // measure 9
2001
0000
0010
0010
,  // measure 10
3010
0000
0110
0000
,  // measure 11
1002
0000
0100
0100
,  // measure 12
0103
0000
0110
0000
,  // measure 13
1020
0000
2030
0000
,  // measure 14
3002
0000
0023
0000
,  // measure 15
0130
0010
0001
1000
,  // measure 16
0001
0100
0010
1000
,  // measure 17
2002
0000
0000
3003
,  // measure 18
1000
0100
0010
0001
,  // measure 19
0100
0010
0110
0000
,  // measure 20
0100
0001
0010
0100
,  // measure 21
0010
0001
1001
0000
,  // measure 22
1000
1001
0001
1001
,  // measure 23
1000
0010
0110
0000
,  // measure 24
0100
0110
0010
0110
,  // measure 25
0100
0001
1001
0000
,  // measure 26
1000
0100
0010
0001
,  // measure 27
0100
0010
0100
0000
,  // measure 28
0010
0100
0001
0010
,  // measure 29
0100
0010
0001
0000
,  // measure 30
1000
1001
0001
1001
,  // measure 31
1000
1100
0100
0110
,  // measure 32
1001
1000
0100
0010
,  // measure 33
0011
0001
0101
0100
,  // measure 34
0110
0010
1000
0001
,  // measure 35
0020
0000
0000
0030
,  // measure 36
1001
0000
1000
0001
,  // measure 37
0200
0000
0300
0000
,  // measure 38
2001
0001
3001
1000
,  // measure 39
1001
0000
0110
0000
,  // measure 40
0100
0001
0010
0100
,  // measure 41
0010
0000
0110
0000
,  // measure 42
1001
1000
1001
0001
,  // measure 43
2002
0000
0000
3003
,  // measure 44
1000
0100
0010
0001
,  // measure 45
0200
0010
0310
0000
,  // measure 46
0010
1000
0001
0010
,  // measure 47
0002
1000
1003
0000
,  // measure 48
1000
0100
0010
0001
,  // measure 49
1001
1001
1001
0000
,  // measure 50
1000
0010
0100
0001
,  // measure 51
0110
0110
0110
0000
,  // measure 52
1000
0100
0001
0100
,  // measure 53
1000
0100
0010
0001
,  // measure 54
1000
0010
0001
0010
,  // measure 55
1000
0010
0100
0001
,  // measure 56
1000
1100
0100
0110
,  // measure 57
0010
0011
0001
1001
,  // measure 58
0110
0000
0010
1000
,  // measure 59
1001
0000
0110
0000
,  // measure 60
0010
1000
0100
0001
,  // measure 61
0010
1000
0001
1001
,  // measure 62
1000
0100
0001
0010
,  // measure 63
1000
0001
0010
0110
,  // measure 64
0100
0010
0001
0100
,  // measure 65
1000
0010
0001
1001
,  // measure 66
0220
0330
0000
0000
;

//---------------dance-single - ----------------
#NOTES:
     dance-single:
     :
     Beginner:
     1:
     0.157,0.187,0.067,0.000,0.000: // measure 1
1000
0000
0100
0000
,  // measure 2
0010
0000
0001
0000
,  // measure 3
1000
0000
0010
0000
,  // measure 4
0100
0000
0001
0000
,  // measure 5
1001
0000
0000
0000
,  // measure 6
1000
0000
0001
0000
,  // measure 7
0100
0000
0000
0000
,  // measure 8
0010
0000
0100
0000
,  // measure 9
0001
0000
0000
0000
,  // measure 10
1000
0000
0000
0000
,  // measure 11
0001
0000
0001
0000
,  // measure 12
0001
0000
0000
0000
,  // measure 13
0010
0000
0000
0000
,  // measure 14
0100
0000
0000
0000
,  // measure 15
0010
0000
0100
0000
,  // measure 16
0010
0000
0000
0000
,  // measure 17
1001
0000
0000
0000
,  // measure 18
1000
0000
0001
0000
,  // measure 19
0100
0000
0000
0000
,  // measure 20
0010
0000
0100
0000
,  // measure 21
0001
0000
0000
0000
,  // measure 22
1000
0000
0100
0000
,  // measure 23
0010
0000
0001
0000
,  // measure 24
1000
0000
0001
0000
,  // measure 25
0100
0000
0010
0000
,  // measure 26
1000
0000
0001
0000
,  // measure 27
1000
0000
0000
0000
,  // measure 28
0001
0000
1000
0000
,  // measure 29
0001
0000
0000
0000
,  // measure 30
1000
0000
0100
0000
,  // measure 31
0010
0000
0100
0000
,  // measure 32
1000
0000
0001
0000
,  // measure 33
0100
0000
0010
0000
,  // measure 34
0110
0000
0000
0000
,  // measure 35
0100
0000
0001
0000
,  // measure 36
1001
0000
0000
0000
,  // measure 37
1000
0000
0000
0000
,  // measure 38
0001
0000
0000
0000
,  // measure 39
0010
0000
0000
0000
,  // measure 40
0110
0000
0000
0000
,  // measure 41
0100
0000
0000
0000
,  // measure 42
1000
0000
0001
0000
,  // measure 43
1000
0000
0000
0000
,  // measure 44
1001
0000
0001
0000
,  // measure 45
0001
0000
0000
0000
,  // measure 46
0100
0000
0010
0000
,  // measure 47
1000
0000
0001
0000
,  // measure 48
1000
0000
1000
0000
,  // measure 49
0100
0000
0100
0000
,  // measure 50
0010
0000
0010
0000
,  // measure 51
0001
0000
0001
0000
,  // measure 52
1000
0000
0010
0000
,  // measure 53
0001
0000
0000
0000
,  // measure 54
1000
0000
0100
0000
,  // measure 55
0001
0000
0000
0000
,  // measure 56
1000
0000
0100
0000
,  // measure 57
0010
0000
0001
0000
,  // measure 58
1000
0000
0001
0000
,  // measure 59
1000
0000
0001
0000
,  // measure 60
0100
0000
0010
0000
,  // measure 61
0100
0000
0010
0000
,  // measure 62
1000
0000
0010
0000
,  // measure 63
1000
0000
0010
0000
,  // measure 64
0100
0000
0001
0000
,  // measure 65
0100
0000
0001
0000
,  // measure 66
1001
0000
0000
0000
;
