#TITLE:D;
#SUBTITLE:;
#ARTIST:Eagle;
#TITLETRANSLIT:;
#SUBTITLETRANSLIT:;
#ARTISTTRANSLIT:;
#GENRE:;
#CREDIT:;
#MENUCOLOR:;
#METERTYPE:DDR;
#BANNER:;
#BACKGROUND:;
#LYRICSPATH:;
#CDTITLE:;
#MUSIC:D.mp3;
#OFFSET:-4.020;
#SAMPLESTART:8.000;
#SAMPLELENGTH:16.000;
#SELECTABLE:YES;
#LISTSORT:;
#BPMS:0.000=120.000,44.000=130.000,48.000=140.000,52.000=150.000,56.000=160.000,58.000=170.000,60.000=180.000,62.000=190.000,64.000=200.000,65.000=210.000,66.000=220.000,67.000=240.000,68.000=50.000,72.000=175.000,188.000=170.000,190.000=160.000,192.000=150.000,194.000=140.000,196.000=130.000,200.000=30.000,202.000=120.000;
#STOPS:;
#BGCHANGES:;
#ATTACKS:;

//---------------dance-single - ----------------
#NOTES:
     dance-single:
     :
     Hard:
     8:
     0.525,0.653,0.178,0.071,0.272: // measure 1
0000
0000
0000
0000
,  // measure 2
1010
0000
0000
0101
0000
0000
1000
0100
1000
0100
0000
1000
0001
0000
0010
0000
,  // measure 3
0110
0000
0100
0000
1000
0000
0000
0001
0000
0000
1000
0000
0010
0000
0100
0000
,  // measure 4
0001
0000
1000
0000
0100
0000
0010
0000
0000
0010
0100
0000
0010
0000
0001
0000
,  // measure 5
1000
0000
0100
0000
0010
0000
0000
0001
0000
0000
0010
0000
0001
0000
0100
0000
,  // measure 6
0010
0000
0000
1000
0000
0000
0001
0000
0000
0100
0000
0000
0110
0000
0000
0000
,  // measure 7
0010
0000
1000
0000
0010
0000
0000
1000
0000
0000
0001
0000
0100
0000
0010
0000
,  // measure 8
1000
0010
1000
0000
0010
1000
0000
0100
0000
0010
0001
0000
0011
0000
0000
0000
,  // measure 9
1001
0000
0000
1000
0000
0000
0010
0000
0100
0000
0001
0000
1000
0000
0100
0000
,  // measure 10
0010
0000
0001
0010
0000
0000
0001
0000
0100
0001
0000
0100
0000
0000
0010
0000
,  // measure 11
1000
0001
0010
0001
0100
0010
1000
0100
,  // measure 12
1000
0100
0010
0100
1000
0001
0011
0000
,  // measure 13
1000
0010
0100
0001
0010
0001
1000
0100
,  // measure 14
0010
0000
0001
0010
0000
0000
0001
0000
1000
0100
0000
0010
0000
0000
0001
0000
,  // measure 15
0100
0010
1000
0001
0010
0001
1000
0000
,  // measure 16
1000
0010
1000
0001
0100
0001
0100
0000
,  // measure 17
0001
1000
0001
1000
0001
1000
0001
0000
,  // measure 18
2002
0000
0000
0000
,  // measure 19
3003
0000
0000
0000
,  // measure 20
1010
1000
0100
0010
,  // measure 21
0001
0000
0000
0010
0000
0000
0100
0000
0000
1000
0000
0001
0000
0000
1000
0000
,  // measure 22
0010
0100
0001
1000
,  // measure 23
0100
0000
0000
0010
0000
0000
0100
0000
0000
1000
0000
0000
0001
0000
0100
0000
,  // measure 24
0001
1000
0100
1000
,  // measure 25
0001
0000
0000
0100
0000
0000
0010
0000
0000
1000
0000
0010
0000
0000
1000
0000
,  // measure 26
0001
1000
0100
0010
,  // measure 27
0001
0000
0000
0100
0000
0000
0010
0000
0000
1000
0000
0000
0001
0000
0100
0000
,  // measure 28
0001
1000
0100
0010
0000
0110
0000
0010
,  // measure 29
0001
0000
1000
0010
0000
1000
0001
0010
,  // measure 30
0001
0100
0001
1000
0000
0010
0000
1000
,  // measure 31
0100
0000
0000
0100
0000
0000
0010
0000
0000
0010
0000
0000
0001
0000
1000
0000
,  // measure 32
0001
0100
0001
1000
0000
1100
0000
0010
,  // measure 33
0001
0000
0010
0100
0000
0010
0001
0000
,  // measure 34
1000
0100
0010
0001
1000
0100
0010
0002
,  // measure 35
2000
0000
0000
3003
,  // measure 36
1000
0001
1000
0000
0001
0100
0001
1000
,  // measure 37
0100
0010
0100
0010
,  // measure 38
0001
0010
0001
0000
1000
0010
0100
0001
,  // measure 39
0010
0000
0001
0000
1000
0010
1000
0000
,  // measure 40
0001
0100
0010
0000
0100
0001
0010
0000
,  // measure 41
0001
0000
1000
0000
0100
1000
0100
0000
,  // measure 42
1000
0010
0100
0001
0010
0001
1000
0100
,  // measure 43
1000
0100
0010
0001
0100
0020
0000
1030
,  // measure 44
1000
0010
1000
0001
0010
0001
0000
0001
,  // measure 45
0100
0001
0100
0000
0010
1000
0010
0000
,  // measure 46
1000
0100
0010
0001
0100
0010
0000
0100
,  // measure 47
0010
0100
0001
0000
1000
0100
1000
0000
,  // measure 48
0001
0100
0010
1000
0010
1000
0000
0001
,  // measure 49
0010
0001
1000
0100
1000
0010
0000
0100
,  // measure 50
0001
0010
0100
1000
0010
0100
0001
1000
,  // measure 51
0002
0000
0003
0000
,  // measure 52
1001
0000
0000
1001
0000
0000
0010
1000
0010
1000
0000
0101
0000
0000
1010
0000
,  // measure 53
1100
0000
0000
0000
0010
0000
0001
1000
0000
0001
0000
1000
0001
1000
0001
0000
,  // measure 54
0100
0000
0010
0000
1000
0000
0000
0001
0000
0000
1000
0000
0100
0000
0010
0000
,  // measure 55
0100
0000
1000
0000
0001
0000
0010
0001
0000
1000
0000
0100
1000
0100
1000
0000
,  // measure 56
0010
1000
0010
0000
1000
0000
0001
0000
0010
0000
0001
0000
1001
0000
0000
0000
,  // measure 57
0110
0000
0100
0000
0001
0000
0001
1000
0000
0100
0000
0010
0001
0010
0100
0000
,  // measure 58
0010
0001
0100
0010
1000
0001
0101
0000
,  // measure 59
1000
0010
1000
0000
0001
0000
0100
0001
0000
1000
0000
0100
1000
0100
0010
0000
,  // measure 60
0001
0000
0010
0100
0000
1000
0010
0000
0100
0001
0000
1000
0100
0010
0001
0000
,  // measure 61
2002
0000
0000
0000
,  // measure 62
3003
0000
0000
0000
;

//---------------dance-single - ----------------
#NOTES:
     dance-single:
     :
     Medium:
     7:
     0.423,0.402,0.089,0.098,0.134: // measure 1
0000
0000
0000
0000
,  // measure 2
1010
0000
0000
0101
0000
0000
0001
0000
1000
0000
0000
2002
0000
0000
3003
0000
,  // measure 3
1000
0000
0010
0000
1000
0000
0000
0001
0000
0000
0010
0000
0001
0000
0000
0000
,  // measure 4
1000
0010
0100
0001
0000
0001
1000
0000
,  // measure 5
0010
0000
1000
0000
0100
0000
0000
0010
0000
0000
0100
0000
1000
0000
0000
0000
,  // measure 6
0002
0000
0000
0100
0000
0000
1000
0000
2000
0000
0000
0000
3003
0000
0000
0000
,  // measure 7
1000
0000
0100
0000
1000
0000
0000
0001
0000
0000
0010
0000
0001
0000
0000
0000
,  // measure 8
1000
1000
1000
1000
0000
0001
0101
0000
,  // measure 9
0010
0000
0000
1000
0000
0000
0100
0000
0010
0000
0001
0000
1000
0000
0000
0000
,  // measure 10
0010
0000
0000
1000
0000
0000
0001
0000
1000
0000
0000
0001
0000
0000
0010
0000
,  // measure 11
0001
0000
1000
0100
0000
0100
1000
0000
,  // measure 12
0001
0100
0001
1000
0000
0010
0100
0000
,  // measure 13
0001
0000
1000
0100
0000
0010
0001
0000
,  // measure 14
1000
0000
0000
0010
0000
0000
1000
0000
0001
0000
0000
0010
0000
0000
0001
0000
,  // measure 15
1000
0000
0010
0000
1000
0000
0000
0001
0000
0000
0010
0000
0001
0000
0000
0000
,  // measure 16
1000
0100
1000
0000
0001
0100
0001
0000
,  // measure 17
1000
0000
0001
0000
1000
0001
1000
0000
,  // measure 18
2002
0000
0000
0000
,  // measure 19
3003
0000
0000
0000
,  // measure 20
1000
0010
1000
0001
,  // measure 21
0100
0000
0000
0100
0000
0000
0001
0000
0000
0001
0000
0001
0000
0000
1000
0000
,  // measure 22
0001
1000
0100
1000
,  // measure 23
0100
0000
0000
0100
0000
0000
0010
0000
0000
0010
0000
0000
0001
0000
0001
0000
,  // measure 24
0001
1000
0010
1000
,  // measure 25
0001
0000
0000
0001
0000
0000
0100
0000
0000
0100
0000
0100
0000
0000
0100
0000
,  // measure 26
0010
1000
0010
1000
,  // measure 27
0001
0000
1000
0010
1000
0000
0001
0000
,  // measure 28
1000
0100
0010
0001
0000
0010
0001
0000
,  // measure 29
1000
0000
0010
0000
0100
0001
0100
0000
,  // measure 30
0001
0100
0010
1000
0000
1000
0010
0000
,  // measure 31
0100
0000
0001
0000
1000
0100
1000
0000
,  // measure 32
0001
0000
0010
0001
0000
0001
0100
0000
,  // measure 33
0010
1000
0010
0000
0100
0001
0100
0000
,  // measure 34
0010
0000
1000
0100
0000
0100
1000
0000
,  // measure 35
2002
0000
0000
3003
,  // measure 36
1000
0100
1000
0000
0001
0100
0001
0000
,  // measure 37
1000
0000
0100
0000
0010
0001
1000
0000
,  // measure 38
0010
0000
1000
0000
0001
0100
0001
0000
,  // measure 39
1000
0000
0010
0000
1000
0001
1000
0000
,  // measure 40
0100
1000
0001
0000
0001
1000
0100
0000
,  // measure 41
1000
0000
0010
0000
0100
0001
0100
0000
,  // measure 42
0010
1000
0100
0000
0010
0001
0100
0000
,  // measure 43
2002
0000
0000
3003
,  // measure 44
1001
0000
0001
0100
0000
0100
0001
1000
,  // measure 45
0010
0100
0001
0000
0010
0000
0001
0000
,  // measure 46
1000
0000
0100
1000
0000
1000
0001
0010
,  // measure 47
0001
0100
0010
0000
1000
0000
0100
0000
,  // measure 48
0010
0000
0100
0010
0000
0010
0001
1000
,  // measure 49
0010
0100
0001
0000
1000
0000
0010
0000
,  // measure 50
1000
0010
0100
0001
0010
0001
1000
0100
,  // measure 51
2000
0000
3000
0000
,  // measure 52
1001
0000
0000
0001
0000
0000
1000
0000
0010
0000
0000
0100
0000
0000
0010
0000
,  // measure 53
1000
0000
0100
0000
0010
0000
0000
0001
0000
0000
0010
0000
0001
0000
0100
0000
,  // measure 54
0010
0000
1000
0000
0001
0000
0000
1000
0000
0000
0001
0000
1000
0000
0100
0000
,  // measure 55
0010
0000
0001
0000
0010
0000
0000
0001
0000
0000
1000
0000
0100
0000
1000
0000
,  // measure 56
0010
1000
0100
0000
0010
0001
0100
0000
,  // measure 57
0001
0000
0100
0000
0010
0000
0000
0100
0000
0000
0010
0000
0100
0000
0001
0000
,  // measure 58
1000
0000
0100
0000
0010
0000
0000
0100
0000
0000
0010
0000
0100
0000
1000
0000
,  // measure 59
0010
0000
0100
0000
0001
0000
0000
1000
0000
0000
0010
0000
0100
0000
0001
0000
,  // measure 60
1000
0000
0000
0100
0000
0000
0010
0000
0000
0001
0000
0000
1000
0000
0001
0000
,  // measure 61
1001
0000
0000
0000
;

//---------------dance-single - ----------------
#NOTES:
     dance-single:
     :
     Easy:
     5:
     0.275,0.268,0.071,0.143,0.000: // measure 1
0000
0000
0000
0000
,  // measure 2
2002
0000
0000
3003
,  // measure 3
1000
0100
1000
0010
,  // measure 4
0100
0001
0100
0000
,  // measure 5
0001
0010
0100
1000
,  // measure 6
2002
0000
3003
0000
,  // measure 7
1000
0010
0100
0001
,  // measure 8
2000
0001
0200
3300
,  // measure 9
1000
0001
0100
0010
,  // measure 10
2000
0010
0002
3003
,  // measure 11
0001
1000
0001
1000
,  // measure 12
0010
1000
0010
1000
,  // measure 13
0001
0010
0001
0010
,  // measure 14
0001
0100
0001
0100
,  // measure 15
0001
0100
0010
1000
,  // measure 16
0100
0010
0001
1000
,  // measure 17
0001
1000
0001
1000
,  // measure 18
2002
0000
0000
0000
,  // measure 19
3003
0000
0000
0000
,  // measure 20
1000
0000
0010
0000
,  // measure 21
0100
0001
0100
0001
,  // measure 22
1000
0000
0100
0000
,  // measure 23
0010
0001
0010
0001
,  // measure 24
0100
0000
0010
0000
,  // measure 25
1000
0001
0100
0001
,  // measure 26
1000
0000
0100
0000
,  // measure 27
0010
0001
0010
0000
,  // measure 28
1001
0000
0001
0100
,  // measure 29
0010
1000
0001
1000
,  // measure 30
0100
0000
0010
0001
,  // measure 31
0010
0100
1000
0010
,  // measure 32
0100
0000
0001
1000
,  // measure 33
0001
1000
0100
1000
,  // measure 34
0010
0100
0001
1000
,  // measure 35
0002
0000
0000
0003
,  // measure 36
1001
0000
0001
0100
,  // measure 37
0010
1000
0100
0010
,  // measure 38
0001
0000
1000
0010
,  // measure 39
1000
0001
0010
0001
,  // measure 40
0100
0000
0010
0100
,  // measure 41
0001
0010
0100
1000
,  // measure 42
0010
0100
0001
1000
,  // measure 43
2002
0000
0000
3003
,  // measure 44
0100
0010
0100
0010
,  // measure 45
1000
0100
0010
0000
,  // measure 46
0001
1000
0001
1000
,  // measure 47
0010
0100
0001
0000
,  // measure 48
1000
0100
0010
0001
,  // measure 49
1000
0010
0100
0001
,  // measure 50
1000
0100
0010
0100
,  // measure 51
0020
0000
0030
0000
,  // measure 52
2002
0000
0000
3003
,  // measure 53
1000
0010
0100
0001
,  // measure 54
1000
0100
0010
0001
,  // measure 55
0100
0001
1000
0010
,  // measure 56
0100
0001
1000
1000
,  // measure 57
0001
0010
0100
1000
,  // measure 58
0001
0100
0010
1000
,  // measure 59
0001
0100
0010
1000
,  // measure 60
0001
1000
0100
0010
,  // measure 61
1001
0000
0000
0000
;

//---------------dance-single - ----------------
#NOTES:
     dance-single:
     :
     Beginner:
     2:
     0.130,0.161,0.107,0.000,0.000:
0000
0000
0000
0000
,
0001
0000
1000
0000
,
1001
0000
0000
0000
,
0010
0000
1000
0000
,
0100
0000
0000
0000
,
0110
0000
0000
0000
,
0010
0000
0001
0000
,
0010
0000
0000
0000
,
0100
0000
1000
0000
,
1001
0000
0000
0000
,
0001
0000
1000
0000
,
0100
0000
0010
0000
,
0001
0000
0100
0000
,
0010
0000
1000
0000
,
0001
0000
0000
0000
,
1000
0000
0000
0000
,
1001
0000
0000
0000
,
0110
0000
0000
0000
,
0000
0000
0000
0000
,
0010
0000
0000
0000
,
0100
0000
0010
0000
,
1000
0000
0000
0000
,
0001
0000
1000
0000
,
0001
0000
0000
0000
,
0010
0000
0001
0000
,
0100
0000
0000
0000
,
0001
0000
0000
0000
,
1001
0000
0000
0000
,
1000
0000
0010
0000
,
1000
0000
0000
0000
,
0001
0000
0100
0000
,
0001
0000
0000
0000
,
1000
0000
0100
0000
,
0010
0000
0000
0000
,
0110
0000
0000
0000
,
1001
0000
0000
0000
,
0001
0000
0100
0000
,
0001
0000
0000
0000
,
1000
0000
0100
0000
,
1000
0000
0000
0000
,
0001
0000
1000
0000
,
0100
0000
0010
0000
,
0100
0000
0000
0000
,
1001
0000
0000
0000
,
0001
0000
0100
0000
,
0001
0000
0000
0000
,
1000
0000
0100
0000
,
1000
0000
0100
0000
,
0010
0000
0001
0000
,
0100
0000
0010
0000
,
0110
0000
0000
0000
,
1001
0000
0000
0000
,
1000
0000
0100
0000
,
1000
0000
0001
0000
,
0100
0000
0001
0000
,
0010
0000
0100
0000
,
0010
0000
0001
0000
,
1000
0000
0010
0000
,
0100
0000
0001
0000
,
1000
0000
0001
0000
,
1001
0000
0000
0000
;
