#TITLE:Chronos;
#SUBTITLE:;
#ARTIST:TAG;
#TITLETRANSLIT:;
#SUBTITLETRANSLIT:;
#ARTISTTRANSLIT:;
#CREDIT:;
#BANNER:;
#BACKGROUND:;
#LYRICSPATH:;
#CDTITLE:;
#MUSIC:CHRONOS.mp3;
#OFFSET:-6.120;
#SAMPLESTART:53.460;
#SAMPLELENGTH:13.990;
#SELECTABLE:YES;
#BPMS:0.000=128.000,155.000=64.000,161.000=128.000;
#DISPLAYBPM:64:128;
#STOPS:211.000=0.117;
#BGCHANGES:;

//---------------dance-single - ----------------
#NOTES:
     dance-single:
     :
     Hard:
     9:
     0.638,0.653,0.391,0.142,0.502:
1000
0001
0100
0010
0100
0001
1000
0100
,
0010
0000
0100
0000
1000
0000
0010
0000
0100
0000
0001
1000
0001
0000
1000
0000
,
0100
0000
0010
0000
0001
0000
1000
0010
1000
0000
0010
0000
0100
0000
0001
0000
,
2001
0000
0000
0010
0000
0000
0010
0000
0010
0000
0010
0000
3020
0000
0000
0100
,
0000
0000
0100
0000
0100
0000
0100
0000
0230
0000
0000
0001
0000
0000
0001
0000
,
0001
0000
0001
0000
0302
0000
0000
1000
0000
0000
1000
0000
1003
0000
0001
0000
,
1000
0001
1000
0001
1000
0000
0010
0000
0100
0000
0001
0000
1000
0000
0000
0000
,
0001
0000
1000
0000
0000
0000
1000
0000
0100
0010
0100
0010
0100
0000
0010
0000
,
0001
1000
0010
0000
1000
0001
1000
0100
,
0010
0100
0010
0100
0010
0000
0100
0000
1000
0000
0001
0000
1001
0000
0000
1010
,
0000
0000
0101
0000
0000
1001
0000
0000
1000
0000
0001
1000
0000
0000
0001
0000
,
0100
0001
0000
0000
1000
0100
0010
0001
1000
0001
1000
0000
0000
0000
0000
0000
,
1001
1000
1000
0001
0010
0010
0001
1000
,
1000
0000
0001
1000
0100
1000
0001
0000
0100
0000
0100
0000
0010
0000
0100
0000
,
0100
0000
0001
0000
1000
0000
1000
0000
0001
0010
0100
0010
0001
0000
0100
0000
,
0100
0000
0010
0000
1000
0000
1000
0000
0100
0000
0010
0000
0010
0000
0100
0010
,
0100
1000
0100
1000
0002
0000
0000
0000
1003
0000
0001
0000
0100
0000
0010
1000
,
0020
0000
0000
1030
0010
0100
0101
0000
,
0001
0000
1000
0010
1000
0010
1000
0010
0000
0101
0000
1001
0000
1000
0100
0000
,
0010
0000
0001
0000
1000
0000
0100
1000
0100
0000
1000
0000
0001
0000
0100
0000
,
0010
0000
0100
0001
0100
0000
0001
0000
1000
0000
0100
0000
0010
0000
0001
1000
,
0000
1000
0100
0000
0010
0100
0000
0100
0010
0000
0001
1000
0000
1000
0001
0000
,
0100
0000
0010
0000
1000
0000
0001
0100
0001
0000
1000
0000
0100
0000
0010
0000
,
0001
0000
0100
0010
1000
0000
0100
0000
0010
0000
0100
0000
0010
0000
0001
0010
,
0000
0001
0010
0000
0100
1000
0000
0100
1000
0000
0001
0100
0000
0100
0001
0000
,
0100
0000
0010
0000
1010
0000
1000
0001
0000
1000
0001
0000
1000
0000
0001
0000
,
0010
0000
0100
0000
0010
0001
0000
0010
0001
0000
1000
0000
0010
0000
0100
0000
,
0001
0000
1000
0001
0000
1000
0001
0000
1000
0000
0010
0000
0100
0000
0101
0000
,
0001
1000
0000
0000
1001
0000
1000
0100
0000
1000
0001
0000
0100
0010
0000
0010
,
0100
0000
0010
0000
1000
0000
0001
0000
1000
0000
0100
0010
0000
0010
0100
0000
,
0010
0000
0001
0000
1000
0000
0010
0000
0100
0001
0000
0001
1000
0000
0001
0000
,
1000
0000
0001
0000
0011
0000
0000
1100
0000
0000
1010
0000
0000
0101
0000
0000
,
0001
0100
0001
1000
0010
1000
0001
0000
0000
1000
0000
0000
1001
0000
0000
0001
,
0000
0100
0001
0000
1000
0000
0100
0000
0010
0000
0001
0000
1000
0000
0010
0000
,
0100
0000
0010
0000
1000
0000
0000
0001
0000
0010
0001
0000
1000
0000
0010
0000
,
0100
0001
0100
0000
0001
0000
1000
0000
0000
0000
0000
0000
1001
0000
0000
1000
,
0000
0100
1000
0000
0001
0000
1000
0000
0010
0000
0100
0010
0100
0000
0001
0000
,
1000
0100
0110
0000
0000
1001
0000
0000
,
1001
0000
0100
0000
0010
0000
0110
0000
0000
0000
0000
0000
2010
0000
0000
3002
,
0000
0000
0023
0000
0000
0230
0000
0000
0320
0000
0000
0032
0000
0000
2003
0000
,
0000
3010
0000
0000
0101
0000
0000
0000
0000
0000
0011
0000
0000
0000
0000
0000
,
1100
0000
0000
1001
0000
0000
0001
0100
,
0001
0000
0100
0000
0010
0000
1000
0000
0010
0000
1000
0000
0100
0000
0010
0001
,
0010
0001
0010
0001
0010
0000
0001
1000
0000
1000
0100
0000
0010
0000
0001
0000
,
0100
0000
0010
0000
0100
0001
0000
0001
0100
0000
0001
0000
1000
0000
0100
0000
,
0010
0000
0100
1000
0000
1000
0100
0000
0010
0000
0001
0000
1000
0000
1010
0000
,
0000
0101
0000
0000
1001
0000
0000
1100
0000
0000
1001
0000
0001
1000
0000
1000
,
0001
0000
0100
0000
0010
0000
1010
0000
1001
0000
0001
0100
0000
0100
0001
0000
,
1000
0000
0100
0000
1100
0000
1001
0000
0001
1000
0000
0001
1000
0000
0100
0000
,
0010
0000
0100
0000
0110
0000
0010
0001
0000
0000
1001
0000
1000
0010
0000
0000
,
1001
0000
0000
0101
0000
0001
1000
0100
1000
0100
0010
0001
0010
0000
0000
0011
,
0000
0000
0001
0100
0001
1000
0010
1000
0010
0000
0100
0010
0100
0010
1000
0000
,
0001
0000
0100
0001
2000
0000
0000
0000
0000
0000
0000
0000
3000
0000
0000
0000
,
0110
0101
0000
0000
2002
0000
0000
0000
,
0000
0000
0000
0000
0000
0000
0000
3003
0000
0000
0000
0000
0000
0000
0000
0000
;

//---------------dance-single - ----------------
#NOTES:
     dance-single:
     :
     Medium:
     7:
     0.486,0.508,0.373,0.187,0.258:
1000
0000
0001
0100
0001
1000
0100
0000
,
0010
0001
1000
0100
1000
0000
1000
0001
,
0000
0001
0100
0010
0100
0001
1000
0100
,
0020
0000
0000
0001
0000
0000
0001
0000
0000
0000
0000
0000
0032
0000
0000
1000
,
0000
0000
1000
0000
0000
0000
0000
0000
2003
0000
0000
0010
0000
0000
0010
0000
,
0000
0000
0000
0000
3020
0000
0000
0100
0000
0000
0200
0000
0000
0000
0330
0000
,
0010
0000
1000
0000
0001
0000
1000
0000
0000
0000
0001
0000
0100
0000
0000
0002
,
0000
0000
0000
0103
0010
0100
0010
1000
,
0001
0000
1000
0000
0002
0000
0000
2000
0000
0000
0000
0000
3003
0000
0000
0000
,
1000
0000
0100
0000
0010
0000
0001
0000
0010
0000
0001
0000
0100
0000
0000
0110
,
0000
0000
0010
0000
0000
1010
0000
0000
1001
0000
0000
1000
0000
0000
0100
0000
,
0000
0010
0000
0000
0001
0000
0000
1000
0001
1000
0001
0000
0000
0000
0000
0000
,
1000
0100
0010
0000
0010
0100
0000
0010
,
0001
1000
0001
0100
0001
1000
0000
0010
,
0100
0000
0010
1000
0001
1000
0100
0010
,
0001
0000
1000
0010
1000
0001
0100
0001
,
1000
0100
2000
0000
0000
0001
0001
0001
,
3002
0000
0000
0100
0100
0100
0103
0000
,
0000
0000
0010
0000
1000
0000
0001
0000
0000
1000
0000
0001
0000
1000
0001
0000
,
0100
0010
1000
0100
0010
0100
0000
0010
,
0001
0000
0010
0000
0001
0000
0100
0000
0000
0000
0010
0000
1000
0000
0000
0001
,
0000
0000
0100
0000
0000
0010
0000
0000
0100
0000
0000
0001
0000
0000
1000
0000
,
0000
0100
0000
0000
0010
0000
0000
0000
0100
0000
1000
0000
0100
0000
1000
0000
,
0001
0000
0000
0000
1000
0000
0010
0000
0100
0000
0001
0000
1000
0000
0000
0001
,
0000
0000
1000
0000
0000
0010
0000
0000
0100
0000
0000
0010
0000
0000
1000
0000
,
0001
0000
0100
0000
0110
0000
0000
0100
0000
0000
0100
0000
0010
0000
1000
0000
,
0001
0000
0100
0000
0000
0100
0000
0000
0100
0000
0010
0000
1000
0000
0001
0000
,
1000
0000
0000
1000
0000
0000
1000
0000
0001
0000
1000
0000
0100
0000
1100
0000
,
0000
1001
0000
0000
0101
0000
0000
0110
0000
0000
1001
0000
0000
0001
0000
0000
,
1000
0000
0010
0000
0100
0000
0001
0000
1000
0000
0000
0001
0000
0000
0100
0000
,
0010
0000
1000
0000
0001
0000
0100
0000
0000
0001
0000
0000
0100
0000
0010
0000
,
0100
0000
0001
0000
1001
0000
0000
1100
0000
0000
0011
0000
0000
0101
0000
0000
,
1001
0000
0000
0110
0000
0000
1001
0000
0000
0110
0000
0000
1001
0000
0000
0000
,
0000
1000
0100
0000
0010
0000
0001
0000
0100
0000
0000
0000
0010
0000
1000
0000
,
0000
0000
1000
0000
0001
0000
0000
0000
0000
1000
0100
0000
1000
0000
0001
0000
,
0100
0001
1000
0100
0000
0010
0001
0000
,
0000
1000
0001
0000
1000
0000
0010
0000
0100
0000
0000
0010
0000
0000
0100
0000
,
0010
1000
0001
0000
0000
1001
0000
0000
,
1000
0000
0100
0000
0010
0000
0002
0000
0000
0000
0000
0000
2003
0000
0000
3002
,
0000
0000
2003
0000
0000
3020
0000
0000
0230
0000
0000
0320
0000
0000
2030
0000
,
0000
3100
0000
0000
1100
0000
0000
0000
0000
0000
0011
0000
0000
0000
0000
0000
,
0101
0000
0000
1010
0000
0000
1000
0100
,
0010
0001
0100
0010
1000
0100
0010
0001
,
0010
0000
0001
0000
1000
0000
0000
0001
0000
0000
0100
0000
0010
0000
0100
0000
,
0001
0000
1000
0000
0000
0001
0000
0000
1000
0000
0100
0000
0010
0000
0001
0000
,
0100
0000
0000
0010
0000
0000
0100
0000
0001
0000
1000
0000
0010
0000
1010
0000
,
0000
1001
0000
0000
0011
0000
0000
0110
0000
0000
1001
0000
0000
1000
0000
0000
,
0001
0000
0100
0000
0010
0000
1000
0000
0001
0000
0000
1000
0000
0000
0100
0000
,
0010
0000
0001
0000
0100
0000
0010
0000
0000
1000
0000
0000
0010
0000
1000
0000
,
0001
0000
0100
0000
0101
0000
0000
1001
0000
0000
1100
0000
0000
1001
0000
0000
,
0011
0000
0000
1100
0000
0000
0011
0000
0000
0101
0000
0000
1010
0000
0000
0101
,
0000
0000
1010
0000
0000
1100
0000
0000
0011
0000
0000
0010
0000
0000
0001
0000
,
1000
0000
0001
1000
0002
0000
0000
0000
0000
0000
0000
0000
0003
0000
0000
0000
,
1000
0001
0000
0000
2002
0000
0000
0000
,
0000
0000
0000
0000
0000
0000
0000
3003
0000
0000
0000
0000
0000
0000
0000
0000
;

//---------------dance-single - ----------------
#NOTES:
     dance-single:
     :
     Easy:
     3:
     0.263,0.266,0.258,0.160,0.084:
1000
0000
0000
0001
0000
0000
1000
0000
,
0000
0100
0000
0000
0110
0000
0000
0010
,
0000
0000
0001
0000
0000
1000
0000
0000
,
2002
0000
0000
0000
,
0000
3003
0220
0000
,
0000
0000
0000
0330
,
0010
0000
0000
1000
0000
0000
0001
0000
,
0000
1000
0000
0000
0100
0000
0000
0010
,
0000
0000
0100
0000
0000
1000
0000
0000
,
1001
0000
0000
0000
0000
0000
0001
0000
0000
0000
0000
0000
1000
0000
0000
0010
,
0000
0000
0100
0000
0000
0001
0000
0000
1000
0000
0000
0000
0000
0000
0001
0000
,
0000
0000
0000
0000
1000
0000
0000
0001
0000
0000
1001
0000
0000
0000
0000
0000
,
0010
0000
0000
1000
0000
0000
0001
0000
,
0000
1000
0000
0001
0000
0000
0100
0000
,
0000
0010
0000
0000
1000
0000
0001
0000
,
0000
1000
0000
0000
0100
0000
0000
0010
,
0000
0000
0110
0000
0000
0100
0000
0000
,
1000
0000
0000
0001
0000
0000
0101
0000
,
0000
0100
0000
0000
0220
0000
0000
0000
,
0330
0000
1001
0000
0000
1000
0000
0000
,
0100
0000
0000
0010
0000
0000
0001
0000
,
0000
1000
0000
0000
0001
0000
0000
0100
,
0000
0000
0010
0000
0000
0100
0000
0000
,
0010
0000
0000
1000
0000
0000
0001
0000
,
0000
0010
0000
0000
0100
0000
0000
1000
,
0000
0000
1001
0000
0000
1000
0000
0001
,
0000
0101
0000
0000
0001
0000
1000
0000
,
1001
0000
0000
1000
0000
0001
0000
1000
,
0000
0010
0000
0000
0100
0000
0000
0001
0000
0000
1000
0000
0000
0000
0000
0000
,
0001
0000
1000
0000
1100
0000
0000
0010
,
0000
0001
0000
0011
0000
0000
0001
0000
,
1000
0000
0000
0000
0001
0000
0000
1000
0000
0000
0001
0000
0000
1000
0000
0000
,
0010
0000
0000
0100
0000
0000
0010
0000
0000
1000
0000
0000
0001
0000
0000
0000
,
0000
1000
0000
0000
0001
0000
0000
0100
,
0000
0000
0110
0000
0000
0010
0000
0000
,
1000
0000
0000
0001
0000
0000
1001
0000
,
0000
1000
0000
0000
0100
0000
0000
0010
,
0000
0000
0110
0000
0000
1001
0000
0000
,
0001
0000
0000
0100
0000
0000
0220
0000
,
0000
0000
0000
0000
,
0330
0000
1001
0000
0000
1001
0000
0000
,
0110
0000
0000
0110
0000
0000
1000
0000
,
0000
0001
0000
0000
1000
0000
0000
0010
,
0000
0000
0210
0000
0000
0000
0000
0001
,
0001
0302
0000
0000
0000
0000
1000
1000
,
2003
0000
0000
0000
0000
0100
0100
3100
,
0000
1100
0000
0000
1000
0000
0000
1001
0000
0000
0002
0000
0000
0000
0000
0000
,
0000
0000
1003
1000
2000
0000
0000
0000
,
0000
3100
0100
0200
0000
0000
0000
0000
,
0310
0000
0010
0000
0010
0000
0000
0001
0000
0000
1000
0000
0000
0100
0000
0000
,
0010
0000
0000
0001
0000
0000
1000
0000
0000
0010
0000
0000
0100
0000
0000
0001
,
0000
0000
1000
0000
0000
0001
0000
0000
1000
0000
0000
0010
0000
0000
0100
0000
,
0000
0001
0000
0000
2002
0000
0000
0000
0000
0000
0000
0000
3003
0000
0000
0000
,
0110
0000
2002
0000
,
0000
0000
0000
0000
0000
0000
0000
3003
0000
0000
0000
0000
0000
0000
0000
0000
;

//---------------dance-single - Copied from----------------
#NOTES:
     dance-single:
     :
     Beginner:
     2:
     0.137,0.143,0.133,0.000,0.000:
1000
0000
0000
0001
,
0000
0000
0000
0000
1000
0000
0000
0010
,
0000
0000
0100
0000
0000
0001
0000
0000
,
1000
0000
0000
0001
,
0000
0000
0110
0000
,
0000
0000
0000
0000
,
1000
0000
0000
0001
0000
0000
1000
0000
,
0000
0000
0001
0000
,
0000
0100
0000
0000
,
0010
0000
0000
0100
0000
0000
0010
0000
,
0000
0000
1000
0000
,
0000
0001
0000
0000
,
1001
0000
0000
1000
,
0000
0000
0000
0001
0000
0000
0000
0000
,
0000
0100
0000
0000
0000
0000
0010
0000
,
0000
0000
0100
0000
,
0000
0000
0001
0000
0000
1000
0000
0000
,
0001
0000
0000
0110
,
0000
0000
0000
0000
,
0000
0000
1000
0000
0000
0001
0000
0000
,
1000
0000
0000
0001
0000
0000
0100
0000
,
0000
0000
0010
0000
,
0000
0000
0100
0000
0000
0001
0000
0000
,
0100
0000
0000
0001
0000
0000
1000
0000
,
0000
0000
0001
0000
,
0000
1001
0000
0000
,
0000
0110
0000
0000
0000
0000
0000
0000
,
1001
0000
0000
0000
0000
0000
0000
0001
,
0000
0000
1000
0000
0000
1001
0000
0000
,
0000
0000
0110
0000
,
0000
0000
0000
1001
0000
0000
0000
0000
,
0000
0000
1000
0000
0000
0001
0000
0000
,
0100
0000
0000
0010
0000
0000
0100
0000
,
0000
0000
0000
0000
0010
0000
0000
1000
,
0000
0001
0000
0000
,
1000
0000
0000
0001
0000
0000
0100
0000
,
0000
0000
0000
0000
0010
0000
0000
0100
,
0000
0000
0010
0000
0000
0100
0000
0000
,
0110
0000
0000
1001
,
0000
0000
0000
0000
,
0000
1001
0000
0000
,
0110
0000
0000
1000
,
0000
0001
0000
0000
1000
0000
0000
0001
,
0000
0100
0000
0000
,
0000
0001
0000
0000
0000
0000
0000
0000
,
1000
0000
0000
0000
0000
0000
0000
0100
,
0000
0000
0010
0000
0000
0100
0000
0000
,
0000
0010
0010
0000
,
0000
0100
0000
0100
0000
0000
0000
0000
,
0010
0000
0010
0000
0000
0001
0000
0000
,
1000
0000
0000
0001
0000
0000
0100
0000
,
0000
0001
0000
0000
1000
0000
0000
0001
,
0000
1001
0000
0000
,
0000
0000
0110
0000
;
