#TITLE:Chat! Chat! Chat!;
#SUBTITLE:;
#ARTIST:sampling masters MEGA;
#TITLETRANSLIT:;
#SUBTITLETRANSLIT:;
#ARTISTTRANSLIT:;
#CREDIT:;
#BANNER:;
#BACKGROUND:;
#LYRICSPATH:;
#CDTITLE:;
#MUSIC:Chat! Chat! Chat!.mp3;
#OFFSET:-5.670;
#SAMPLESTART:11.290;
#SAMPLELENGTH:11.290;
#SELECTABLE:YES;
#BPMS:0.000=170.000;
#STOPS:;
#BGCHANGES:;

//---------------dance-single - ----------------
#NOTES:
     dance-single:
     :
     Hard:
     8:
     0.615,0.577,0.321,0.077,0.000:
0000
0000
1001
0000
1000
0100
0010
0001
,
0000
0010
0001
0100
1000
0100
0001
1000
,
0010
0000
0100
0101
0000
0001
1000
0100
,
0000
0100
0010
0000
0002
0000
1003
0000
,
1000
1000
0100
0000
0010
0010
0100
0000
,
0010
0001
0100
0010
0100
0001
1000
0100
,
0001
0100
0001
0100
1000
0100
1000
0100
,
0010
0001
1000
0010
0100
0001
0100
0000
,
0001
1000
0001
0000
1000
0100
1000
0000
,
0100
0010
0001
0100
0010
0100
0010
0100
,
0001
0100
0001
0100
0010
1000
0100
0010
,
0100
1000
0001
1000
0010
0000
0110
0000
,
1000
0001
0101
0000
0001
1000
1100
0000
,
0010
0001
0100
0010
1000
0001
1000
0010
,
0100
0100
0001
0001
1000
0100
1000
0100
,
0110
0000
0011
0000
1000
0001
0101
0000
,
1000
0010
0100
0000
0010
0100
0001
0000
,
1000
0001
1000
0001
1000
0100
0010
0100
,
0010
0001
0100
0001
0010
0001
0100
0010
,
0110
1001
0011
1100
,
1001
0000
0001
0100
0000
0100
1000
0000
,
0100
0001
1000
0100
0010
0001
0100
0010
,
1000
0000
1000
0010
0000
0010
0001
0000
,
0010
1000
0100
0001
0100
1000
0001
0100
,
0001
0001
1000
0100
0000
0100
0010
0010
,
0001
0100
0000
0010
1000
0000
1001
0000
,
0101
0000
0100
0010
0000
0010
1000
0000
,
1000
0100
0000
0010
0001
1000
0001
0100
,
0010
0000
1000
0001
0000
1000
0001
0000
,
1000
0100
0010
0001
0100
0010
1000
0001
,
0010
0100
0010
0001
0000
1000
0010
0100
,
0010
1000
0000
0001
0101
0000
1001
0000
,
0100
0010
0000
0000
0110
0000
1001
0000
,
1000
0010
1000
0001
0010
0001
1000
0100
,
0000
0010
0001
0200
0000
0000
0310
0000
,
0100
0001
0100
0000
0001
1000
0100
0010
,
0000
0100
1000
0002
0000
0000
1003
0000
,
0100
0010
1000
0001
0010
0100
0010
0001
,
0000
1000
0010
0000
0100
0001
1000
0001
,
0000
1000
0100
0000
0010
0100
1000
0001
,
0000
0100
1000
0100
0000
0001
1000
0000
,
0011
0000
1100
0000
1000
0010
0100
0001
,
0000
1000
0100
0001
1000
0010
0001
0000
,
1001
0000
0110
0000
0010
1000
0100
0010
,
0000
0100
0010
0001
0100
0010
0001
0000
,
0010
1000
0001
0000
1000
0100
1000
0100
,
0000
0010
0001
0000
0100
0010
1000
0002
,
0000
1000
1003
0000
1000
0100
0010
0002
,
0000
1000
1003
0000
1000
0001
1001
0000
,
1000
0100
0001
0000
0100
0010
0001
0100
,
0000
0010
1000
0010
0100
0001
1000
0100
,
0010
0000
1001
0000
1000
0010
0100
0001
,
0000
0010
0001
0100
0010
0010
1000
0001
,
0000
0000
1001
0000
1000
0100
0010
0100
,
0000
0010
0001
0100
0010
1000
0001
0100
,
0010
0100
0001
0010
0000
0110
0000
2002
,
0000
0000
0000
0000
,
0000
0000
3003
0000
,
1001
0000
0000
0000
;

//---------------dance-single - ----------------
#NOTES:
     dance-single:
     :
     Medium:
     7:
     0.498,0.481,0.210,0.144,0.000:
0000
0000
1001
0000
0001
0000
0100
0001
,
0000
0001
0100
0000
0001
1000
0001
0000
,
1000
0000
0100
0010
0000
0001
1000
0001
,
0000
1000
0020
0000
1000
0000
0130
0000
,
1000
0001
1000
0000
0001
0010
0001
0000
,
1000
0000
0100
0000
0010
0100
1000
0000
,
0001
0100
0001
0000
1000
0010
1000
0000
,
0001
1000
0110
1001
,
1000
0010
0100
0000
0001
0010
0100
0000
,
0010
0000
0001
0000
1000
0001
1000
0001
,
0100
0000
0010
0000
1000
0010
1000
0000
,
0001
0100
0001
0100
0002
0000
1003
0000
,
1000
0100
0010
0000
0010
0100
1000
0000
,
0001
0000
0100
0000
0010
1000
0001
0000
,
1000
0100
0001
0010
,
1000
0010
1000
0010
1000
0001
0100
0000
,
0001
0010
0100
0000
0010
0100
1000
0000
,
0001
0100
0010
1000
0001
0000
1001
0000
,
1000
0001
0100
0001
1000
0000
0010
0000
,
0110
1001
0011
1100
,
1000
0000
0001
0200
0000
0000
0010
0000
,
0000
0001
0000
0000
0010
0000
0001
0000
,
0310
0000
0010
2000
0000
0000
0001
0000
,
0000
0100
0000
0000
3010
0000
0010
1000
,
0001
0000
1000
0100
0000
0010
0001
0000
,
1000
0010
0000
0100
0001
0000
1000
0001
,
0100
0000
0010
2000
0000
0000
3010
0000
,
0000
1000
0000
0001
1000
0000
0100
0010
,
0001
0000
1000
0002
0000
0000
0103
0000
,
0000
0001
0000
1000
0010
1000
0100
0000
,
0010
0001
0010
0001
0000
0000
1000
0010
,
1000
0010
0000
0000
0101
0000
2002
0000
,
0000
3003
1001
1001
,
1000
0000
0100
0000
0010
0000
0001
0100
,
0000
0010
1000
0100
0000
0010
0001
0000
,
1000
0000
0001
0000
0100
0000
0010
1000
,
0000
0001
0100
0001
0000
1000
0100
0000
,
0010
0000
0001
0000
1000
0001
1000
0001
,
0000
0001
0100
0000
0010
1000
0010
1000
,
0000
1000
0100
0000
0010
0000
0001
0100
,
0000
0010
1000
0100
0000
0000
0011
0000
,
1100
0000
0010
0000
0001
0000
0100
0020
,
0000
0000
1000
1030
0000
0000
1000
0000
,
0100
0000
0010
0000
0001
0000
1000
0002
,
0000
0000
0100
0103
0000
0000
0001
1000
,
0001
1000
0100
0000
0010
0000
0100
1000
,
0000
1000
0001
0000
1000
0010
0100
0001
,
0000
1000
0010
0000
0001
0010
0001
0010
,
0000
0100
2000
0000
0001
0001
3001
0000
,
1000
0000
0010
0000
1000
0001
1000
0001
,
0000
0100
0001
0000
0010
0001
0010
0000
,
0001
0000
1000
0000
0010
0100
0000
0110
,
0000
0010
1000
0000
0001
0010
0100
1000
,
0000
0000
1001
0000
0001
0100
0010
0100
,
0000
0010
1000
0000
0001
1000
0001
0000
,
1000
0100
0010
0100
0000
0110
0000
2002
,
0000
0000
0000
0000
,
0000
0000
3003
0000
,
1001
0000
0000
0000
;

//---------------dance-single - ----------------
#NOTES:
     dance-single:
     :
     Easy:
     4:
     0.341,0.353,0.199,0.100,0.000:
0000
1001
0001
0100
,
0010
1000
0100
0010
,
0100
0000
0000
0110
0000
0000
0000
1001
,
0000
2002
0000
3003
,
1000
0100
0010
0100
,
1000
0001
0100
0000
,
0001
0100
0010
0100
,
0001
1000
0100
0000
,
0010
0100
1000
0010
,
0100
0001
0010
0000
,
0001
1000
0001
1000
,
0010
0100
0020
0030
,
0100
0100
0010
1000
,
0100
0100
0010
0100
,
0010
0010
0001
1000
,
0001
0100
0010
0000
,
1000
0010
0100
0001
,
0010
0010
0001
0100
,
0010
0010
1000
0001
,
1000
0100
0010
0001
,
1001
0000
0000
1001
0000
0000
0000
0000
,
1000
0001
0100
0010
,
0110
0000
0000
0110
0000
0000
0000
0000
,
0010
1000
0100
0010
,
0001
0100
0001
1000
,
0100
1000
0010
0100
,
0110
0000
0000
0110
0000
0000
0000
0000
,
0010
1000
0100
0010
,
0110
0000
0000
0110
0000
0000
0000
0000
,
0100
0010
0001
1000
,
0001
0100
0010
1000
,
0100
0010
0001
2002
,
0000
0000
0000
3003
,
1000
0100
0010
0001
,
0100
0010
0100
0000
,
0010
1000
0010
0100
,
0001
0100
0001
0000
,
1000
0100
1000
0100
,
0010
0001
0010
0001
,
0100
0010
0000
0000
,
0100
0001
0100
0000
,
0001
1000
0001
1000
,
0100
0010
0100
0000
,
0010
0001
0010
0001
,
1000
0010
0100
0000
,
0010
1000
0100
0010
,
0100
1000
0001
0100
,
0001
0000
0200
0000
0000
0000
0000
0001
,
0000
0002
0000
0303
,
0001
1000
0100
0000
,
0010
0100
0010
0001
,
1000
0010
0100
0000
,
0010
0100
0001
1000
,
0000
1001
0001
0100
,
0010
1000
0100
0010
,
0001
0000
0000
0110
0000
1001
0000
0220
,
0000
0000
0000
0000
,
0000
0000
0330
0000
,
1001
0000
0000
0000
;

//---------------dance-single - ----------------
#NOTES:
     dance-single:
     :
     Beginner:
     2:
     0.152,0.192,0.033,0.000,0.000:
0000
0000
0001
0000
,
0100
0000
0010
0000
,
0110
0000
0000
0000
,
0000
0000
0000
0000
,
1000
0000
1000
0000
,
0001
0000
0100
0000
,
0001
0000
0001
0000
,
1000
0000
0000
0000
,
0001
0000
0001
0000
,
0010
0000
0100
0000
,
0010
0000
0010
0000
,
0001
0000
0000
0000
,
1000
0000
0001
0000
,
1000
0000
0010
0000
,
0100
0000
0010
0000
,
1000
0000
0000
0000
,
0001
0000
0010
0000
,
0001
0000
1000
0000
,
0100
0000
0001
0000
,
0100
0000
0100
0100
,
0100
0000
0000
0000
,
0010
0000
0001
0000
,
1000
0000
0000
0000
,
0010
0000
0100
0000
,
0001
0000
0000
1000
,
0000
0000
0100
0000
,
0010
0000
0000
0000
,
0001
0000
1000
0000
,
0001
0000
0000
0000
,
1000
0000
0010
0000
,
1000
0000
0000
0010
,
0000
0000
0100
0100
,
0000
0000
0000
0000
,
0010
0000
1000
0000
,
0001
0000
1000
0000
,
0100
0000
0010
0000
,
0100
0000
0000
0000
,
0010
0000
0001
0000
,
1000
0000
0001
0000
,
0100
0000
0000
0000
,
0001
0000
1000
0000
,
0100
0000
0010
0000
,
0001
0000
1000
0000
,
0010
0000
0100
0000
,
0010
0000
1000
0000
,
0001
0000
1000
0000
,
0100
0000
0010
0000
,
0001
0000
0000
0000
,
1000
0000
0000
0000
,
0001
0000
1000
0000
,
0001
0000
0000
0000
,
0100
0000
0001
0000
,
0100
0000
0010
0000
,
0000
0000
0100
0000
,
0010
0000
1000
0000
,
1001
0000
0000
0000
,
0000
0000
0000
0000
,
0000
0000
0000
0000
,
1001
0000
0000
0000
;
