#TITLE:Can't Get Enough;
#SUBTITLE:;
#ARTIST:Infadels;
#TITLETRANSLIT:;
#SUBTITLETRANSLIT:;
#ARTISTTRANSLIT:;
#CREDIT:;
#BANNER:;
#BACKGROUND:;
#LYRICSPATH:;
#CDTITLE:;
#MUSIC:Can't Get Enough.mp3;
#OFFSET:-7.640;
#SAMPLESTART:23.590;
#SAMPLELENGTH:15.230;
#SELECTABLE:YES;
#DISPLAYBPM:126.000;
#BPMS:0.000=126.045;
#STOPS:;
#BGCHANGES:;

//---------------dance-single - ----------------
#NOTES:
     dance-single:
     :
     Hard:
     8:
     0.518,0.476,0.272,0.078,0.141: // measure 1
0000
0000
0000
0000
0000
1000
0001
0100
,  // measure 2
0110
0000
0010
1000
1001
0000
1000
0100
,  // measure 3
0010
0100
1000
0010
0000
0100
0001
0010
,  // measure 4
0000
0001
0100
0010
1000
0010
0100
0001
,  // measure 5
2000
0000
3200
0000
0302
0000
0103
1000
,  // measure 6
1001
0000
0100
0001
1001
0000
1000
0010
,  // measure 7
0100
0001
0010
0200
0000
0000
0310
0001
,  // measure 8
0100
1000
0100
0001
0010
0100
0010
0001
,  // measure 9
0000
1000
0010
0100
0101
0000
0010
1000
,  // measure 10
0200
0000
0000
0000
0310
0000
0000
0000
1000
0000
0001
0000
1000
0001
1000
0000
,  // measure 11
0010
0000
0100
0001
1000
0000
0100
0010
,  // measure 12
0002
0000
0000
0000
0103
0000
0000
0000
0100
0000
0010
0000
1000
0001
1000
0000
,  // measure 13
0010
0000
0100
0001
0010
1000
0010
0001
,  // measure 14
0200
0000
0000
0000
1300
0000
0000
0000
0100
0000
0001
0000
1000
0100
1000
0000
,  // measure 15
0010
0001
0010
1000
0100
0000
0010
0001
,  // measure 16
0200
0000
0000
0000
1300
0000
0000
0000
0100
0000
0001
0000
0100
0001
0100
0000
,  // measure 17
0010
0000
1000
0000
0100
0000
0010
0000
0001
0000
1000
0001
1000
0001
0000
0000
,  // measure 18
0110
0000
1000
0000
0100
0010
0001
0000
,  // measure 19
1000
0010
1000
0000
0001
0100
0001
0000
,  // measure 20
1000
0000
0000
0000
0100
0000
0000
0000
0001
0000
0000
0000
0010
0000
0000
1000
,  // measure 21
0000
0010
0100
0000
0001
0000
0000
0000
0001
0000
0010
0000
0100
0000
0000
1000
,  // measure 22
0100
0000
0000
0000
0010
0001
0010
0001
0010
0000
0000
0000
0001
0000
0000
0000
,  // measure 23
1000
0000
0010
0000
1000
0000
0000
0000
0001
0000
1000
0100
1000
0000
0001
0100
,  // measure 24
0001
0000
1001
0000
1000
0010
0100
0000
,  // measure 25
0010
0000
0100
0000
0001
0000
0000
0000
1000
0000
0100
0000
0010
0000
0000
0001
,  // measure 26
1000
0000
0110
0010
1000
0100
0010
0001
,  // measure 27
0100
0000
0010
0000
1000
0000
0001
0000
0100
0010
0000
0100
0010
0000
1000
0000
,  // measure 28
0001
0100
0101
0001
0010
0100
0010
0001
,  // measure 29
1000
0000
0010
0000
0100
0000
0001
0000
1000
0001
0000
1000
0001
1000
0001
0000
,  // measure 30
0100
0010
1010
1000
0100
0001
0100
1000
,  // measure 31
0010
0000
0001
0000
0010
0000
1000
0100
0000
0100
0010
0000
0001
0000
0100
0000
,  // measure 32
0010
1000
1001
0001
0100
0010
1000
0100
,  // measure 33
0010
0001
1000
0000
0001
0000
0100
0000
0110
0000
0000
0000
0010
0000
1000
0000
,  // measure 34
1001
0000
0101
0000
1010
0000
0010
1000
,  // measure 35
0100
0010
0001
0100
0000
0010
1000
0100
,  // measure 36
0010
0000
1001
0001
0010
0100
1000
0001
,  // measure 37
0000
1000
0010
0100
0110
0000
1001
0001
,  // measure 38
0010
0000
1100
0000
0010
0001
0100
0010
,  // measure 39
1000
0001
0100
0010
0000
1000
0100
0010
,  // measure 40
0001
1000
1010
0010
0100
0001
0010
0100
,  // measure 41
0000
0000
0010
0000
0001
0000
1000
0000
0100
0000
0010
0001
0010
0000
0001
0000
,  // measure 42
0101
0000
1001
0000
1000
0010
0100
0001
,  // measure 43
0010
0001
1000
0100
0000
0010
0001
1000
,  // measure 44
0001
0100
1000
0100
0001
0000
1000
0100
,  // measure 45
0000
0010
0001
0100
0010
0000
0110
0000
,  // measure 46
1001
0000
1100
0000
0010
0001
0100
0010
,  // measure 47
1000
0000
0010
0001
0000
0010
1000
0100
,  // measure 48
0010
0000
0000
0000
0011
0000
0000
0001
0100
0000
0000
0000
1010
0000
0000
1000
,  // measure 49
0100
0000
0000
0000
0011
0000
0000
0001
1000
0000
0010
0100
0010
0100
0010
0100
,  // measure 50
0010
0000
0000
0000
;

//---------------dance-single - ----------------
#NOTES:
     dance-single:
     :
     Medium:
     5:
     0.354,0.333,0.165,0.068,0.000:
0000
0000
0000
0000
0000
0000
0001
1000
,
0001
0000
1000
0010
1000
0000
0010
0100
,
0001
1000
0100
0010
,
0100
0010
0001
0000
0010
0001
1000
0000
,
0001
0000
0100
0000
0010
0000
1000
0010
,
1000
0000
0001
0010
0001
0000
1000
0000
,
0010
0100
0010
0100
0000
0000
0001
0000
,
1000
0000
0100
0000
0010
0000
0001
1000
,
0000
1000
0001
0000
1000
0010
1000
0000
,
0101
0000
1001
0000
0000
1000
0001
1000
,
0001
0100
0010
1000
,
0100
0000
0110
0000
0000
0010
0001
0010
,
0001
1000
0001
0100
,
0010
0000
1010
0000
0000
1000
0010
1000
,
0010
1000
0100
0010
,
0001
0000
0011
0000
0000
0001
1000
0001
,
1000
0000
0001
0000
0100
0010
0100
0000
,
0010
1000
0100
0001
,
1000
0010
0100
1000
,
0001
0100
1000
0001
,
0010
0100
0001
1000
,
1001
0000
0001
0100
0001
0000
1000
0000
,
0001
0000
1000
0000
0001
0100
0001
0100
,
0001
1000
0100
0010
,
0001
0100
0001
2002
,
3003
0110
0010
1000
,
0100
0000
0010
0000
0001
0010
0001
0010
,
0001
1000
0010
0100
,
0001
0000
1000
0000
0001
1000
0001
1000
,
0001
1000
0010
0100
,
0001
0000
0010
0000
0100
0010
0100
0010
,
0100
0010
0001
1000
,
0001
1000
0001
0000
1000
0000
0010
0000
,
0100
0000
0110
0000
0010
0000
1000
0001
,
1000
0000
0001
0200
0000
0000
0310
0000
,
0100
0010
0100
0000
0010
0000
1000
0002
,
0000
0000
0013
0000
0001
0000
1000
0100
,
1000
0000
1001
0000
0001
0000
0100
0010
,
0100
0000
0010
2000
0000
0000
3001
0000
,
1000
0001
1000
0000
0010
0000
0100
0001
,
0000
1000
0100
1000
0100
0000
0011
0000
,
1001
0000
1001
0000
0001
0000
0100
0001
,
0100
0000
0001
2000
0000
0000
3001
0000
,
1000
0000
0001
0000
0100
0010
0100
0000
,
0010
1000
0100
0010
,
0100
0000
1100
0000
1000
0000
0001
0100
,
0001
0000
1000
0020
0000
0000
0130
0000
,
0100
0001
1000
0000
0001
1000
0100
0000
,
0010
0001
1000
0000
0101
0000
0110
0000
,
1001
0000
0000
0000
;

//---------------dance-single - ----------------
#NOTES:
     dance-single:
     :
     Easy:
     4:
     0.246,0.262,0.029,0.078,0.000:
0000
0000
0000
1000
,
0001
1000
0001
1000
,
0010
0100
0010
0000
,
0100
0001
1000
0100
,
0010
0000
0100
0010
,
0100
0010
0001
0010
,
0001
1000
0001
0000
,
1000
0010
0100
0001
,
0010
0001
1000
0100
,
2000
3000
0001
0100
,
0001
1000
0010
0100
,
0020
0030
0100
0001
,
0010
1000
0010
0001
,
2000
3000
0001
1000
,
0100
0001
0100
1000
,
0020
0030
0100
0001
,
1000
0100
0010
0001
,
1001
0000
1000
0000
,
0010
0000
0100
0010
,
0100
0000
0010
0000
,
1000
0000
0001
1000
,
0001
0000
1000
0000
,
0100
0000
0010
0001
,
0010
0000
0001
0000
,
0100
0000
0010
1000
,
0010
0110
0100
0001
,
1000
0100
0010
0100
,
0010
0001
1000
0001
,
1000
0010
0100
0010
,
1000
0001
0100
0001
,
1000
0100
0010
0100
,
0010
0001
1000
0001
,
1000
0010
0100
0010
,
0220
0330
0010
1000
,
0001
1000
0100
0000
,
0010
0001
1000
0001
,
0100
0000
0010
0100
,
0001
1000
0100
1000
,
0010
0100
0010
0000
,
1000
0001
1000
0100
,
0010
0100
1000
0001
,
2000
3000
0001
0100
,
0010
1000
0001
0000
,
0010
0001
1000
0010
,
0100
0000
0001
0100
,
0002
0003
1000
0100
,
0010
0100
1000
0000
,
0001
1000
0001
1000
,
0010
0100
0001
0010
,
0100
0000
0000
0000
;

//---------------dance-single - ----------------
#NOTES:
     dance-single:
     :
     Beginner:
     1:
     0.122,0.143,0.049,0.000,0.000:
0000
0000
0000
0000
,
1000
0000
0001
0000
,
0100
0000
0010
0000
,
0100
0000
0000
0000
,
0001
0000
0000
0000
,
1000
0000
0100
0000
,
0010
0000
0001
0000
,
1000
0000
0000
0000
,
0001
0000
1000
0000
,
1001
0000
0000
0000
,
0001
0000
0100
0000
,
0001
0000
0000
0000
,
1000
0000
0100
0000
,
1000
0000
0000
0000
,
0010
0000
0100
0000
,
0010
0000
0000
0000
,
1000
0000
0100
0000
,
0110
0000
0000
0000
,
0010
0000
0010
0000
,
0100
0000
0000
0000
,
1000
0000
1000
0000
,
0001
0000
0001
0000
,
1000
0000
0100
0000
,
1000
0000
0000
0000
,
0001
0000
1000
0000
,
1001
0000
0001
0000
,
0100
0000
0010
0000
,
1000
0000
0001
0000
,
1000
0000
0100
0000
,
0010
0000
0100
0000
,
1000
0000
0001
0000
,
0100
0000
0010
0000
,
1000
0000
0000
0000
,
1001
0000
0001
0000
,
0100
0000
0000
0000
,
0010
0000
0100
0000
,
0001
0000
0000
0000
,
1000
0000
0100
0000
,
1000
0000
0001
0000
,
0010
0000
0100
0000
,
0010
0000
0001
0000
,
1001
0000
0000
0000
,
1000
0000
0001
0000
,
0100
0000
0010
0000
,
0100
0000
0001
0000
,
1000
0000
0000
0000
,
1000
0000
0001
0000
,
1000
0000
0100
0000
,
0010
0000
0100
0100
,
0100
0000
0000
0000
;
