#TITLE:ANDROMEDA II;
#SUBTITLE:;
#ARTIST:Sota Fujimori;
#TITLETRANSLIT:;
#SUBTITLETRANSLIT:;
#ARTISTTRANSLIT:;
#GENRE:;
#CREDIT:;
#MENUCOLOR:;
#METERTYPE:DDR;
#BANNER:;
#BACKGROUND:;
#LYRICSPATH:;
#CDTITLE:CDTitle.PNG;
#MUSIC:ANDROMEDA II.mp3;
#OFFSET:-7.930;
#SAMPLESTART:58.460;
#SAMPLELENGTH:12.630;
#SELECTABLE:YES;
#LISTSORT:;
#BPMS:0.000=152.000;
#STOPS:;
#BGCHANGES:;
#ATTACKS:;

//---------------dance-single - ----------------
#NOTES:
     dance-single:
     :
     Hard:
     7:
     0.488,0.459,0.203,0.101,0.000:
1000
0100
1000
0000
0001
0000
0101
0000
,
0001
0010
0001
0000
1000
0000
1100
0000
,
0010
0001
0100
0000
0010
0000
0110
0000
,
0010
1000
1100
1001
,
0101
0000
0010
0000
1000
0100
0010
0100
,
1000
0000
0010
0000
0100
0010
0001
0010
,
0100
0000
0001
0000
1000
0001
0010
0001
,
0100
0000
0010
0000
1000
0100
0010
0000
,
0100
0000
0110
0000
0010
0001
0100
0010
,
1000
0000
0001
0000
0100
0001
1000
0010
,
0100
0000
0110
0000
0010
1000
0100
1000
,
0001
0000
0010
0000
0001
0100
0001
0000
,
2000
0100
3100
0000
0002
0100
0103
0000
,
1000
0100
0010
0100
1000
0010
0100
0000
,
0002
0010
0013
0000
2000
0010
3010
0000
,
0001
0100
0010
1000
0100
0010
0100
0000
,
0010
0001
0200
0000
0310
1000
0200
0000
,
0310
0001
0100
0010
1000
0001
0100
0000
,
0001
1000
0002
0000
1003
0001
2000
0000
,
3010
0100
0001
0010
0100
0000
0110
0000
,
1001
0000
1010
0000
0001
0100
0010
0000
,
1000
0100
0001
0100
1000
0010
0100
0000
,
0001
1000
0010
0000
1000
0001
0100
0000
,
0001
0010
0001
0100
0010
1000
0100
0000
,
1000
0010
0100
0000
0010
0100
0001
0000
,
1000
0000
1100
0000
0001
0010
0001
0000
,
0001
0100
0010
0000
0010
0100
0001
0000
,
1000
0010
0100
0001
0010
0000
0011
0000
,
1001
0100
0010
0001
,
0100
0010
1000
0001
,
0100
1000
0100
0001
,
2002
0000
0000
3003
,
1000
0001
0010
0100
0010
0001
0100
0010
,
1000
0100
0001
0100
,
1000
0010
0001
0010
1000
0100
0010
0001
,
0010
0001
0100
0010
,
1000
0010
1000
0001
0100
0001
0010
0001
,
1000
0100
0001
0100
,
1000
0100
0010
0001
0010
0001
0100
0010
,
1000
0010
0100
0110
,
1002
0000
0013
0000
1000
0001
0100
0010
,
1000
0000
1000
0100
0000
0100
0010
0000
,
0001
0000
0100
0001
0000
0100
0001
1000
,
0100
0000
0010
0001
0000
0001
0100
0000
,
0010
0000
1000
0000
0100
0010
0001
0010
,
0001
0000
0001
0100
0000
0100
0010
0000
,
1000
0000
0001
0100
0000
0010
1000
0000
,
0100
0000
1000
0100
0000
0010
0001
0000
,
1001
0001
0100
0010
1000
0100
1000
0100
,
0010
0000
0100
0010
0000
0100
0010
0001
,
0100
0000
0010
1000
0000
1000
0100
0100
,
1000
0000
0001
0010
0000
0010
0001
0100
,
0010
1000
0001
0010
0001
0100
0010
1000
,
0100
0000
0010
0001
0000
1000
0010
0000
,
1000
0000
0001
0100
0000
0010
1000
0000
,
1000
0100
0010
0001
1000
0010
0100
0001
,
0200
0000
0301
0000
0001
0010
0100
1000
,
0100
0110
0011
1001
,
0100
0010
1000
0000
0010
0100
0001
1000
,
0000
0100
1000
0100
0010
0001
0010
0001
,
0100
0000
0010
1000
0100
0010
0001
0100
,
0000
0010
1000
0100
0010
0000
1001
0000
,
0010
0000
0001
0100
0010
0000
0110
0000
,
1001
0000
1000
0100
0010
0100
1000
0001
,
0100
0000
0000
0000
;

//---------------dance-single - ----------------
#NOTES:
     dance-single:
     :
     Challenge:
     8:
     0.543,0.513,0.287,0.194,0.219:
1000
0100
0110
0000
0001
0000
1001
0000
,
0001
0100
0110
0000
1000
0000
1001
0000
,
0001
0010
0011
0000
0001
0000
0101
0000
,
2002
0000
0000
3003
,
1000
0100
0000
0000
0010
0000
0001
0000
0100
0000
0001
0000
0100
0000
0000
0000
,
0001
1000
0000
0000
0001
0000
0100
0000
0010
0000
1000
0000
0100
0000
0000
0000
,
0010
0001
0000
0000
1000
0000
0100
0000
0001
0000
0100
0000
1000
0000
0010
0000
,
0100
0001
0000
0000
1000
0000
0100
0000
1000
0000
0001
0000
0010
0000
0000
0000
,
0001
0100
0000
0000
0010
1000
0000
0100
0000
0000
0010
0000
0001
0000
0100
0000
,
0010
0100
0000
0000
0010
1000
0000
0001
0000
0000
0010
0000
0001
0000
1000
0000
,
0100
1000
0000
0000
0001
0010
0000
0001
0000
0000
0100
0000
0010
0000
1000
0000
,
0001
0100
0000
0000
0001
0100
0000
0010
0000
0000
1000
0000
0010
0000
1000
0000
,
0100
0010
0000
0000
0010
0000
0001
0000
0001
0100
0000
0000
0101
0000
0000
0000
,
0010
1000
0000
0000
1000
0000
0100
0000
0010
0100
0000
0000
0110
0000
0000
0000
,
0010
0001
0000
0000
1000
0000
0001
0000
0100
0010
0000
0000
0110
0000
0000
0000
,
0001
1000
0000
0000
0010
0000
1000
0000
0100
1000
0000
0000
1100
0000
0000
0000
,
0010
0001
0000
0000
0001
0100
0000
0000
0100
0010
0000
0000
0010
1000
0000
0000
,
1000
0001
0000
0000
0001
0010
0000
0000
0010
0001
0000
0000
0001
0100
0000
0000
,
0010
1000
0100
0010
0001
0010
0001
0100
,
0010
1000
0100
1000
0001
1000
0100
1100
,
1001
0000
0010
0001
0100
0010
0110
0000
,
1001
0000
0010
1000
0100
1000
1100
0000
,
0011
0000
0010
0001
0100
0010
1010
0000
,
1001
0000
0000
0000
0001
0000
0010
0000
0001
1000
0000
0000
0100
0000
0010
0000
,
0100
0010
0000
0100
0000
0000
0010
0000
0001
0000
0100
0000
0010
0000
0000
0000
,
1000
0010
0000
1000
0000
0000
0001
0000
0100
0000
0001
0000
0010
0000
0001
0000
,
1000
0001
0000
1000
0000
0000
0100
0000
0010
0000
0001
0000
0100
0000
0000
0000
,
0010
0100
0000
0001
0000
0000
0100
0000
0010
0000
1000
0000
0100
0000
0000
1000
,
0200
0001
0010
1000
,
0320
1000
0100
0001
,
0032
0100
0010
1000
,
2000
0000
0000
3003
,
1000
0100
0000
0000
0010
0001
0000
0000
0001
0000
0100
0000
0010
0000
1000
0000
,
0010
0000
0100
0001
0000
0010
0001
0000
,
1000
0100
0000
0000
1000
0010
0000
0000
0100
0000
0001
0000
0010
0000
0001
0000
,
2000
0010
0001
3100
,
0010
0001
0000
0000
1000
0010
0000
0000
0100
0000
0001
0000
1000
0000
0100
0000
,
0010
0000
0100
0010
0000
0010
0001
0000
,
0001
0100
0000
0000
0100
0010
0000
0000
0010
0000
1000
0000
0100
0000
1000
0000
,
0010
0001
0202
0303
,
1010
0000
1001
0000
0001
0010
0001
0100
,
0010
0000
1000
0001
0000
0001
1000
0000
,
0010
0001
0100
0010
1000
0100
1000
0001
,
0010
0000
0001
0100
0000
0000
0101
0000
,
1001
0000
1100
0000
0010
0001
0100
0010
,
1000
0000
0001
0100
0000
0001
1000
0000
,
0010
1000
0100
0010
0001
1000
0100
1000
,
2002
0000
0000
0000
0000
0000
0000
0000
3003
0000
0000
0000
1000
0001
0000
0000
,
0101
0000
0011
0000
1000
0100
0010
0001
,
2000
0000
3010
0200
0000
0310
2000
0000
,
3100
0000
0010
0001
0000
0010
0001
0000
,
0100
0010
1000
0001
0010
0001
0100
0000
,
0101
0000
1010
0000
0001
0100
0001
1000
,
0200
0000
0310
0002
0000
0013
0200
0000
,
0310
0001
0100
0000
0010
1000
0100
1000
,
0001
0010
0001
0100
0010
1000
0100
0000
,
2020
0000
3030
0000
0001
0010
1000
0010
,
0001
0000
0100
0000
0001
1000
0010
0000
,
1000
0100
1000
0000
0001
0100
0001
0000
,
0010
0001
0100
0010
,
2002
0000
3003
0000
0010
0001
0100
0000
,
0220
0000
0330
0000
0010
1000
0100
0000
,
1000
0100
0010
0001
0100
0010
0100
0010
,
1000
0000
0010
0000
0100
0000
0001
0000
0010
0000
0001
0000
1000
0001
1000
0000
,
1001
0000
0000
0000
;

//---------------dance-single - ----------------
#NOTES:
     dance-single:
     :
     Medium:
     5:
     0.370,0.405,0.118,0.110,0.000: // measure 1
1000
0001
1000
0000
0001
0100
0000
0000
,  // measure 2
0001
1000
0001
0000
1000
0100
0000
0000
,  // measure 3
0010
1000
0001
0000
1000
0001
0000
0000
,  // measure 4
2002
0000
0000
3003
,  // measure 5
1000
0000
0100
0000
0010
0001
0010
0000
,  // measure 6
0001
0100
0010
1000
,  // measure 7
0001
0000
1000
0000
0100
0010
0100
0000
,  // measure 8
0010
0001
1000
0010
,  // measure 9
0100
0000
0001
0000
1000
0001
1000
0000
,  // measure 10
0001
0010
0100
1000
,  // measure 11
0010
0000
0100
0000
0001
1000
0001
0000
,  // measure 12
0010
0000
0001
0000
1000
0100
1000
0000
,  // measure 13
0001
0010
0001
0000
1000
0010
1000
0000
,  // measure 14
0001
0100
0010
1000
,  // measure 15
0100
1000
0100
0000
0010
0001
0010
0000
,  // measure 16
0001
0100
0001
1000
,  // measure 17
0100
0010
0100
0000
1000
0001
1000
0000
,  // measure 18
0010
0100
0001
1000
,  // measure 19
0001
0100
0010
0000
1000
0010
0100
0000
,  // measure 20
0001
1000
2002
3003
,  // measure 21
0001
0100
0001
0000
1000
0100
1000
0000
,  // measure 22
0010
0100
0010
0000
1000
0000
0001
0000
,  // measure 23
0010
0001
0010
0000
0001
1000
0001
0000
,  // measure 24
1000
0010
1000
0000
0010
0000
0100
0000
,  // measure 25
0001
0100
0010
0000
1000
0100
0010
0000
,  // measure 26
0001
0100
0010
0000
1000
0000
0001
0000
,  // measure 27
0100
0001
0001
0000
1000
0010
0010
0000
,  // measure 28
1000
0100
0100
0000
0011
0000
1100
0000
,  // measure 29
1002
0010
1000
0100
,  // measure 30
2003
0010
0001
0100
,  // measure 31
3010
1000
0001
0100
,  // measure 32
0220
0000
0000
0330
,  // measure 33
0010
0000
1000
0000
0001
0100
0001
0000
,  // measure 34
1000
0000
0000
0100
0000
0000
0010
0000
,  // measure 35
0001
0000
0100
0000
0001
1000
0001
0000
,  // measure 36
1000
0001
0101
1001
,  // measure 37
1010
0000
1000
0000
0100
0010
0100
0000
,  // measure 38
0010
0000
0000
0001
0000
0000
1000
0000
,  // measure 39
0001
0200
0010
0301
,  // measure 40
1000
0100
0010
0001
,  // measure 41
2002
0000
3003
0000
0001
0100
0001
0000
,  // measure 42
1000
0000
0000
0100
0000
0000
1000
0000
,  // measure 43
0001
0000
0000
0100
0000
0000
0010
0000
,  // measure 44
0100
0000
0000
0010
0000
0000
1000
0000
,  // measure 45
0001
0000
0010
0000
0001
0010
0001
0000
,  // measure 46
1000
0000
0000
0100
0000
0000
0010
0000
,  // measure 47
0001
0100
0010
1000
,  // measure 48
2002
0000
0000
3003
,  // measure 49
1001
0000
0001
0000
0100
0000
0001
0100
,  // measure 50
0001
0000
0000
0100
0000
0000
0001
0000
,  // measure 51
1000
0000
0100
0000
1000
0000
0100
0010
,  // measure 52
0100
0001
1000
0010
,  // measure 53
0100
0000
0001
0000
1000
0001
1000
0000
,  // measure 54
0001
0000
0000
1000
0000
0000
0100
0000
,  // measure 55
0010
0001
0100
0010
,  // measure 56
1000
0000
0001
0000
0010
0001
0100
0000
,  // measure 57
1001
0000
0000
0000
0001
0100
0001
0100
,  // measure 58
0000
0001
1000
0100
,  // measure 59
0010
0000
0001
0000
0010
0001
0010
0001
,  // measure 60
0000
1000
0001
0100
,  // measure 61
0010
0000
1000
0000
0010
1000
0010
1000
,  // measure 62
0000
0001
0100
0001
,  // measure 63
0010
0100
0010
0000
0001
1000
0001
0000
,  // measure 64
1000
0000
0010
0000
0100
0001
0100
0000
,  // measure 65
1001
0000
0000
0000
;

//---------------dance-single - ----------------
#NOTES:
     dance-single:
     :
     Easy:
     3:
     0.252,0.270,0.076,0.017,0.000: // measure 1
1000
0001
0100
0000
,  // measure 2
0001
1000
0100
0000
,  // measure 3
0010
0100
1000
0001
,  // measure 4
1001
0000
0000
0000
,  // measure 5
1000
0001
1000
0001
,  // measure 6
0010
0001
0100
0000
,  // measure 7
0010
0100
0010
0100
,  // measure 8
0001
1000
0100
0000
,  // measure 9
0010
0001
0100
0000
,  // measure 10
0010
1000
0100
0000
,  // measure 11
1000
0100
0010
0001
,  // measure 12
0100
0010
0100
0000
,  // measure 13
1001
0000
0001
0100
,  // measure 14
0010
0000
1000
0100
,  // measure 15
0010
0000
0100
0010
,  // measure 16
0100
0000
0010
0001
,  // measure 17
0100
0000
0001
1000
,  // measure 18
0001
0000
1000
0001
,  // measure 19
0100
0000
0010
0100
,  // measure 20
0010
0100
0001
1000
,  // measure 21
1001
0000
0001
1000
,  // measure 22
0100
0000
0010
0100
,  // measure 23
0010
0000
0100
1000
,  // measure 24
0001
0000
1000
0000
,  // measure 25
0001
0000
0100
0001
,  // measure 26
0100
0000
0010
1000
,  // measure 27
0010
0000
1000
0100
,  // measure 28
1000
0001
0100
0001
,  // measure 29
1001
0000
0000
0000
,  // measure 30
1000
0000
0100
0000
,  // measure 31
0110
0000
0000
0000
,  // measure 32
2002
0000
0000
3003
,  // measure 33
1000
0001
0100
0010
,  // measure 34
0100
0000
0001
0000
,  // measure 35
1000
0100
1000
0000
,  // measure 36
0001
0100
0001
0000
,  // measure 37
1000
0010
0100
0001
,  // measure 38
0010
0000
0001
0100
,  // measure 39
0001
1000
0010
1000
,  // measure 40
0001
0000
0010
0100
,  // measure 41
0010
0000
0001
0010
,  // measure 42
0001
1000
0010
0000
,  // measure 43
1000
0001
0100
0000
,  // measure 44
0001
1000
0100
0000
,  // measure 45
0010
0001
0100
0010
,  // measure 46
1000
0010
0100
0000
,  // measure 47
0001
1000
0001
1000
,  // measure 48
0100
0010
0100
0010
,  // measure 49
0110
0000
0010
0001
,  // measure 50
0100
0010
1000
0001
,  // measure 51
0100
0000
0001
0000
,  // measure 52
1000
0000
0100
0010
,  // measure 53
0001
0100
0010
1000
,  // measure 54
0001
1000
0010
0100
,  // measure 55
0001
0000
0010
0000
,  // measure 56
0001
0000
0100
0000
,  // measure 57
0110
0000
0100
0001
,  // measure 58
1000
0010
1000
0001
,  // measure 59
0010
0000
0001
0100
,  // measure 60
0010
1000
0100
1000
,  // measure 61
0100
0000
0010
0100
,  // measure 62
0010
0001
0100
0010
,  // measure 63
1000
0000
0001
0100
,  // measure 64
0010
0100
0001
1000
,  // measure 65
1001
0000
0000
0000
;

//---------------dance-single - ----------------
#NOTES:
     dance-single:
     :
     Beginner:
     1:
     0.137,0.162,0.068,0.000,0.000: // measure 1
1000
0000
1000
0000
,  // measure 2
0001
0000
0001
0000
,  // measure 3
0100
0000
0010
0000
,  // measure 4
0110
0000
0000
0000
,  // measure 5
1000
0000
0100
0000
,  // measure 6
1000
0000
0001
0000
,  // measure 7
0100
0000
0001
0000
,  // measure 8
0010
0000
0001
0000
,  // measure 9
0100
0000
0010
0000
,  // measure 10
0100
0000
0001
0000
,  // measure 11
1000
0000
0100
0000
,  // measure 12
0010
0000
0000
0000
,  // measure 13
0110
0000
0010
0000
,  // measure 14
0001
0000
0100
0000
,  // measure 15
0010
0000
1000
0000
,  // measure 16
0100
0000
1000
0000
,  // measure 17
0100
0000
0010
0000
,  // measure 18
0001
0000
0010
0000
,  // measure 19
0100
0000
1000
0000
,  // measure 20
0010
0000
0100
0000
,  // measure 21
0110
0000
0000
0000
,  // measure 22
0010
0000
1000
0000
,  // measure 23
0100
0000
0000
0000
,  // measure 24
0010
0000
0001
0000
,  // measure 25
1000
0000
0000
0000
,  // measure 26
0001
0000
0100
0000
,  // measure 27
0001
0000
1000
0000
,  // measure 28
0100
0000
0010
0000
,  // measure 29
0110
0000
0000
0000
,  // measure 30
0000
0000
0000
0000
,  // measure 31
1000
0000
0000
0000
,  // measure 32
1001
0000
0000
0000
,  // measure 33
0001
0000
0100
0000
,  // measure 34
0001
0000
1000
0000
,  // measure 35
0100
0000
0000
0000
,  // measure 36
0010
0000
0000
0000
,  // measure 37
0001
0000
0010
0000
,  // measure 38
0100
0000
1000
0000
,  // measure 39
0010
0000
0000
0000
,  // measure 40
0100
0000
0000
0000
,  // measure 41
0001
0000
0100
0000
,  // measure 42
0001
0000
1000
0000
,  // measure 43
0010
0000
0000
0000
,  // measure 44
1000
0000
0000
0000
,  // measure 45
0100
0000
0010
0000
,  // measure 46
0001
0000
0010
0000
,  // measure 47
0100
0000
0000
0000
,  // measure 48
1000
0000
0000
0000
,  // measure 49
1001
0000
0001
0000
,  // measure 50
0100
0000
0000
0000
,  // measure 51
0010
0000
1000
0000
,  // measure 52
0100
0000
1000
0000
,  // measure 53
0001
0000
0010
0000
,  // measure 54
0100
0000
0000
0000
,  // measure 55
0010
0000
0001
0000
,  // measure 56
1000
0000
0001
0000
,  // measure 57
1001
0000
0000
0000
,  // measure 58
1000
0000
0010
0000
,  // measure 59
0100
0000
0000
0000
,  // measure 60
0001
0000
0010
0000
,  // measure 61
0001
0000
0000
0000
,  // measure 62
1000
0000
0001
0000
,  // measure 63
1000
0000
0100
0000
,  // measure 64
0010
0000
0001
0000
,  // measure 65
1001
0000
0000
0000
;
