#TITLE:2002;
#SUBTITLE:;
#ARTIST:tiger YAMATO;
#TITLETRANSLIT:;
#SUBTITLETRANSLIT:;
#ARTISTTRANSLIT:;
#CREDIT:;
#BANNER:;
#BACKGROUND:;
#LYRICSPATH:;
#CDTITLE:;
#MUSIC:2002.mp3;
#OFFSET:-7.270;
#SAMPLESTART:28.980;
#SAMPLELENGTH:14.490;
#SELECTABLE:YES;
#BPMS:0.000=132.500;
#STOPS:;
#BGCHANGES:;

//---------------dance-single - ----------------
#NOTES:
     dance-single:
     :
     Hard:
     8:
     0.459,0.527,0.309,0.359,0.230:
2000
0000
3020
0000
,
0230
0000
2300
0000
,
3100
0010
0100
0001
1000
0100
0010
0001
,
1000
0100
1000
0001
0010
0001
0011
0000
,
1001
0000
0000
1000
0000
0000
1000
0000
0000
0010
0000
0000
0100
0000
0010
0000
,
0100
0000
0000
0001
0000
0000
0100
0000
0001
0000
0000
1000
0000
0000
0100
0000
,
0010
0000
0000
0010
0000
0000
0010
0000
0000
0001
0000
0000
1000
0000
0001
0000
,
0100
0000
0000
0010
0000
0000
1000
0000
0001
0000
0000
1000
0000
0000
0100
0000
,
0110
0000
0000
0010
0000
0000
0001
0000
0000
1000
0000
0000
0010
0000
0100
0000
,
0001
0000
0000
1000
0000
0000
0001
0000
1000
0000
0000
0100
0000
0000
1000
0000
,
0100
0000
0000
0100
0000
0000
0100
0000
0000
0010
0000
0000
0001
0000
1000
0000
,
1010
0101
0011
1100
,
0010
0000
0001
0000
1000
0000
0001
0000
0100
0000
0000
0010
0000
0000
0200
0000
,
0000
1000
1000
1000
0000
0010
0010
0310
,
0100
0000
0001
0000
1000
0000
0100
0000
0010
0000
0000
0100
0000
0000
0010
0000
,
0002
0000
1000
0000
1000
0000
0000
0000
0100
0000
0000
0100
0000
0000
0103
0000
,
0001
0000
1000
0000
0100
0000
0010
0000
0100
0000
1000
0001
0000
1000
0001
0000
,
2000
0010
0010
0010
0000
0001
0001
3001
,
1000
0000
0010
0000
0100
0000
0001
0000
0100
0000
0001
0100
0000
0100
0001
0000
,
2000
0000
0010
0000
3010
0000
0000
0000
0101
0000
0000
1001
0000
0000
1100
0000
,
1100
0000
0000
0000
0010
0000
0000
0000
0001
0000
0000
0000
0100
0000
0000
0001
,
0010
0001
0100
0000
0001
0000
1000
0100
,
0001
0000
0001
0100
1000
0000
0001
1000
,
0001
0000
0110
0000
0010
1000
0001
0000
,
1001
0100
0010
0001
0100
0010
0000
0110
,
0000
0000
0010
0000
0000
0000
1000
0001
0000
0000
1000
0000
0100
0000
0010
0000
,
0001
0000
0001
0000
1000
0000
0000
0000
0100
0000
0000
0010
0000
0000
0100
0000
,
0010
0000
0100
0000
1000
0000
0000
0000
0001
0000
0000
1000
0000
0000
0101
0000
,
1001
0000
0000
1000
0100
0000
0000
0000
0010
0000
0000
0001
0010
0000
0001
0000
,
0000
0000
2020
0000
0000
0000
3030
0000
1000
0000
0000
0100
0000
0000
0110
0000
,
1001
0000
0000
1000
0010
0000
0000
0000
0100
0000
0000
0001
1000
0000
0002
0000
,
0000
0000
0010
0000
1000
0000
0103
0001
,
1001
0000
0000
1000
0001
0000
0000
0000
0100
0000
0000
0010
1000
0000
0001
0000
,
0000
0000
0022
0000
0000
0000
0033
0000
0001
0000
0000
1000
0000
0000
1001
0000
,
0202
0000
0000
0000
,
0303
0000
0000
0000
,
0001
0000
0000
0100
0000
0000
1000
0000
0000
0100
0000
0000
0001
0000
1000
0000
,
0001
0000
0000
1000
0000
0000
0100
0000
0010
0000
0000
0001
0000
0000
1000
0000
,
0010
0000
0000
0100
0000
0000
0001
0000
0000
1000
0000
0000
0001
0000
0010
0000
,
0001
0000
0000
1000
0000
0000
0100
0000
0010
0000
0000
0100
0000
0000
0010
0000
,
0011
0000
0000
0001
0000
0000
1000
0000
0000
0010
0000
0000
0001
0000
0010
0000
,
1000
0000
0000
0010
0000
0000
1000
0000
0001
0000
0000
0100
0000
0000
0001
0000
,
1000
0000
0000
0100
0000
0000
0010
0000
0000
0001
0000
0000
1000
0000
0100
0000
,
0110
0011
0101
1010
,
1002
0000
0023
0000
,
0230
0000
0320
0000
,
0032
0000
0203
0000
,
2300
0000
3200
0000
,
0301
0000
0000
0100
0001
0000
1000
0000
0100
0000
0000
0010
0001
0000
0010
0000
,
0001
0000
0000
1000
0001
0000
1000
0000
0010
0000
0000
0100
0010
0000
0100
0000
,
0101
0000
0000
0001
1000
0000
0000
0000
1100
0000
0000
1000
0001
0000
0000
0000
,
1001
0000
0000
0000
0110
0000
0000
0000
1001
0000
0000
1001
0000
0000
1001
0000
,
1002
0000
0203
0000
,
2300
0000
3020
0000
,
0032
0000
0203
0000
,
0302
0000
2003
0000
,
3200
0000
0302
0000
,
0023
0000
2030
0000
,
3020
0230
0302
2003
,
3200
0320
0230
2000
,
3300
0000
0000
0000
;

//---------------dance-single - ----------------
#NOTES:
     dance-single:
     :
     Medium:
     6:
     0.389,0.426,0.050,0.426,0.142:
2000
0000
3200
0000
,
0320
0000
0032
0000
,
2003
3020
0230
0302
,
1003
0100
1000
0000
0001
0100
0001
0000
,
1000
0000
0000
0100
0000
0000
1000
0000
0000
0100
0000
0000
1000
0000
0100
0000
,
0010
0000
0000
0100
0000
0000
0010
0000
0100
0000
0000
0010
0000
0000
0001
0000
,
0010
0000
0000
0001
0000
0000
0010
0000
0000
0001
0000
0000
0010
0000
0001
0000
,
1000
0000
0000
0001
0000
0000
1000
0000
0001
0000
0000
1000
0000
0000
0001
0000
,
0100
0000
0000
0010
0000
0000
1000
0000
0000
0001
0000
0000
0100
0000
0010
0000
,
1000
0000
0000
0100
0000
0000
0010
0000
0001
0000
0000
1000
0000
0000
0100
0000
,
0010
0000
0000
0100
0000
0000
0010
0000
0000
0001
0000
0000
1000
0000
0001
0000
,
1000
0101
0011
1100
,
0010
0000
0001
0000
0010
0000
0001
0000
1000
0000
0000
0001
0000
0000
0100
0000
,
0010
1000
0100
0010
,
0100
0000
0010
0000
0001
0000
1000
0000
0001
0000
0000
1000
0000
0000
0010
0000
,
0200
0000
0001
0000
0001
0000
0000
0000
0010
0000
0000
0010
0000
0000
0020
0000
,
0330
0000
0010
0000
1000
0000
0100
0000
0010
0000
0000
0001
0000
0000
0010
0000
,
0000
0001
1000
0001
0000
1000
0100
1000
,
0000
0000
0001
0000
0100
0000
0010
0000
1000
0000
0000
0001
0000
0000
0100
0000
,
0010
0000
0000
0000
1000
0000
0000
0000
0001
0000
0000
1000
0000
0000
0001
0000
,
1000
0000
0100
0000
0001
0000
0010
0100
,
0000
0100
0010
0000
1000
0000
0100
0010
,
0100
0000
0010
0001
0000
0001
1000
0010
,
0000
1000
0010
0000
0100
0001
0000
0100
,
0001
0100
0001
1000
0001
1000
0000
0001
,
0000
0000
1000
0000
0001
0000
0000
0100
0000
0000
0001
0000
0000
0000
1000
0000
,
2002
0000
0000
0000
,
3003
0000
0000
0000
0000
0000
0000
0000
1000
0000
0000
0001
0000
0000
1000
0000
,
0001
0000
0100
0000
0010
0000
1000
0001
,
0000
0001
1000
0000
0100
0000
0010
0001
,
0010
0000
0001
0000
1000
0000
0010
0100
,
0000
0010
0100
0000
0001
0000
1000
0001
,
0100
0000
0010
0000
1000
0000
0100
0010
,
0000
0100
0010
0000
0001
0000
1000
0001
,
2000
0000
0000
0000
,
3001
0010
0100
0110
,
1000
0000
0000
0001
0000
0000
1000
0000
0000
0001
0000
0000
1000
0000
0001
0000
,
0100
0000
0000
0010
0000
0000
0100
0000
0010
0000
0000
0100
0000
0000
0010
0000
,
1000
0000
0000
0100
0000
0000
1000
0000
0000
0100
0000
0000
0010
0000
0001
0000
,
0010
0000
0000
0001
0000
0000
0010
0000
0001
0000
0000
1000
0000
0000
0001
0000
,
0100
0000
0000
0010
0000
0000
1000
0000
0000
0001
0000
0000
0100
0000
0010
0000
,
1000
0000
0000
0100
0000
0000
0010
0000
0001
0000
0000
1000
0000
0000
0100
0000
,
0020
0001
0100
0001
,
0230
0010
1000
0310
,
2001
0000
3020
0000
,
0230
0000
0302
0000
,
0023
0000
0230
0000
,
2300
0000
3002
0000
,
1003
0000
0100
0000
0010
0001
0010
0000
,
0001
0000
0100
0000
0010
1000
0010
0000
,
2000
3020
0230
0302
,
0023
0230
0320
0032
,
2003
0000
3020
0000
,
0230
0000
0302
0000
,
0023
0000
0230
0000
,
0320
0000
0032
0000
,
2003
0000
3020
0000
,
0230
0000
0302
0000
,
2003
3200
0320
0032
,
0203
0320
0230
0302
,
0003
0000
0000
0000
;

//---------------dance-single - ----------------
#NOTES:
     dance-single:
     :
     Easy:
     5:
     0.263,0.350,0.134,0.008,0.063:
1000
0000
0001
0000
,
1000
0000
0010
0000
,
0100
0010
0100
0001
,
1000
0001
0100
0010
,
0100
0000
0000
0100
0000
0000
0100
0000
0000
0000
0000
0000
0010
0000
0000
0000
,
1000
0000
0000
1000
0000
0000
1000
0000
0000
0000
0000
0000
0001
0000
0000
0000
,
0010
0000
0000
0010
0000
0000
0010
0000
0000
0000
0000
0000
0001
0000
0000
0000
,
0100
0000
0000
0100
0000
0000
0100
0000
0000
0000
0000
0000
0010
0000
0000
0000
,
1000
0000
0000
0001
0000
0000
1000
0000
0000
0000
0000
0000
0001
0000
0000
0000
,
0100
0000
0000
0010
0000
0000
0100
0000
0000
0000
0000
0000
0001
0000
0000
0000
,
0010
0000
0000
0001
0000
0000
0010
0000
0000
0000
0000
0000
0100
0000
0000
0000
,
1000
0000
0000
0100
0000
0000
1000
0000
0100
0000
0000
0000
0010
0000
0000
0000
,
0001
0100
0010
0100
,
0001
1000
0100
0010
,
0001
1000
0010
0100
,
0110
0010
1000
0001
,
1001
1000
0100
0010
,
0001
0100
0010
0100
,
0001
0010
0100
1000
,
0100
0001
0100
1000
,
1001
0000
0011
0000
,
0001
1000
0010
0100
,
0101
0000
1001
0000
,
1000
0100
0010
0001
,
0100
0010
0100
0001
,
1000
0100
0010
0001
,
1001
0000
0101
0000
,
1000
0010
1000
0010
,
0110
0000
0000
0000
,
0010
1000
0001
1000
,
0100
0000
0010
0000
,
0100
0000
0010
0001
,
1001
0000
1000
0000
,
0010
0100
0001
0010
,
0012
0000
0000
0000
,
1000
1000
1000
1003
,
0001
0000
0000
0001
0000
0000
0001
0000
0000
0000
0000
0000
1000
0000
0000
0000
,
0010
0000
0000
0010
0000
0000
0010
0000
0000
0000
0000
0000
1000
0000
0000
0000
,
0100
0000
0000
0100
0000
0000
0100
0000
0000
0000
0000
0000
0010
0000
0000
0000
,
0001
0000
0000
0001
0000
0000
0001
0000
0000
0000
0000
0000
0100
0000
0000
0000
,
0010
0000
0000
1000
0000
0000
0010
0000
1000
0000
0000
0000
0001
0000
0000
0000
,
0010
0000
0000
0001
0000
0000
0010
0000
0001
0000
0000
0000
1000
0000
0000
0000
,
0100
0000
0000
0010
0000
0000
0100
0000
0010
0000
0000
0000
0001
0000
0000
0000
,
1010
0101
0011
1100
,
0001
0000
0010
0000
,
0001
0000
0100
0000
,
0010
0000
0100
0000
,
0001
0000
1000
0000
,
0001
0100
1000
0100
,
0001
1000
0100
0001
,
0100
0010
0001
0100
,
0010
1000
0001
0100
,
0110
0000
1000
0000
,
0100
0000
0010
0000
,
0001
0000
1000
0000
,
0010
0000
1000
0000
,
0001
0000
0010
0000
,
0100
0000
1000
0000
,
0001
1000
0001
0100
,
0010
0100
0001
1000
;

//---------------dance-single - ----------------
#NOTES:
     dance-single:
     :
     Beginner:
     1:
     0.128,0.149,0.059,0.000,0.000: // measure 1
1000
0000
0100
0000
,  // measure 2
0010
0000
0001
0000
,  // measure 3
0100
0000
0010
0000
,  // measure 4
1000
0000
0001
0000
,  // measure 5
1001
0000
0000
0000
,  // measure 6
1000
0000
0001
0000
,  // measure 7
0100
0000
0000
0000
,  // measure 8
0010
0000
0100
0000
,  // measure 9
0001
0000
0000
0000
,  // measure 10
0010
0000
0001
0000
,  // measure 11
1000
0000
0000
0000
,  // measure 12
0100
0000
0010
0000
,  // measure 13
0110
0000
0000
0000
,  // measure 14
0010
0000
0001
0000
,  // measure 15
1000
0000
0000
0000
,  // measure 16
0001
0000
0100
0000
,  // measure 17
0110
0000
0000
0000
,  // measure 18
0010
0000
1000
0000
,  // measure 19
0001
0000
0000
0000
,  // measure 20
1000
0000
0100
0000
,  // measure 21
0110
0000
0000
0000
,  // measure 22
0001
0000
0000
0000
,  // measure 23
0100
0000
0000
0000
,  // measure 24
1000
0000
0000
0000
,  // measure 25
0010
0000
0000
0000
,  // measure 26
0001
0000
0000
0000
,  // measure 27
1000
0000
0000
0000
,  // measure 28
0001
0000
0000
0000
,  // measure 29
0110
0000
0010
0000
,  // measure 30
0100
0000
0010
0000
,  // measure 31
0001
0000
0000
0000
,  // measure 32
1000
0000
0000
0000
,  // measure 33
0010
0000
1000
0000
,  // measure 34
0001
0000
0100
0000
,  // measure 35
0110
0000
0000
0000
,  // measure 36
1000
0000
0000
0000
,  // measure 37
0001
0000
1000
0000
,  // measure 38
0100
0000
0010
0000
,  // measure 39
0001
0000
1000
0000
,  // measure 40
0010
0000
0100
0000
,  // measure 41
0001
0000
0010
0000
,  // measure 42
0100
0000
0010
0000
,  // measure 43
0001
0000
1000
0000
,  // measure 44
0010
0000
0100
0000
,  // measure 45
0110
0000
0100
0000
,  // measure 46
0001
0000
0001
0000
,  // measure 47
1000
0000
1000
0000
,  // measure 48
0100
0000
0100
0000
,  // measure 49
0010
0000
0001
0000
,  // measure 50
1000
0000
0100
0000
,  // measure 51
0010
0000
0001
0000
,  // measure 52
0100
0000
0010
0000
,  // measure 53
1000
0000
1000
0000
,  // measure 54
1000
0000
1000
0000
,  // measure 55
0001
0000
0001
0000
,  // measure 56
0001
0000
0001
0000
,  // measure 57
0100
0000
0100
0000
,  // measure 58
0100
0000
0100
0000
,  // measure 59
0010
0000
0010
0000
,  // measure 60
0100
0000
0001
0000
;
