#TITLE:Stay;
#SUBTITLE:;
#ARTIST:Tooji;
#TITLETRANSLIT:;
#SUBTITLETRANSLIT:;
#ARTISTTRANSLIT:;
#GENRE:;
#CREDIT:;
#BANNER:Stay.png;
#BACKGROUND:Stay-bg.png;
#LYRICSPATH:;
#CDTITLE:;
#MUSIC:Stay.mp3;
#OFFSET:-7.570000;
#SAMPLESTART:37.790001;
#SAMPLELENGTH:15.110000;
#SELECTABLE:YES;
#BPMS:0.000000=126.999992
;
#STOPS:143.000000=1.890000
;
#BGCHANGES:;
#KEYSOUNDS:;
#ATTACKS:;

//---------------dance-single - Oni-91----------------
#NOTES:
     dance-single:
     :
     Hard:
     7:
     0.425429,0.470534,0.304680,0.314509,0.147426,303.000000,272.000000,31.000000,32.000000,0.000000,0.000000,0.425429,0.470534,0.304680,0.314509,0.147426,303.000000,272.000000,31.000000,32.000000,0.000000,0.000000:
// measure 0
1000
0000
1000
0000
1000
0000
1000
0001
,  // measure 1
0010
0000
0000
0100
0000
0000
0010
0000
0001
0000
0000
0000
1001
0000
0000
0000
,  // measure 2
0001
0000
0001
0000
0001
0000
0001
1000
,  // measure 3
0010
0000
0000
0100
0000
0000
0010
0000
1000
0000
0000
0000
1001
0000
0000
0000
,  // measure 4
0001
0000
0000
0010
0001
0000
0100
0000
0101
0000
0000
0000
1001
0000
0000
0000
,  // measure 5
1000
0010
0000
0010
1000
0000
0100
0000
1100
0000
0000
0000
1001
0000
0000
0000
,  // measure 6
0001
0010
1000
0000
0001
0100
1000
0001
,  // measure 7
1002
0000
0000
1000
0000
0000
1000
0000
2000
0000
0000
0000
3003
0000
0000
0000
,  // measure 8
0001
0100
1000
0100
0001
1000
0001
0000
,  // measure 9
1000
0100
0001
0100
1000
0001
1000
0001
,  // measure 10
0020
0000
2030
0000
3200
0000
1300
0010
,  // measure 11
0001
0000
0101
0000
0100
0001
0100
1000
,  // measure 12
0100
0001
0010
0100
1000
0001
0100
0000
,  // measure 13
0001
0010
0001
1000
0100
0010
0001
1000
,  // measure 14
0020
0000
0032
0000
0023
0000
0130
0002
,  // measure 15
2000
0000
0000
3003
,  // measure 16
1001
0000
0001
0100
0001
1000
0100
0010
,  // measure 17
0100
0000
0000
0010
0000
0000
0001
0000
1000
0000
0000
0000
1001
0000
0000
0000
,  // measure 18
0101
0000
0001
0100
0001
1000
0100
0010
,  // measure 19
0001
0000
0000
1000
0000
0000
0001
0000
1000
0000
0000
0000
0110
0000
0000
0000
,  // measure 20
1001
0000
1000
0100
0001
0100
1000
0001
,  // measure 21
0100
0000
0000
0010
0000
0000
0100
0000
0001
0000
0000
0000
1001
0000
0000
0000
,  // measure 22
1000
0100
0010
0100
2000
0000
3010
0000
,  // measure 23
0001
0000
0010
0000
0100
0000
1000
0000
0100
0000
0000
0010
0000
0000
0100
0000
,  // measure 24
1001
0000
0001
0100
0000
0100
0002
0000
,  // measure 25
1003
0000
0000
0000
0001
0000
1000
0000
0100
0000
0010
0100
0000
0010
0100
0000
,  // measure 26
1001
0000
0001
0100
0000
0010
2000
0000
,  // measure 27
3100
0000
0000
0000
0010
0000
0001
0000
0100
0000
0001
0100
0000
0010
1000
0000
,  // measure 28
1002
0000
0000
0100
0000
1003
0200
0000
,  // measure 29
0320
0000
0000
0001
0000
0031
1000
0001
,  // measure 30
2002
0000
0000
0000
3003
0000
0001
0000
0100
0000
0001
0100
0000
0001
0100
0000
,  // measure 31
0220
0000
0000
0000
0330
0000
0010
0000
0100
0000
0010
0100
0000
0010
0100
0000
,  // measure 32
0010
1000
0100
0000
0010
0001
0100
0000
,  // measure 33
2001
0000
0000
0010
0000
3001
0100
0010
,  // measure 34
2002
0000
0000
0000
3003
0000
0001
0000
1000
0000
0001
1000
0000
0001
1000
0000
,  // measure 35
1001
0000
0000
1001
0000
0000
0110
0000
0000
0110
0000
0000
1001
0000
0000
0000
,  // measure 36
1002
0000
0000
0010
0000
0000
0100
0000
,  // measure 37
0000
0010
0000
0000
1000
0000
1000
0000
,  // measure 38
2003
0000
0000
0010
0000
0000
0001
0000
,  // measure 39
0010
0000
0000
0010
0000
0000
0010
0000
0000
0010
0000
0000
3010
0000
0000
0000
,  // measure 40
1001
0000
0001
0100
1000
0100
0001
1000
,  // measure 41
0100
0000
0000
0010
0000
0000
0001
0000
1000
0000
0000
0000
1001
0000
0000
0000
,  // measure 42
0001
0100
1000
0100
0002
0000
0013
0000
,  // measure 43
0001
0000
0000
0000
0010
0000
0001
0000
0100
0000
0000
0010
0000
0000
0100
0000
,  // measure 44
2001
0000
0000
0001
0000
3001
0200
0000
,  // measure 45
0320
0000
0000
0000
0030
0000
1000
0000
0010
0000
1000
0010
0000
1000
0010
0000
,  // measure 46
0102
0000
0000
1000
0000
1003
0200
0000
,  // measure 47
0320
0000
0000
0000
0030
0000
0001
0000
1000
0000
0001
1000
0000
0001
1000
0000
;

//---------------dance-single - Oni-91----------------
#NOTES:
     dance-single:
     :
     Medium:
     4:
     0.294852,0.305847,0.186740,0.285023,0.009828,210.000000,191.000000,19.000000,29.000000,0.000000,0.000000,0.294852,0.305847,0.186740,0.285023,0.009828,210.000000,191.000000,19.000000,29.000000,0.000000,0.000000:
// measure 0
1000
0000
1000
0000
1000
0000
1000
0001
,  // measure 1
1000
0001
1000
0100
,  // measure 2
0010
0000
0010
0000
0010
0000
0010
0100
,  // measure 3
0010
0100
0010
0001
,  // measure 4
1000
0001
2002
3003
,  // measure 5
0001
1000
2002
3003
,  // measure 6
1000
0000
0010
0000
0100
0000
0001
2000
,  // measure 7
0002
0000
3003
0000
,  // measure 8
1000
0000
0100
0000
1000
0100
1000
0000
,  // measure 9
0001
0000
0010
0000
0001
0010
0001
0000
,  // measure 10
1000
0100
0001
0100
,  // measure 11
0220
0000
0330
0000
,  // measure 12
0010
0000
0001
0000
0010
0001
0010
0000
,  // measure 13
0001
0000
0100
0000
0001
0100
0001
0000
,  // measure 14
1000
0010
0100
0001
,  // measure 15
2002
0000
0000
3003
,  // measure 16
1001
0000
0001
0100
0001
0000
0100
0000
,  // measure 17
0010
0100
0010
0000
1000
0000
0001
0000
,  // measure 18
1000
0000
0100
1000
0100
0000
0010
0000
,  // measure 19
0001
0010
0001
0000
1000
0000
0001
0000
,  // measure 20
0100
0000
0010
0100
0001
0000
0100
0000
,  // measure 21
0010
1000
0100
0000
1000
0000
0001
0000
,  // measure 22
1000
0000
0001
0010
0100
0000
0010
0000
,  // measure 23
0001
0000
1000
0010
0100
0000
0110
0000
,  // measure 24
1002
0000
0000
1000
0000
1000
2003
0000
,  // measure 25
0100
0000
0000
0100
0100
0000
3010
0000
,  // measure 26
0120
0000
0000
0100
0000
0100
0230
0000
,  // measure 27
0001
0000
0000
0001
0001
0000
0310
0000
,  // measure 28
1002
0000
0000
1000
0000
0000
0100
0000
,  // measure 29
0100
0000
0000
0100
0000
0000
0013
0000
,  // measure 30
2002
3003
0001
1000
,  // measure 31
0220
0330
0010
1000
,  // measure 32
0002
0010
1000
0100
,  // measure 33
2003
0000
0000
0010
0000
0000
3001
0000
,  // measure 34
2002
3003
0010
0100
,  // measure 35
0010
0000
0000
0010
0000
0000
0010
0000
0000
0010
0000
0000
0010
0000
0000
0000
,  // measure 36
2001
0000
0000
0001
0000
0000
0001
0000
,  // measure 37
0000
0001
0000
0000
0001
0000
3001
0000
,  // measure 38
1002
0000
0000
1000
0000
0000
1003
0000
,  // measure 39
0220
0000
0000
0330
,  // measure 40
1001
0000
1000
0100
0001
0000
0100
0000
,  // measure 41
1000
0000
0001
0100
0001
0000
0100
0000
,  // measure 42
0001
0000
1000
0010
0001
0000
0010
0000
,  // measure 43
1000
0000
0001
1000
0001
0000
1000
0000
,  // measure 44
1001
0000
0001
0010
0000
0010
0001
0000
,  // measure 45
1000
0000
0000
0001
0100
0000
0010
0000
,  // measure 46
0110
0000
0100
0001
0000
0001
0100
0000
,  // measure 47
0010
0000
0000
0010
1000
0000
2002
3003
;

//---------------dance-single - Oni-91----------------
#NOTES:
     dance-single:
     :
     Easy:
     2:
     0.154446,0.188214,0.117941,0.216225,0.000000,110.000000,98.000000,12.000000,22.000000,0.000000,0.000000,0.154446,0.188214,0.117941,0.216225,0.000000,110.000000,98.000000,12.000000,22.000000,0.000000,0.000000:
// measure 0
1000
0000
0001
0000
,  // measure 1
1000
1000
1000
0000
,  // measure 2
0001
0000
1000
0000
,  // measure 3
0001
0001
0001
0000
,  // measure 4
1000
0000
0100
0000
,  // measure 5
0001
0000
0100
0000
,  // measure 6
0010
0000
0001
0000
,  // measure 7
1000
0000
0000
0000
,  // measure 8
1001
0000
0001
1000
,  // measure 9
0001
0000
1000
0001
,  // measure 10
1000
0000
0010
0000
,  // measure 11
0220
0000
0330
0000
,  // measure 12
0010
0000
1000
0010
,  // measure 13
1000
0000
0001
0100
,  // measure 14
0001
0000
1000
0000
,  // measure 15
2002
0000
3003
0000
,  // measure 16
1001
0000
0001
0000
,  // measure 17
1000
0100
1000
0000
,  // measure 18
0001
0000
1000
0000
,  // measure 19
0001
0010
0001
0010
,  // measure 20
0100
0000
0010
0000
,  // measure 21
0001
1000
0001
0000
,  // measure 22
1000
0000
0010
0000
,  // measure 23
0100
0000
0001
1000
,  // measure 24
2002
3003
0001
0100
,  // measure 25
0001
0000
1000
0010
,  // measure 26
1000
0000
0001
0010
,  // measure 27
0001
0000
1000
0100
,  // measure 28
1000
0000
0000
0000
,  // measure 29
0001
0000
0000
0000
,  // measure 30
2002
0000
0000
3003
,  // measure 31
0220
0000
0000
0330
,  // measure 32
0001
0000
0000
0000
,  // measure 33
1000
0000
0000
0000
,  // measure 34
2002
0000
0000
3003
,  // measure 35
0220
0000
0000
0330
,  // measure 36
2002
0000
0000
0000
,  // measure 37
0000
0000
3000
0000
,  // measure 38
0200
0000
0000
0003
,  // measure 39
0020
0000
0000
0330
,  // measure 40
1001
0000
0001
0000
,  // measure 41
1000
0100
1000
0000
,  // measure 42
0001
0010
0001
0000
,  // measure 43
1000
0000
0001
1000
,  // measure 44
2002
0000
3003
0000
,  // measure 45
1000
0000
0001
0100
,  // measure 46
0002
0000
0003
0000
,  // measure 47
1000
0000
0000
0000
0001
0000
2000
3000
;

//---------------dance-single - Oni-91----------------
#NOTES:
     dance-single:
     :
     Beginner:
     1:
     0.108112,0.140792,0.137598,0.000000,0.000000,77.000000,63.000000,14.000000,0.000000,0.000000,0.000000,0.108112,0.140792,0.137598,0.000000,0.000000,77.000000,63.000000,14.000000,0.000000,0.000000,0.000000:
// measure 0
1000
0000
0100
0000
,  // measure 1
1000
0000
0000
0000
,  // measure 2
0001
0000
0100
0000
,  // measure 3
0001
0000
0000
0000
,  // measure 4
1000
0000
1000
0000
,  // measure 5
0001
0000
0001
0000
,  // measure 6
1000
0000
0001
0000
,  // measure 7
1001
0000
0000
0000
,  // measure 8
0110
0000
0000
0000
,  // measure 9
1001
0000
0000
0000
,  // measure 10
0001
0000
1000
0000
,  // measure 11
0001
0000
0000
0000
,  // measure 12
1001
0000
0000
0000
,  // measure 13
0110
0000
0000
0000
,  // measure 14
1000
0000
0001
0000
,  // measure 15
1000
0000
0000
0000
,  // measure 16
0001
0000
0010
0000
,  // measure 17
0001
0000
0010
0000
,  // measure 18
0100
0000
1000
0000
,  // measure 19
0100
0000
1000
0000
,  // measure 20
0001
0000
1000
0000
,  // measure 21
0001
0000
1000
0000
,  // measure 22
0010
0000
0010
0000
,  // measure 23
0100
0000
0100
0000
,  // measure 24
1001
0000
0000
0000
,  // measure 25
0001
0000
1000
0000
,  // measure 26
0001
0000
0000
0000
,  // measure 27
1000
0000
0001
0000
,  // measure 28
1001
0000
0000
0000
,  // measure 29
0000
0000
0000
0000
,  // measure 30
0001
0000
0000
0000
,  // measure 31
1000
0000
0000
0000
,  // measure 32
0110
0000
0000
0000
,  // measure 33
0000
0000
0000
0000
,  // measure 34
0010
0000
0000
0000
,  // measure 35
0100
0000
0000
0000
,  // measure 36
1001
0000
0000
0000
,  // measure 37
0000
0000
0000
0000
,  // measure 38
0110
0000
0000
0000
,  // measure 39
0000
0000
0000
0000
,  // measure 40
1001
0000
1000
0000
,  // measure 41
0001
0000
0100
0000
,  // measure 42
0001
0000
0000
0000
,  // measure 43
1000
0000
0001
0000
,  // measure 44
1001
0000
0000
0000
,  // measure 45
0000
0000
0000
0000
,  // measure 46
0110
0000
0000
0000
,  // measure 47
0000
0000
0000
1001
;
