#TITLE:SUPER MOGU;
#SUBTITLE:;
#ARTIST:BUCHIPANDA;
#TITLETRANSLIT:;
#SUBTITLETRANSLIT:;
#ARTISTTRANSLIT:;
#GENRE:;
#CREDIT:;
#BANNER:SUPER MOGU.png;
#BACKGROUND:SUPER MOGU-bg.png;
#LYRICSPATH:;
#CDTITLE:;
#MUSIC:SUPER MOGU.mp3;
#OFFSET:-2.400000;
#SAMPLESTART:16.789999;
#SAMPLELENGTH:10.660000;
#SELECTABLE:YES;
#BPMS:0.000000=100.000000
,10.000000=90.000000
,11.000000=80.000000
,12.000000=70.000000
,13.000000=37.000000
,14.000000=180.000000
,214.000000=85.000000
,236.000000=180.000000
;
#STOPS:
;
#BGCHANGES:;
#KEYSOUNDS:;
#ATTACKS:;

//---------------dance-single - Oni-91----------------
#NOTES:
     dance-single:
     :
     Hard:
     8:
     0.527017,0.530602,0.458228,0.427161,0.077666,475.000000,416.000000,59.000000,55.000000,0.000000,0.000000,0.527017,0.530602,0.458228,0.427161,0.077666,475.000000,416.000000,59.000000,55.000000,0.000000,0.000000:
// measure 0
1000
0000
1000
0001
0000
0000
0100
0000
0000
0010
0000
0100
,  // measure 1
0002
0010
2000
3003
,  // measure 2
0001
0000
0100
1000
0000
0000
1000
0000
0100
0001
0000
0000
,  // measure 3
1000
0000
0000
0000
0000
0000
0000
0000
0000
0000
0000
0000
0000
0000
0000
0000
0000
0000
0000
0000
0000
0000
0000
0000
0000
0000
0000
0000
0100
0000
0000
0000
0000
0000
0000
0000
0000
0000
0000
0000
0000
0000
0000
0000
0000
0000
0000
0000
0000
0000
0000
0010
0000
0000
0000
0000
0000
0000
0000
0000
0000
0000
0000
0000
0000
0000
0002
0000
0000
0000
0000
0000
0000
0000
0000
0000
0000
0000
0000
0000
0000
0000
0000
0000
0000
0000
0000
0000
0000
0000
0000
0000
0000
0000
0000
0000
0103
0000
0000
0000
0000
0000
0000
0000
0000
0000
0000
0000
0000
0000
0000
0000
0000
0000
0000
0000
0000
0000
0000
0000
0000
0000
0000
0000
0000
0000
0000
0000
0000
0000
0000
0000
0000
0000
0000
0000
0000
0000
0000
0000
0000
0000
0000
0000
0110
0000
0000
0000
0000
0000
0000
0000
0000
0000
0000
0000
0000
0000
0000
0000
0000
0000
0000
0000
0000
0000
0000
0000
0000
0000
0000
0000
0000
0000
0000
0000
0000
0000
0000
0000
0000
0000
0000
0000
0000
0000
0000
0000
0000
0000
0000
0000
,  // measure 4
0010
1000
0000
1000
0001
0010
0100
0000
,  // measure 5
0010
0001
0000
0010
0001
0100
0010
0000
,  // measure 6
1000
0001
0000
1000
0100
0010
0000
0110
,  // measure 7
0000
1001
0000
0001
1001
0000
1000
0001
,  // measure 8
1000
0010
0100
0020
0000
0130
0001
0010
,  // measure 9
0100
1000
0100
0010
0001
0000
1000
0000
,  // measure 10
0001
0100
0000
0100
0001
0000
1000
0000
,  // measure 11
0100
1000
0000
1000
0100
0000
0110
0000
,  // measure 12
0010
0001
1000
0002
0000
0103
1000
0100
,  // measure 13
0001
0100
0010
1000
0001
0000
1000
0000
,  // measure 14
0001
1000
0000
1000
0100
0000
0010
0000
,  // measure 15
0100
0010
0001
1000
1001
0000
1001
0000
,  // measure 16
0210
0020
0330
0000
2002
0000
0000
0000
,  // measure 17
0000
3003
1100
1100
,  // measure 18
0012
0020
0033
0000
2002
0000
0000
0000
,  // measure 19
3003
0000
1000
0010
0100
0001
1000
0002
,  // measure 20
0000
0203
0000
0310
0100
0000
0001
0010
,  // measure 21
0110
0000
1001
0000
1000
0100
0001
0000
,  // measure 22
1000
0010
0001
0100
0010
1000
0100
0000
,  // measure 23
0010
0001
0100
0001
1000
0100
1000
0200
,  // measure 24
0000
0320
0000
0031
0100
0000
0001
0000
,  // measure 25
1001
0000
0110
0000
0010
1000
0010
0000
,  // measure 26
0100
0001
2002
0000
,  // measure 27
0000
0000
0000
3003
,  // measure 28
1000
0001
1000
0001
1000
0001
1000
0001
,  // measure 29
0100
0010
0100
0010
0100
0010
0100
0010
,  // measure 30
1000
0010
1000
0010
1000
0010
1000
0010
,  // measure 31
0100
0001
0100
0001
0100
0001
0100
0001
,  // measure 32
1000
0100
0010
0001
1000
0100
0010
0001
,  // measure 33
1000
0010
0100
0001
1000
0010
0100
0001
,  // measure 34
1000
0100
0001
0100
1000
0100
0010
0100
,  // measure 35
1000
0000
0100
0000
0010
0002
0000
0003
,  // measure 36
1000
0100
1000
0000
0001
0202
0000
0303
,  // measure 37
0001
0100
0000
0100
0010
0000
1001
0000
,  // measure 38
0010
0100
0001
0100
0001
2002
0000
3003
,  // measure 39
2020
0000
0030
0002
0000
0003
3001
0000
,  // measure 40
0010
0100
0010
0100
0010
0000
0100
0000
,  // measure 41
1001
1002
0000
0000
,  // measure 42
0000
1000
1003
0000
1001
0000
1000
0000
,  // measure 43
0100
0010
0100
0020
0000
0031
0100
0010
,  // measure 44
1000
0001
0010
0100
0010
0000
0001
0000
,  // measure 45
1000
0001
0000
1000
0001
0000
0100
0000
,  // measure 46
0010
1000
0000
0010
1000
0000
1001
0000
,  // measure 47
0001
0010
0100
2000
0000
3001
0100
0010
,  // measure 48
1000
0100
0010
0001
0100
0000
0110
0000
,  // measure 49
0010
1000
0000
1000
0001
0010
0000
0110
,  // measure 50
0000
0100
1000
0000
1001
0000
1001
0000
,  // measure 51
1002
2000
3003
0000
1000
0100
1000
0100
,  // measure 52
0010
0001
0010
0001
1001
0000
1001
0000
,  // measure 53
0110
0220
0000
0000
0330
0000
0000
0000
,  // measure 54
0010
0000
0000
0010
0000
1000
0100
0000
0000
0100
0000
0010
,  // measure 55
0001
0000
0000
1000
0000
0001
1000
0000
0000
0010
0000
0100
,  // measure 56
0010
0000
0010
1000
0000
1000
0100
0000
0100
0010
0000
0010
,  // measure 57
0200
0010
2000
3300
,  // measure 58
1000
0000
0000
0001
0000
0100
0001
0000
0001
1000
0000
0100
,  // measure 59
1100
0000
1100
0000
1001
2002
0000
3003
,  // measure 60
1000
0001
1000
0001
0100
0010
0100
0000
,  // measure 61
0110
0000
0110
0000
1001
2002
0000
3003
,  // measure 62
1000
0000
0010
0100
0000
0100
0101
0000
,  // measure 63
2002
0000
3003
0101
0000
0011
0000
0001
,  // measure 64
0010
0001
1000
0001
1000
0000
1001
0000
,  // measure 65
0220
0000
0330
1010
0000
1100
0000
1000
,  // measure 66
0100
0010
0001
0100
0010
0000
0110
0000
,  // measure 67
2002
0000
3003
1001
0000
0110
0000
0010
,  // measure 68
1000
0001
0100
0001
0020
0000
0030
0000
,  // measure 69
0001
0100
0001
0000
1000
0010
0000
0010
,  // measure 70
0100
0001
0010
0000
0100
0010
0000
0010
,  // measure 71
0001
1000
0001
0000
0100
0010
0000
0010
,  // measure 72
1000
0100
0010
0000
0100
1000
0100
0010
,  // measure 73
0011
0000
1100
0000
0110
0120
0000
0001
,  // measure 74
0032
0000
1000
2003
0000
0001
3002
0000
,  // measure 75
0100
0203
0000
0010
0020
0000
0000
0000
,  // measure 76
0000
0000
0000
0000
,  // measure 77
0330
0000
0000
0000
,  // measure 78
1000
0001
2000
0000
0000
0000
0000
0000
0000
0000
0000
0000
,  // measure 79
0000
0020
0000
0000
,  // measure 80
0000
0000
0030
3010
0000
0000
0000
0000
;

//---------------dance-single - ----------------
#NOTES:
     dance-single:
     :
     Medium:
     7:
     0.441585,0.499390,0.279596,0.264063,0.023300,398.000000,362.000000,36.000000,34.000000,0.000000,0.000000,0.441585,0.499390,0.279596,0.264063,0.023300,398.000000,362.000000,36.000000,34.000000,0.000000,0.000000:
// measure 0
1000
0000
1000
0001
0000
0000
1000
0000
0000
0010
0000
0000
,  // measure 1
0200
0010
0002
0303
,  // measure 2
0001
0010
1000
0010
,  // measure 3
0001
1000
0002
0000
1003
0000
0100
0000
,  // measure 4
0010
0001
0000
0001
0010
0000
0100
0000
,  // measure 5
1000
0010
0000
0010
0100
0000
0001
0000
,  // measure 6
1000
0100
0000
0010
0002
1000
0000
1000
,  // measure 7
0000
1000
0000
1003
0001
0000
0100
0000
,  // measure 8
0010
0100
0010
0000
1000
0000
0001
0000
,  // measure 9
1000
0100
0010
0001
0100
0000
0010
0000
,  // measure 10
1000
0010
0000
0010
0100
0000
0001
0000
,  // measure 11
0010
0100
0000
0100
1000
0000
0001
0000
,  // measure 12
0100
0001
0100
0000
0001
0000
1000
0000
,  // measure 13
0001
0100
0001
0100
0010
0000
1000
0000
,  // measure 14
0100
1000
0000
0001
0010
0000
0001
0000
,  // measure 15
1000
0010
1000
0000
1001
0000
1001
0000
,  // measure 16
0001
1000
0000
0000
0220
0000
0000
0000
,  // measure 17
0000
0330
0110
0110
,  // measure 18
0100
0010
0000
0000
2002
0000
0000
0000
,  // measure 19
3003
0000
1000
0100
1000
0000
0001
0100
,  // measure 20
0000
0101
0000
0001
1000
0000
0010
0000
,  // measure 21
0110
0000
1001
0000
1000
0100
0010
0000
,  // measure 22
0100
1000
0001
0000
1000
0010
1000
0000
,  // measure 23
0001
0100
0001
0000
1010
0000
0001
1000
,  // measure 24
0000
1001
0000
0001
0010
0000
0100
0000
,  // measure 25
1001
0000
0110
0000
0010
1000
0100
0000
,  // measure 26
0010
0001
0100
0000
0220
0000
0000
0000
,  // measure 27
0000
0000
0000
0330
,  // measure 28
0010
1000
0010
0000
0100
0001
0100
0000
,  // measure 29
0010
0001
0010
0001
1000
0100
1000
0000
,  // measure 30
0001
0100
0010
0000
0100
0010
1000
0000
,  // measure 31
0001
1000
0001
1000
0100
0010
0100
0000
,  // measure 32
0010
0001
1000
0000
0010
1000
0001
0000
,  // measure 33
0100
0001
0100
0010
1000
0010
0100
0000
,  // measure 34
0010
1000
0010
1000
0001
0100
0001
0000
,  // measure 35
1002
0000
1000
0000
1000
2000
0000
3003
,  // measure 36
0001
0000
0100
0000
0010
0220
0000
0330
,  // measure 37
0010
1000
0000
1000
0001
0000
1000
0000
,  // measure 38
0001
0010
0001
0000
1000
0100
0000
0000
,  // measure 39
0011
0000
0000
1100
0000
0000
1001
0000
,  // measure 40
0100
0010
0100
0010
0100
0000
0010
0000
,  // measure 41
1001
1002
0000
0000
,  // measure 42
0000
1000
1003
0000
1000
0000
0100
0000
,  // measure 43
0001
0000
0100
1000
0000
1000
0001
0000
,  // measure 44
1000
0010
0100
0001
0100
0000
0001
0000
,  // measure 45
0010
1000
0000
1000
0010
0000
0001
0000
,  // measure 46
0100
1000
0000
1000
0100
0000
0010
0100
,  // measure 47
0010
0000
0100
0001
0000
0001
1000
0000
,  // measure 48
0001
1000
0100
1000
0001
0000
1000
0000
,  // measure 49
0100
0010
0000
0010
0001
2000
0000
0002
,  // measure 50
0000
3003
1001
1001
,  // measure 51
1000
0001
0000
0000
0001
0000
0100
0000
,  // measure 52
0010
1000
0110
0110
,  // measure 53
0200
0020
0000
0000
0330
0000
0000
0000
,  // measure 54
0001
0001
1000
1000
,  // measure 55
0001
0000
0000
0010
0000
0001
0100
0000
0000
0010
0000
1000
,  // measure 56
0100
0001
0010
0001
,  // measure 57
0200
1000
0002
0303
,  // measure 58
1000
0000
0000
0001
0000
0000
1000
0000
0001
1000
0000
0000
,  // measure 59
1001
0000
1001
0000
1000
0001
0000
0000
,  // measure 60
1000
0010
1000
0000
0001
0100
0001
0000
,  // measure 61
0110
0000
0110
0000
0100
0010
0000
0000
,  // measure 62
1000
0000
0000
0100
0000
0000
0110
0000
,  // measure 63
0010
0000
0002
1000
0000
1000
0000
1003
,  // measure 64
0001
0100
0010
1000
,  // measure 65
0100
0000
0020
0100
0000
0100
0000
0130
,  // measure 66
0010
0001
0101
1001
,  // measure 67
1000
0100
0010
0002
0000
0010
0000
1003
,  // measure 68
0001
1001
0220
0330
,  // measure 69
0010
0000
1000
0000
0100
0010
0000
0010
,  // measure 70
0100
0000
0010
0000
0001
1000
0010
1000
,  // measure 71
0001
0000
1000
0000
0001
0010
0000
0010
,  // measure 72
0001
0000
1000
0000
0100
1000
0100
0000
,  // measure 73
1001
0000
1001
0000
1000
2000
0000
0100
,  // measure 74
3200
0000
0010
0320
0000
0001
0032
0000
,  // measure 75
1000
2003
0000
0001
0002
0000
0000
0000
,  // measure 76
0000
0000
0000
0000
,  // measure 77
3003
0000
0000
0000
,  // measure 78
1000
0001
2000
0000
0000
0000
0000
0000
0000
0000
0000
0000
,  // measure 79
0000
0002
0000
0000
,  // measure 80
0000
0000
0003
3001
0000
0000
0000
0000
;

//---------------dance-single - Oni-91----------------
#NOTES:
     dance-single:
     :
     Easy:
     5:
     0.306225,0.363475,0.248530,0.302896,0.000000,276.000000,244.000000,32.000000,39.000000,0.000000,0.000000,0.306225,0.363475,0.248530,0.302896,0.000000,276.000000,244.000000,32.000000,39.000000,0.000000,0.000000:
// measure 0
0002
0003
1000
0010
,  // measure 1
0100
0100
0200
0300
,  // measure 2
0010
1000
0100
0010
,  // measure 3
0100
2000
3001
1000
,  // measure 4
0000
0001
0000
0000
0100
0000
0010
0000
,  // measure 5
0000
0100
0000
0000
0010
0000
1000
0000
,  // measure 6
0000
0001
0000
0000
1000
0001
0000
0001
,  // measure 7
0000
0001
0000
0001
1000
0000
0100
0000
,  // measure 8
0010
0100
1000
0100
,  // measure 9
0010
0001
0200
0010
,  // measure 10
0000
0001
0000
0301
0002
0000
0010
0000
,  // measure 11
0000
1000
0000
1003
1000
0000
0010
0000
,  // measure 12
0100
0001
0010
0100
,  // measure 13
0010
0001
2000
0010
,  // measure 14
0000
0001
0000
3001
0001
0000
1000
0000
,  // measure 15
0100
0010
0001
1000
,  // measure 16
1001
0000
0220
0000
,  // measure 17
0000
0330
0010
0100
,  // measure 18
1001
0000
0220
0000
,  // measure 19
0000
0000
0330
0000
1001
0000
0000
0001
,  // measure 20
0000
1000
0100
0010
,  // measure 21
0001
1000
1001
0000
,  // measure 22
0001
0100
1000
0000
,  // measure 23
1000
0000
0100
0000
0001
0000
0000
1000
,  // measure 24
0000
1000
0000
0000
0001
0000
0010
0000
,  // measure 25
0100
0110
1001
0001
,  // measure 26
0100
0010
0220
0000
,  // measure 27
0000
0000
0000
0330
,  // measure 28
0001
0100
1000
0100
,  // measure 29
0001
0010
0100
0010
,  // measure 30
0001
1000
0100
0001
,  // measure 31
0100
0010
0001
0100
,  // measure 32
1000
0100
0001
0100
,  // measure 33
0010
0100
0001
0010
,  // measure 34
0100
1000
0100
0010
,  // measure 35
0220
0000
0000
0000
0000
0330
0000
0000
,  // measure 36
0010
0001
2002
3003
,  // measure 37
1000
0000
0001
1000
,  // measure 38
0001
0100
0110
0000
,  // measure 39
1000
0000
0000
0001
0000
0000
1001
0000
,  // measure 40
1000
0100
1000
0001
,  // measure 41
1001
2002
0000
0000
,  // measure 42
0000
3000
0003
0000
1000
0000
0100
0000
,  // measure 43
0010
0001
0100
0010
,  // measure 44
0100
0010
2000
0000
,  // measure 45
0001
0001
0002
0000
,  // measure 46
3003
0000
1000
0100
,  // measure 47
0001
0100
0010
0001
,  // measure 48
1000
0001
0200
0000
,  // measure 49
0010
0000
0001
0001
,  // measure 50
0301
0000
0001
1000
,  // measure 51
1001
0000
0220
0000
,  // measure 52
0330
0000
0010
1000
,  // measure 53
2002
0000
3003
0000
,  // measure 54
1000
0100
1000
0100
,  // measure 55
0001
0100
1000
0000
,  // measure 56
0001
0100
1000
0100
,  // measure 57
0001
0010
0100
0000
,  // measure 58
0010
0001
1000
0001
,  // measure 59
1001
1001
1001
0000
,  // measure 60
0220
0000
0330
0000
,  // measure 61
0110
0110
0110
0000
,  // measure 62
0001
0000
0000
1000
0000
0000
1001
0000
,  // measure 63
0002
0000
0000
0100
0000
0103
0000
0000
,  // measure 64
0001
0100
0010
1000
,  // measure 65
0200
0000
0000
1000
0000
1300
0000
0000
,  // measure 66
0100
0010
0001
1000
,  // measure 67
0020
0000
0000
0100
0000
0130
0000
0000
,  // measure 68
0110
1001
0220
0330
,  // measure 69
0010
1000
0010
1000
,  // measure 70
0001
0100
0001
0100
,  // measure 71
0001
0010
0100
1000
,  // measure 72
0100
0001
0100
1000
,  // measure 73
1001
0000
2001
0000
0001
3002
0000
0000
,  // measure 74
0203
0000
0000
0320
0000
0000
2030
0000
,  // measure 75
0000
3200
0000
0000
0020
0000
0000
0000
,  // measure 76
0000
0000
0000
0000
,  // measure 77
0330
0000
0000
0000
,  // measure 78
1001
0000
0000
0000
;

//---------------dance-single - Oni-91----------------
#NOTES:
     dance-single:
     :
     Beginner:
     2:
     0.154222,0.212027,0.077666,0.000000,0.000000,139.000000,129.000000,10.000000,0.000000,0.000000,0.000000,0.154222,0.212027,0.077666,0.000000,0.000000,139.000000,129.000000,10.000000,0.000000,0.000000,0.000000:
// measure 0
1000
0000
0001
0000
,  // measure 1
0100
0010
0100
0000
,  // measure 2
0001
0000
1000
0000
,  // measure 3
0100
0000
0110
0000
,  // measure 4
0000
0000
0010
0000
,  // measure 5
0000
0000
0001
0000
,  // measure 6
0000
0000
1000
0000
,  // measure 7
0001
0000
1001
0000
,  // measure 8
0000
0000
1000
0000
,  // measure 9
0010
0000
0100
0000
,  // measure 10
0000
0000
0010
0000
,  // measure 11
0000
0000
0100
0000
,  // measure 12
0001
0000
1000
0000
,  // measure 13
0100
0000
0010
0000
,  // measure 14
0000
0000
0001
0000
,  // measure 15
0000
0000
1000
1000
,  // measure 16
1000
0000
0000
0000
,  // measure 17
0000
0000
0001
0001
,  // measure 18
0001
0000
0000
0000
,  // measure 19
0000
0000
1001
0000
,  // measure 20
0001
0000
0100
0000
,  // measure 21
0000
0000
0010
0000
,  // measure 22
0100
0000
0001
0000
,  // measure 23
1000
0000
0100
0000
,  // measure 24
0010
0000
0100
0000
,  // measure 25
0000
0000
0010
0000
,  // measure 26
0001
0000
1000
0000
,  // measure 27
0000
0000
0000
0000
,  // measure 28
1001
0000
1000
0000
,  // measure 29
0001
0000
1000
0000
,  // measure 30
0010
0000
1000
0000
,  // measure 31
0010
0000
1000
0000
,  // measure 32
0100
0000
1000
0000
,  // measure 33
0100
0000
0010
0000
,  // measure 34
0001
0000
1000
0000
,  // measure 35
0010
0010
0010
0000
,  // measure 36
1000
0000
1001
0000
,  // measure 37
0001
0000
0000
0000
,  // measure 38
0100
0000
0110
0000
,  // measure 39
0010
0000
0000
0000
,  // measure 40
1000
1000
1000
0001
,  // measure 41
0001
0001
0000
0000
,  // measure 42
0000
0000
1000
0000
,  // measure 43
0001
0000
0100
0000
,  // measure 44
0010
0000
0100
0000
,  // measure 45
0000
0000
0010
0000
,  // measure 46
0000
0000
0100
0000
,  // measure 47
0001
0000
1000
0000
,  // measure 48
0100
0000
0010
0000
,  // measure 49
0000
0000
0100
0000
,  // measure 50
0000
0000
0010
0010
,  // measure 51
0010
0000
0000
0000
,  // measure 52
0000
0000
0100
0100
,  // measure 53
0100
0000
0000
0000
,  // measure 54
1000
0000
0001
0000
,  // measure 55
0100
0000
0010
0000
,  // measure 56
0100
0000
0001
0001
,  // measure 57
0001
0001
0001
0000
,  // measure 58
1000
0000
0001
0000
,  // measure 59
0100
0100
0100
0000
,  // measure 60
0000
0000
0000
0000
,  // measure 61
0010
0010
0010
0000
,  // measure 62
0000
0000
0000
0000
,  // measure 63
1001
0000
0000
0000
,  // measure 64
1000
0000
0100
0000
,  // measure 65
1000
0000
0000
0000
,  // measure 66
0001
0000
0100
0000
,  // measure 67
0001
0000
1000
0000
,  // measure 68
0100
0100
0100
0000
,  // measure 69
0110
0000
0010
0000
,  // measure 70
0001
0000
1000
0000
,  // measure 71
0010
0000
0100
0000
,  // measure 72
0001
0000
1000
0000
,  // measure 73
1001
0000
0000
0000
,  // measure 74
0000
0000
0000
0000
,  // measure 75
0000
0000
0000
0000
,  // measure 76
0000
0000
0000
0000
,  // measure 77
0000
0000
0000
0000
,  // measure 78
0110
0000
0000
0000
;
