#TITLE:SAMBISTA;
#SUBTITLE:;
#ARTIST:DOT96;
#TITLETRANSLIT:;
#SUBTITLETRANSLIT:;
#ARTISTTRANSLIT:;
#GENRE:;
#CREDIT:;
#BANNER:SAMBISTA.png;
#BACKGROUND:SAMBISTA-bg.png;
#LYRICSPATH:;
#CDTITLE:;
#MUSIC:SAMBISTA.mp3;
#OFFSET:-0.220000;
#SAMPLESTART:38.150002;
#SAMPLELENGTH:12.630000;
#SELECTABLE:YES;
#BPMS:0.000000=152.000000
;
#STOPS:
;
#BGCHANGES:0.000=SAMBISTA.avi=1.000=1=0=0=StretchNoLoop==CrossFade==,
99999=-nosongbg-=1.000=0=0=0 // don't automatically add -songbackground-
;
#KEYSOUNDS:;
#ATTACKS:;

//---------------dance-single - Oni-91----------------
#NOTES:
     dance-single:
     :
     Challenge:
     10:
     0.804756,0.951997,0.911691,0.249515,0.748546,587.000000,492.000000,95.000000,26.000000,0.000000,0.000000,0.804756,0.951997,0.911691,0.249515,0.748546,587.000000,492.000000,95.000000,26.000000,0.000000,0.000000:
// measure 0
0000
0000
0000
0000
,  // measure 1
0000
0000
0000
0000
,  // measure 2
0000
0000
0000
0000
,  // measure 3
0000
0000
0000
0000
,  // measure 4
2002
0000
0000
0000
0000
0000
0000
0000
3003
0000
1001
0000
0000
0110
0000
0000
,  // measure 5
2002
0000
0000
0000
0000
0000
0000
0000
3003
0000
0010
0001
0000
1100
0000
0000
,  // measure 6
1010
0000
0000
0000
0000
0000
0000
0000
0000
0101
0000
0000
0000
0000
0000
0000
0000
0000
1001
0000
0000
0000
0000
0000
1001
0000
0000
0000
0000
0000
1000
0000
0100
0000
1000
0000
0100
0000
0000
0000
0000
0000
2200
0000
0000
0000
0000
0000
,  // measure 7
0000
0000
0000
3300
,  // measure 8
1001
0000
0000
0000
1000
0000
0100
0000
0010
0000
0001
1000
0001
0000
1000
0020
,  // measure 9
0000
0000
0100
0000
0130
0000
0010
0000
1000
0000
0001
1000
0100
0000
0000
0000
,  // measure 10
0011
0000
0000
0001
1000
0000
0010
0000
0100
0000
0010
1000
0100
0000
0010
0002
,  // measure 11
0000
0010
0010
1000
2000
0003
0000
3000
,  // measure 12
1001
0000
0000
0101
0000
0000
0100
0000
0010
0000
1000
0100
0001
0000
0001
0200
,  // measure 13
0000
0000
0010
0000
0310
0000
0001
0000
0100
0000
0010
1000
0001
0000
0000
0000
,  // measure 14
0011
0000
0000
1000
0100
0000
0010
0000
0001
0000
1000
0010
0100
0000
0000
0001
,  // measure 15
0000
0101
0000
0101
0000
1001
0000
1001
1001
0000
0000
0110
0000
0000
1001
0000
,  // measure 16
0101
0100
0010
1000
0100
0001
1000
0010
,  // measure 17
0001
1000
0000
0010
0000
0100
0000
0010
1000
0000
0000
0011
0000
0000
1010
0000
,  // measure 18
1000
0100
0000
0001
0000
0100
0000
1000
0001
0000
0000
0011
0000
0000
1100
0000
,  // measure 19
1000
0010
0000
0001
0000
1000
0000
0100
0001
0000
0000
1001
0000
0000
1100
0000
,  // measure 20
1001
0000
0001
0010
0100
0000
0010
0000
0001
0000
1000
0001
0100
0000
0010
0000
,  // measure 21
1000
0000
0100
0010
0001
0000
0100
0000
0010
0000
1000
0010
0100
0000
0001
0000
,  // measure 22
1000
0100
0000
0010
0000
0100
0000
0010
0001
0010
0100
0010
0000
0000
1001
0000
,  // measure 23
2001
0001
0001
3020
0100
0200
0330
0000
,  // measure 24
1001
0000
0000
1000
0000
0000
0100
0000
1000
0000
0000
0001
0000
0000
0100
0000
,  // measure 25
0001
0000
0000
1000
0000
0000
0100
0000
0010
0000
0100
0000
0110
0000
0000
0000
,  // measure 26
2002
0000
3003
0101
0000
0001
1000
0100
,  // measure 27
1100
0000
0000
1010
0000
0000
1001
0000
0000
0000
0001
0000
0101
0000
0000
0000
,  // measure 28
0001
0000
0100
0010
0100
0010
0000
1000
0000
0001
0000
1000
0100
0000
0010
0000
,  // measure 29
0001
0000
0010
0001
0100
0010
0000
1001
0000
0000
0001
1000
0000
1000
0100
0000
,  // measure 30
0011
0000
0001
0100
0000
0000
0110
0000
0000
0000
0010
0000
1000
0000
0001
1000
,  // measure 31
0000
1000
0100
0000
0010
0000
0001
0000
1000
0001
1000
0000
1001
0000
0000
0000
,  // measure 32
0001
0010
0100
0010
0001
0000
1000
0000
0010
0000
1000
0001
0000
1000
0100
0000
,  // measure 33
0010
0001
0000
0001
0100
1000
0000
1000
0100
0001
0000
0100
0001
1000
0100
0000
,  // measure 34
0010
0000
0001
0010
0001
0000
1000
0010
0100
0001
0010
0001
0010
0000
0000
0000
,  // measure 35
0100
0000
0000
0000
0000
0000
1000
0000
0000
0100
0000
0000
1000
0000
0000
0000
0000
0000
0001
0000
0000
0000
0000
0000
0100
0000
0000
0000
0000
0000
0010
0000
0000
0000
0000
0000
1010
0000
0000
0000
0000
0000
1000
0000
0010
0000
1000
0000
,  // measure 36
0010
0000
0000
0000
0000
0000
1000
0000
0001
0000
1000
0000
0001
0000
0000
0000
0000
0000
1000
0000
0100
0000
1000
0000
0100
0000
0000
0000
0000
0000
1000
0000
0000
0100
0000
0000
0001
0000
0000
0100
0000
0000
1000
0000
0000
0000
0000
0000
,  // measure 37
0001
0000
0000
0010
0000
0000
1000
0000
0000
0001
0000
0000
0100
0000
0000
1000
0000
0000
0001
0000
0000
0200
0000
0000
0000
0000
0000
0000
0000
0000
0010
0000
0000
0000
0000
0000
0310
0000
0000
0000
0000
0000
1000
0000
0010
0000
1000
0000
,  // measure 38
0010
0000
0000
0000
0000
0000
0100
0000
0001
0000
0100
0000
0001
0000
0000
0000
0000
0000
1000
0000
0001
0000
1000
0000
0001
0000
0000
0000
0000
0000
1001
0000
0000
0000
0000
0000
1000
0000
0000
0100
0000
0000
0010
0000
0000
0100
0000
0000
,  // measure 39
0010
0001
0010
0100
0000
0100
1000
0000
1001
0000
0001
0100
0000
0010
1000
0000
,  // measure 40
0001
0010
0000
0001
0000
0010
0000
0001
1000
0000
0000
1010
0000
0000
0101
0000
,  // measure 41
1000
0010
0000
1000
0000
0010
0000
0100
0001
0000
0000
0011
0000
0000
1100
0000
,  // measure 42
1000
0001
0000
0010
0000
1000
0000
0010
0001
0000
0000
1001
0000
0000
0110
0000
,  // measure 43
1010
0000
0010
1000
0100
0000
0010
0000
0110
0000
0010
0001
1000
0000
0001
0000
,  // measure 44
1001
0000
1000
0001
0010
0000
0100
0000
1100
0000
1000
0001
0100
0000
0001
0000
,  // measure 45
0101
0000
0100
0010
1000
0000
0001
0000
1001
0000
1000
0100
0010
0000
0110
0000
,  // measure 46
0000
0011
0000
0000
1001
0000
0000
1010
0000
0000
0110
0000
0000
0101
0000
0000
,  // measure 47
1000
0010
1000
0001
0100
0002
0003
0000
,  // measure 48
1001
0000
1000
0001
0100
0000
0010
0000
0100
0000
0001
0000
1000
0000
1100
0000
,  // measure 49
0100
0000
0010
0001
0100
0000
0010
0000
1000
0000
0100
0000
0100
0000
0100
0000
,  // measure 50
0010
0001
0100
0000
0100
0000
0100
0000
0010
0000
1000
0001
1000
0000
0100
0000
,  // measure 51
0011
0000
1100
0000
1001
0000
0000
0000
1000
0010
2000
0000
0000
0000
3001
0000
,  // measure 52
0101
0000
0100
0010
1001
0000
1000
1100
,  // measure 53
0100
0001
0100
1000
0010
0100
0001
1000
,  // measure 54
0001
0000
0010
0000
0010
0000
0010
0000
0100
0000
0010
0001
1000
0000
0001
0000
,  // measure 55
0101
0100
0110
0010
2020
0000
3030
0000
,  // measure 56
1000
0000
0001
0100
0001
0000
1000
0100
1000
0000
0001
0000
0010
0000
0100
0000
,  // measure 57
0010
0001
1000
1001
0000
0001
0100
0010
,  // measure 58
1000
0010
1000
0000
0001
0000
0100
0000
0001
0010
0001
0000
1000
0000
0100
0000
,  // measure 59
0001
0000
0010
0000
1000
0000
0100
0000
0010
0001
0100
0010
1000
0001
1000
0000
,  // measure 60
2002
0000
0000
0000
0000
0000
0000
0000
3003
0000
1010
0000
0000
0101
0000
0000
,  // measure 61
2002
0000
0000
0000
0000
0000
0000
0000
3003
0000
0001
0010
0000
1100
0000
0000
,  // measure 62
2002
0000
0000
0000
0000
0000
3003
0000
0000
1001
0000
0000
0000
0000
0000
0000
0000
0000
0101
0000
0000
0000
0000
0000
1010
0000
0000
0000
0000
0000
0001
0000
1000
0000
0001
0000
1000
0000
0000
0000
0000
0000
0011
0000
0000
0000
0000
0000
,  // measure 63
1000
1100
0000
0011
0000
0101
0000
1010
1010
0000
0000
1001
0000
0000
0011
0000
,  // measure 64
0110
0000
0000
0000
;

//---------------dance-single - Oni-91----------------
#NOTES:
     dance-single:
     :
     Hard:
     9:
     0.571692,0.706320,0.364676,0.316693,0.331088,417.000000,379.000000,38.000000,33.000000,0.000000,0.000000,0.571692,0.706320,0.364676,0.316693,0.331088,417.000000,379.000000,38.000000,33.000000,0.000000,0.000000:
// measure 0
0000
0000
0000
0000
,  // measure 1
0000
0000
0000
0000
,  // measure 2
0000
0000
0000
0000
,  // measure 3
0000
0000
0000
0000
,  // measure 4
2002
0000
0000
0000
0000
0000
0000
0000
3003
0000
1000
0000
0000
0100
0000
0000
,  // measure 5
2200
0000
0000
0000
0000
0000
0000
0000
3300
0000
1000
0001
0000
0001
0000
0000
,  // measure 6
0101
0000
0000
0101
0000
0000
0100
0000
0010
0000
1000
0001
1000
0000
2002
0000
,  // measure 7
0000
0000
0000
3003
,  // measure 8
2002
0000
3003
0000
1000
0100
0010
0000
,  // measure 9
0100
0010
0100
1000
0001
0100
0010
0000
,  // measure 10
0220
0000
0330
0000
0010
0100
0001
0000
,  // measure 11
1000
0100
0010
0001
0100
0000
0110
0000
,  // measure 12
2002
0000
3003
0000
0001
1000
0100
0000
,  // measure 13
0010
0001
0100
0010
1000
0001
0100
0000
,  // measure 14
2020
0000
3030
0000
0010
1000
0010
0000
,  // measure 15
0000
1000
0000
0001
0000
1000
0000
0001
0100
0000
0000
0100
0000
0000
0100
0000
,  // measure 16
0010
1000
0100
0000
0010
0001
0100
0000
,  // measure 17
0001
1000
0100
0001
0100
0010
0001
0000
,  // measure 18
0010
0001
0100
0000
0010
1000
0100
0000
,  // measure 19
1000
0001
0100
1000
0100
0010
1000
0000
,  // measure 20
0001
0010
0001
1000
0010
0100
0001
0000
,  // measure 21
1000
0010
1000
0001
0010
0100
0010
0000
,  // measure 22
0001
0100
0010
1000
0010
0100
0001
1000
,  // measure 23
0200
0000
0000
0300
,  // measure 24
1100
0000
0000
1000
0000
0000
0100
0000
0010
0000
0000
0100
0000
0000
0010
0000
,  // measure 25
0001
0000
0000
1000
0000
0000
0001
0000
0100
0000
0010
0000
1000
0000
0000
0000
,  // measure 26
2200
0000
3300
0110
0000
0010
0001
1000
,  // measure 27
1001
0000
0000
0001
0000
0000
2000
0000
0000
0000
0100
0000
3100
0000
0000
0000
,  // measure 28
1000
0000
0100
0000
0010
0001
0000
0010
0000
0001
0000
0000
1000
0000
0010
0000
,  // measure 29
0100
0000
0001
0000
0100
0001
0000
0101
0000
0000
1000
0010
0000
0100
0001
0000
,  // measure 30
1000
0000
0000
0001
0000
0000
2000
0000
0000
0000
3100
0000
0010
0000
0100
0010
,  // measure 31
0000
0000
0011
0000
0000
0000
1001
0000
0000
1000
0001
0000
1001
0000
0000
0000
,  // measure 32
1000
0100
0000
0010
0001
0000
1000
0000
0001
0000
1000
0010
0000
0100
0001
0000
,  // measure 33
1000
0100
0000
0100
1000
0000
0001
0000
0100
0001
0000
0001
0100
0001
0100
0000
,  // measure 34
0010
0000
1000
0100
1000
0000
0001
0010
0001
0000
1000
0000
1001
0000
0000
0000
,  // measure 35
1000
0000
0100
0010
0001
0000
1000
0000
0010
0000
0100
0000
0110
0000
0000
0100
,  // measure 36
0010
0000
0000
0010
1000
0000
0000
1000
0001
0000
0010
0000
0001
0010
0001
0000
,  // measure 37
1100
0000
0000
1001
0000
0000
0102
0000
0000
0000
0100
0000
0103
0000
0000
0001
,  // measure 38
0100
0000
0000
0100
0010
0000
0000
0010
1000
0000
0001
0000
1000
0001
1000
0000
,  // measure 39
0220
0000
0000
0330
,  // measure 40
1000
0000
0100
0000
0010
0000
0001
0000
0100
0000
0000
0010
0000
0000
0100
0000
,  // measure 41
0010
0000
1000
0000
0100
0000
0010
0000
0001
0000
0000
0100
0000
0000
0010
0000
,  // measure 42
1000
0000
0100
0000
0010
0000
0100
0000
1000
0000
0000
0001
0000
0000
0010
0000
,  // measure 43
1000
0000
0000
0010
0000
0000
0100
0000
0001
0000
0000
0100
0000
0000
0001
0000
,  // measure 44
0101
0000
0000
0100
0000
0000
1000
0000
0001
0000
0000
0010
0000
0000
1000
0000
,  // measure 45
0001
0000
0000
0010
0000
0000
1000
0000
0001
0000
0000
0100
0000
0000
1000
0000
,  // measure 46
0000
0100
0000
0000
0010
0000
0000
0001
0000
0000
1000
0000
0000
0010
0000
0000
,  // measure 47
0100
0001
0001
0100
0001
0002
0003
0000
,  // measure 48
1010
0000
0010
1000
0100
0000
0010
0001
,  // measure 49
0000
0010
0001
0100
1000
0100
0001
1000
,  // measure 50
0100
0100
0010
0001
0100
0010
1000
0100
,  // measure 51
1000
0100
1000
0000
0001
0010
0001
0000
1000
0000
2002
0000
0000
0000
3003
0000
,  // measure 52
0110
0000
0010
1000
0100
0000
0010
0001
,  // measure 53
0000
0001
1000
0010
0100
0001
1000
0100
,  // measure 54
0010
0000
0100
0000
0010
0000
0001
0000
1000
0000
0001
1000
0001
0000
1000
0000
,  // measure 55
1010
0101
2002
3003
,  // measure 56
1000
0100
0001
0100
0001
0100
1000
0100
,  // measure 57
0010
0001
0100
2000
0000
3100
0001
0010
,  // measure 58
0001
0100
0010
1000
0100
0010
0100
1000
,  // measure 59
0010
0001
0010
2000
0000
3001
0010
0100
,  // measure 60
0220
0000
0000
0000
0000
0000
0000
0000
0330
0000
0110
0000
0000
0011
0000
0000
,  // measure 61
2002
0000
0000
0000
0000
0000
0000
0000
3003
0000
1000
0001
0000
1001
0000
0000
,  // measure 62
1001
0000
0000
1000
0000
0000
0001
0000
0100
0000
1000
0000
0100
0000
0010
0000
,  // measure 63
1000
0001
0000
0001
0000
0001
0000
0001
1000
0000
0000
0001
0000
0000
0010
0000
,  // measure 64
0110
0000
0000
0000
;

//---------------dance-single - Oni-91----------------
#NOTES:
     dance-single:
     :
     Medium:
     6:
     0.398950,0.491353,0.374273,0.355080,0.000000,291.000000,252.000000,39.000000,37.000000,0.000000,0.000000,0.398950,0.491353,0.374273,0.355080,0.000000,291.000000,252.000000,39.000000,37.000000,0.000000,0.000000:
// measure 0
0000
0000
0000
0000
,  // measure 1
0000
0000
0000
0000
,  // measure 2
0000
0000
0000
0000
,  // measure 3
0000
0000
0000
0000
,  // measure 4
2002
0000
3003
0000
,  // measure 5
0220
0000
0330
0000
,  // measure 6
2002
3003
0202
0303
,  // measure 7
0220
0000
0000
0330
,  // measure 8
2002
0000
3003
0000
1000
0001
1000
0000
,  // measure 9
0001
0000
0010
0000
0001
0010
0001
0000
,  // measure 10
1000
0000
0010
0000
0100
0001
0100
0000
,  // measure 11
0001
1000
0100
0000
0020
0000
0030
0000
,  // measure 12
0220
0000
0330
0000
0100
1000
0100
0000
,  // measure 13
0010
0000
0001
0000
1000
0001
1000
0000
,  // measure 14
0010
0000
0100
0000
0001
0100
0010
0000
,  // measure 15
2002
0000
0000
3003
,  // measure 16
1000
0010
0100
0000
0010
0100
0001
0000
,  // measure 17
1000
0100
0010
0000
0001
0000
1001
0000
,  // measure 18
1000
0001
1000
0000
0001
0100
0001
0000
,  // measure 19
0100
0010
1000
0000
0100
0000
1100
0000
,  // measure 20
1001
0000
0001
0000
0010
0001
0100
0000
,  // measure 21
0010
0100
0001
0000
1000
0000
1001
0000
,  // measure 22
0001
0000
1000
0000
0100
0010
0100
0000
,  // measure 23
2002
0000
0000
3003
,  // measure 24
1001
0001
1000
0100
,  // measure 25
1000
0001
0100
0001
,  // measure 26
2001
0000
0000
3001
0000
0001
0100
0010
,  // measure 27
0200
0000
0000
0301
0000
0001
1000
0000
,  // measure 28
0001
1000
0100
0000
0010
0000
0001
0000
,  // measure 29
1000
0001
0100
0000
0010
0000
1000
0000
,  // measure 30
0001
0000
1000
0001
0000
0001
1000
0010
,  // measure 31
0000
0010
0100
0001
0000
0001
1000
0000
,  // measure 32
1000
0000
1100
0000
0100
0010
0001
0000
,  // measure 33
0001
0000
0101
0000
0100
0010
1000
0000
,  // measure 34
0001
0010
0001
0010
0001
0000
1000
0000
,  // measure 35
0010
1000
0010
1000
0010
0000
0100
0000
,  // measure 36
0110
0000
1010
0000
1000
0001
1000
0000
,  // measure 37
0011
0000
1000
0200
0000
0010
0310
0000
,  // measure 38
0011
0101
1010
1001
,  // measure 39
0220
0000
0000
0330
,  // measure 40
0010
1000
0001
0000
1000
0000
0100
0000
,  // measure 41
0010
0001
1000
0000
0001
0000
0100
0000
,  // measure 42
0010
0100
0001
0000
0010
0000
0100
0000
,  // measure 43
0010
0001
0100
0000
0010
1000
0001
0000
,  // measure 44
1000
0100
1000
0000
0100
0010
0100
0000
,  // measure 45
0010
0001
0010
0000
0001
1000
0001
0000
,  // measure 46
2002
0000
0000
0000
,  // measure 47
0000
0000
0000
3003
,  // measure 48
1001
0000
1000
0001
0100
0000
0010
0100
,  // measure 49
0000
0100
0001
1000
0000
0100
1000
0000
,  // measure 50
0100
0010
0001
0000
1000
0000
0010
0000
,  // measure 51
0100
0001
2002
3003
,  // measure 52
0110
0000
0010
0100
0001
0000
1000
0001
,  // measure 53
0000
0001
1000
0010
0000
0100
0000
0001
,  // measure 54
0000
1000
0001
0000
0010
0001
0010
0000
,  // measure 55
1100
1010
0202
0303
,  // measure 56
1001
1000
0010
0100
,  // measure 57
0001
0100
0010
2000
0000
0000
3100
0010
,  // measure 58
0001
0000
0100
0010
1000
0000
0001
1000
,  // measure 59
0001
0000
1000
0000
0100
0010
0100
0000
,  // measure 60
0022
0000
0000
0033
,  // measure 61
2200
0000
0000
3300
,  // measure 62
1010
0010
0110
0100
,  // measure 63
0202
0000
0000
0303
,  // measure 64
1001
0000
0000
0000
;

//---------------dance-single - Oni-91----------------
#NOTES:
     dance-single:
     :
     Easy:
     4:
     0.270080,0.307096,0.230322,0.259112,0.000000,197.000000,173.000000,24.000000,27.000000,0.000000,0.000000,0.270080,0.307096,0.230322,0.259112,0.000000,197.000000,173.000000,24.000000,27.000000,0.000000,0.000000:
// measure 0
0000
0000
0000
0000
,  // measure 1
0000
0000
0000
0000
,  // measure 2
0000
0000
0000
0000
,  // measure 3
0000
0000
0000
0000
,  // measure 4
2002
0000
0000
3003
,  // measure 5
2002
0000
0000
3003
,  // measure 6
0220
0330
0220
0330
,  // measure 7
2002
0000
0000
3003
,  // measure 8
1001
1000
0100
1000
,  // measure 9
0100
0010
0001
0010
,  // measure 10
0001
0100
0010
1000
,  // measure 11
0100
0010
0100
0000
,  // measure 12
0010
0001
1000
0001
,  // measure 13
0100
1000
0100
0010
,  // measure 14
0100
0001
1000
0100
,  // measure 15
2000
0000
0000
3000
,  // measure 16
1001
0001
0100
0001
,  // measure 17
0010
0001
1000
0001
,  // measure 18
0100
0010
0001
0010
,  // measure 19
1000
0010
1000
0000
,  // measure 20
0001
0010
1000
0010
,  // measure 21
0001
0010
0100
0010
,  // measure 22
0001
1000
0010
0100
,  // measure 23
2002
0000
0000
3003
,  // measure 24
0110
0000
0010
0000
,  // measure 25
1000
0000
0001
0000
,  // measure 26
1000
0100
0010
0001
,  // measure 27
0100
0010
1000
0001
,  // measure 28
1000
0000
0100
0000
,  // measure 29
0010
0000
0001
0000
,  // measure 30
1000
0100
0001
0100
,  // measure 31
1000
0001
0100
0010
,  // measure 32
1000
0000
0001
0000
,  // measure 33
1000
0000
0001
0000
,  // measure 34
0010
0001
0100
0010
,  // measure 35
1000
0100
1000
0010
,  // measure 36
0100
0000
0010
0000
,  // measure 37
1000
0000
0001
0000
,  // measure 38
1000
0100
0010
0001
,  // measure 39
2002
0000
0000
3003
,  // measure 40
1010
0010
1000
0000
,  // measure 41
0001
0010
0001
0000
,  // measure 42
1000
0100
0001
0100
,  // measure 43
1000
0001
0100
0000
,  // measure 44
0110
0000
1010
0000
,  // measure 45
1100
0000
0110
0000
,  // measure 46
2002
0000
0000
0000
,  // measure 47
0000
0000
0000
3003
,  // measure 48
1001
1000
0100
0000
,  // measure 49
0010
0100
0010
0001
,  // measure 50
1000
0001
0100
1000
,  // measure 51
0100
0010
1000
0000
,  // measure 52
0001
1000
0100
0000
,  // measure 53
0010
0100
1000
0000
,  // measure 54
0001
1000
0100
1000
,  // measure 55
0001
0100
0010
0000
,  // measure 56
1001
0001
0010
0100
,  // measure 57
1000
0100
0001
0100
,  // measure 58
0010
0001
0100
1000
,  // measure 59
0100
0010
1000
0001
,  // measure 60
2002
0000
0000
3003
,  // measure 61
2002
0000
0000
3003
,  // measure 62
0220
0330
2002
3003
,  // measure 63
0220
0000
0000
0330
,  // measure 64
1001
0000
0000
0000
;

//---------------dance-single - Oni-91----------------
#NOTES:
     dance-single:
     :
     Beginner:
     2:
     0.145322,0.245677,0.191935,0.000000,0.000000,106.000000,86.000000,20.000000,0.000000,0.000000,0.000000,0.145322,0.245677,0.191935,0.000000,0.000000,106.000000,86.000000,20.000000,0.000000,0.000000,0.000000:
// measure 0
0000
0000
0000
0000
,  // measure 1
0000
0000
0000
0000
,  // measure 2
0000
0000
0000
0000
,  // measure 3
0000
0000
0000
0000
,  // measure 4
1001
0000
0000
0000
,  // measure 5
1001
0000
0000
0000
,  // measure 6
1001
0000
1001
0000
,  // measure 7
1001
0000
0000
0000
,  // measure 8
1000
0000
0100
0000
,  // measure 9
1000
0000
0100
0000
,  // measure 10
0010
0000
0001
0000
,  // measure 11
0010
0000
0000
0000
,  // measure 12
0001
0000
0100
0000
,  // measure 13
0001
0000
0100
0000
,  // measure 14
0010
0000
1000
0000
,  // measure 15
0010
0000
0000
0000
,  // measure 16
1001
0000
0000
0000
,  // measure 17
1000
0000
0001
0000
,  // measure 18
0100
0000
0000
0000
,  // measure 19
0010
0000
0100
0000
,  // measure 20
0001
0000
0000
0000
,  // measure 21
1000
0000
0001
0000
,  // measure 22
1000
0000
0100
0000
,  // measure 23
0000
0000
0000
0000
,  // measure 24
0110
0000
0000
0000
,  // measure 25
0000
0000
0000
0000
,  // measure 26
1000
0000
0001
0000
,  // measure 27
1000
0000
0010
0000
,  // measure 28
0110
0000
0000
0000
,  // measure 29
0000
0000
0000
0000
,  // measure 30
0010
0000
1000
0000
,  // measure 31
0001
0000
1000
0000
,  // measure 32
1001
0000
0000
0000
,  // measure 33
0000
0000
0000
0000
,  // measure 34
1000
0000
0100
0000
,  // measure 35
0010
0000
0001
0000
,  // measure 36
1001
0000
0000
0000
,  // measure 37
0000
0000
0000
0000
,  // measure 38
1000
0000
0010
0000
,  // measure 39
0110
0000
0000
0000
,  // measure 40
1001
0000
0000
0000
,  // measure 41
1000
0000
0100
0000
,  // measure 42
1000
0000
0000
0000
,  // measure 43
0001
0000
0010
0000
,  // measure 44
0001
0000
0000
0000
,  // measure 45
1000
0000
0000
0000
,  // measure 46
1001
0000
0000
0000
,  // measure 47
0000
0000
0000
0000
,  // measure 48
1001
0000
1000
0000
,  // measure 49
0100
0000
1000
0000
,  // measure 50
0001
0000
0100
0000
,  // measure 51
0010
0000
0000
0000
,  // measure 52
0100
0000
0001
0000
,  // measure 53
1000
0000
0100
0000
,  // measure 54
0010
0000
0001
0000
,  // measure 55
1000
0000
0000
0000
,  // measure 56
0001
0000
0010
0000
,  // measure 57
0001
0000
0010
0000
,  // measure 58
0100
0000
1000
0000
,  // measure 59
0100
0000
1000
0000
,  // measure 60
1001
0000
0000
0000
,  // measure 61
1001
0000
0000
0000
,  // measure 62
1001
0000
1001
0000
,  // measure 63
1001
0000
0000
0000
,  // measure 64
0110
0000
0000
0000
;
