#TITLE:Rising in the Sun;
#SUBTITLE:-original mix-;
#ARTIST:kors k feat. Rie;
#TITLETRANSLIT:;
#SUBTITLETRANSLIT:;
#ARTISTTRANSLIT:;
#GENRE:;
#CREDIT:;
#BANNER:Rising in the Sun -original mix-.png;
#BACKGROUND:Rising in the Sun -original mix--bg.png;
#LYRICSPATH:;
#CDTITLE:;
#MUSIC:Rising in the Sun -original mix-.mp3;
#OFFSET:-6.980000;
#SAMPLESTART:73.955002;
#SAMPLELENGTH:11.160000;
#SELECTABLE:YES;
#BPMS:0.000000=172.000000
;
#STOPS:
;
#BGCHANGES:;
#KEYSOUNDS:;
#ATTACKS:;

//---------------dance-single - Oni-91----------------
#NOTES:
     dance-single:
     :
     Hard:
     8:
     0.429554,0.539739,0.316514,0.208233,0.154092,361.000000,323.000000,38.000000,25.000000,0.000000,0.000000,0.429554,0.539739,0.316514,0.208233,0.154092,361.000000,323.000000,38.000000,25.000000,0.000000,0.000000:
// measure 0
1000
0000
0000
0000
0100
0000
0000
0000
1000
0000
0000
0100
0000
0000
1100
0000
,  // measure 1
0000
0000
1000
0000
0000
0001
0000
0000
0101
0000
0000
0000
0100
0000
0010
0000
,  // measure 2
1000
0000
0000
0000
0001
0000
0000
0000
0010
0000
0000
0100
0000
0000
0110
0000
,  // measure 3
0000
0000
0010
0000
0000
0001
0000
0000
1001
0000
0000
0000
1000
0000
1000
0000
,  // measure 4
0001
0000
0010
0000
0100
0000
0000
0000
0010
0000
0000
0001
0000
0000
0010
0000
,  // measure 5
0000
0000
0001
0000
0000
1000
0000
0000
0001
0000
0000
0000
0100
0000
0010
0000
,  // measure 6
1010
0000
0000
0000
1000
0000
0100
0000
1000
0000
0000
0001
0000
0000
0010
0000
,  // measure 7
0000
0000
0010
0000
0000
0001
0000
0000
0100
0000
0000
1000
0000
0000
0100
0000
,  // measure 8
0010
0000
0100
0000
0010
0000
0000
0000
1000
0000
0000
0001
0000
0000
1001
0000
,  // measure 9
0000
1000
0100
0010
0001
0000
0101
0000
,  // measure 10
0100
0000
0010
0000
1000
0000
0000
0000
0001
0000
0000
0010
0000
0000
0011
0000
,  // measure 11
0000
0000
0001
0000
0100
0000
0010
0000
1000
0000
0001
0000
0000
0000
0100
0010
,  // measure 12
0200
1000
0000
0010
,  // measure 13
0000
0001
0000
0310
,  // measure 14
2002
0000
0000
3003
,  // measure 15
0000
0000
1100
0000
0000
0011
0000
0000
1001
0000
0000
1001
0000
0000
0110
0000
,  // measure 16
0210
0000
0010
0000
,  // measure 17
0001
0000
0001
0000
,  // measure 18
0302
0000
0100
0000
,  // measure 19
0100
0000
1000
0000
,  // measure 20
2003
0000
0001
0000
,  // measure 21
0001
0000
0010
0000
,  // measure 22
3020
0000
0100
0000
,  // measure 23
0230
0000
0002
0303
,  // measure 24
2001
0000
0000
0001
0000
0000
0020
0000
,  // measure 25
0000
0000
0000
3030
,  // measure 26
0120
0000
0000
0100
0000
0000
2000
0000
,  // measure 27
0000
0000
0000
3030
,  // measure 28
2010
0000
0000
0010
0000
0000
0002
0000
,  // measure 29
0000
0000
0000
3003
,  // measure 30
0021
0000
0000
0001
0000
0000
0130
0000
,  // measure 31
0110
0000
0000
0000
,  // measure 32
1001
1000
0001
1000
,  // measure 33
0001
0100
0010
1000
,  // measure 34
0100
0010
0100
1000
,  // measure 35
0001
0100
1000
0100
,  // measure 36
0010
1000
0100
0010
,  // measure 37
0001
1000
0001
0100
,  // measure 38
1000
0001
0010
1000
,  // measure 39
1001
0000
1000
0100
0000
0110
0000
0100
,  // measure 40
1000
0100
1000
0100
1000
0010
1000
0010
,  // measure 41
0100
0001
0100
0001
0010
0001
0010
0001
,  // measure 42
1000
0100
0010
0001
1000
0010
0100
0001
,  // measure 43
1000
0010
0100
0010
1000
0001
0010
0001
,  // measure 44
1000
0100
0001
0100
1000
0100
0001
0100
,  // measure 45
1000
0010
0100
0001
0010
0001
0100
1000
,  // measure 46
0100
0010
0100
0010
1000
0001
0010
0100
,  // measure 47
0220
0000
0000
0330
,  // measure 48
1001
0000
0000
0001
0000
0000
0100
0000
0000
0010
0000
0000
1000
0000
0000
0100
,  // measure 49
0000
0100
1000
0001
1000
0100
0010
0000
,  // measure 50
0100
0000
0000
1000
0000
0000
0001
0000
0000
0100
0000
0000
0001
0000
1000
0000
,  // measure 51
0000
0001
0000
0000
0100
0000
0000
0010
0000
0010
1000
0000
0001
0000
1000
0000
,  // measure 52
0100
0010
0100
1000
0001
0100
0010
0100
,  // measure 53
0000
0000
0010
0000
1000
0000
0000
0001
0000
0000
1000
0000
0100
0000
0010
0000
,  // measure 54
0100
0000
0000
1000
0000
0000
0001
0000
0000
1000
0000
0000
0010
0000
0100
0000
,  // measure 55
0000
0100
0001
0010
0100
0010
0001
0000
,  // measure 56
1001
0000
0000
1000
0000
0000
0100
0000
0000
0010
0001
0000
1000
0000
0010
0000
,  // measure 57
0000
0000
0010
0000
0100
0000
0001
1000
0000
1000
0001
0000
1000
0000
0100
0000
,  // measure 58
0010
0000
0001
0000
1000
0000
0000
0001
0000
0000
1000
0000
0010
0000
0100
0000
,  // measure 59
0001
0100
0000
0000
0001
0000
0000
1001
0000
0000
1000
0000
0100
0000
0010
0000
,  // measure 60
0100
1000
0100
0001
0100
0010
0001
1000
,  // measure 61
0001
0100
1000
0100
0020
0000
1030
0000
,  // measure 62
2002
0000
0000
0000
,  // measure 63
0000
0000
0000
3003
,  // measure 64
0120
0000
0000
1000
0000
0000
0200
0000
,  // measure 65
0030
0000
0001
0000
0000
0001
0000
0000
0001
0000
0000
0000
0310
0000
0000
0000
,  // measure 66
1002
0000
0000
0010
0000
0000
2003
0000
,  // measure 67
0000
0000
0010
0000
0000
0010
0000
0000
0010
0000
0000
0000
3001
0000
0000
0000
,  // measure 68
1010
0000
0000
1001
0000
0000
0011
0000
,  // measure 69
0000
0000
0001
0000
0000
1000
0000
0000
0001
0000
0000
0000
0110
0000
0000
0000
,  // measure 70
1010
0000
0000
1100
0000
0000
1001
0000
,  // measure 71
0001
0000
0100
0000
0001
0000
0000
0100
0000
0000
0010
0100
0010
0000
0000
0000
,  // measure 72
1001
0000
0000
0000
;

//---------------dance-single - Oni-91----------------
#NOTES:
     dance-single:
     :
     Beginner:
     1:
     0.121370,0.209899,0.141598,0.000000,0.000000,102.000000,85.000000,17.000000,0.000000,0.000000,0.000000,0.121370,0.209899,0.141598,0.000000,0.000000,102.000000,85.000000,17.000000,0.000000,0.000000,0.000000:
// measure 0
1001
0000
0000
0000
,  // measure 1
0001
0000
0100
0000
,  // measure 2
0001
0000
0000
0000
,  // measure 3
1000
0000
0100
0000
,  // measure 4
1000
0000
0100
0000
,  // measure 5
0010
0000
0100
0000
,  // measure 6
0010
0000
0001
0000
,  // measure 7
1000
0000
0001
0000
,  // measure 8
1001
0000
0000
0000
,  // measure 9
1000
0000
0001
0000
,  // measure 10
0100
0000
0000
0000
,  // measure 11
0010
0000
0010
0000
,  // measure 12
0110
0000
0000
0000
,  // measure 13
0000
0000
0000
0000
,  // measure 14
1001
0000
0000
0000
,  // measure 15
0000
0000
0000
0000
,  // measure 16
0110
0000
0000
0000
,  // measure 17
0000
0000
0000
0000
,  // measure 18
0100
0000
0000
0000
,  // measure 19
0000
0000
0000
0000
,  // measure 20
0010
0000
0000
0000
,  // measure 21
0000
0000
0000
0000
,  // measure 22
1000
0000
0000
0000
,  // measure 23
0000
0000
0000
0000
,  // measure 24
1001
0000
0000
0000
,  // measure 25
0000
0000
0000
0000
,  // measure 26
0001
0000
0000
0000
,  // measure 27
0000
0000
0000
0000
,  // measure 28
0100
0000
0000
0000
,  // measure 29
0000
0000
0000
0000
,  // measure 30
0010
0000
0000
0000
,  // measure 31
1001
0000
0000
0000
,  // measure 32
1001
0000
0000
0000
,  // measure 33
0000
0000
0000
0000
,  // measure 34
1000
0000
0000
0000
,  // measure 35
0100
0000
0000
0000
,  // measure 36
1000
0000
0000
0000
,  // measure 37
0000
0000
0000
0000
,  // measure 38
0001
0000
0000
0000
,  // measure 39
1001
0000
0000
0000
,  // measure 40
0110
0000
0000
0000
,  // measure 41
0100
0000
0000
0000
,  // measure 42
0010
0000
0000
0000
,  // measure 43
1000
0000
0000
0000
,  // measure 44
0001
0000
0001
0000
,  // measure 45
1000
0000
1000
0000
,  // measure 46
0100
0100
0100
0100
,  // measure 47
0100
0000
0000
0000
,  // measure 48
1001
0000
1000
0000
,  // measure 49
0100
0000
1000
0000
,  // measure 50
0001
0000
0100
0000
,  // measure 51
0010
0000
0100
0000
,  // measure 52
0010
0000
0010
0000
,  // measure 53
0100
0000
0100
0000
,  // measure 54
0001
0000
1000
0000
,  // measure 55
1001
0000
0000
0000
,  // measure 56
0110
0000
0010
0000
,  // measure 57
0001
0000
1000
0000
,  // measure 58
0001
0000
0100
0000
,  // measure 59
0010
0000
1000
0000
,  // measure 60
0001
0000
0001
0000
,  // measure 61
1000
0000
1000
0000
,  // measure 62
0110
0000
0000
0000
,  // measure 63
0000
0000
0000
0000
,  // measure 64
1001
0000
0000
0000
,  // measure 65
0000
0000
0000
0000
,  // measure 66
0001
0000
0000
0000
,  // measure 67
0000
0000
0000
0000
,  // measure 68
0100
0000
0000
0000
,  // measure 69
0000
0000
0000
0000
,  // measure 70
0010
0000
1000
0000
,  // measure 71
1001
0000
0000
0000
,  // measure 72
0110
0000
0000
0000
;

//---------------dance-single - Oni-91----------------
#NOTES:
     dance-single:
     :
     Easy:
     4:
     0.240360,0.359826,0.216562,0.258209,0.000000,202.000000,176.000000,26.000000,31.000000,0.000000,0.000000,0.240360,0.359826,0.216562,0.258209,0.000000,202.000000,176.000000,26.000000,31.000000,0.000000,0.000000:
// measure 0
1000
0001
1000
0001
,  // measure 1
0100
0000
0010
0100
,  // measure 2
0010
1000
0001
1000
,  // measure 3
0100
0000
0010
0001
,  // measure 4
0100
0010
0100
0001
,  // measure 5
1000
0000
0001
1000
,  // measure 6
0100
0010
0100
0000
,  // measure 7
0110
0000
1001
1001
,  // measure 8
1001
0000
0001
0100
,  // measure 9
0010
0100
0001
0000
,  // measure 10
1000
0000
0001
1000
,  // measure 11
0100
0000
0100
0010
,  // measure 12
2002
0000
0000
0000
,  // measure 13
0000
0000
0000
3003
,  // measure 14
0220
0000
0000
0000
,  // measure 15
0330
0000
0000
0000
,  // measure 16
2002
0000
0000
0000
,  // measure 17
0003
0000
0000
0000
,  // measure 18
0200
0000
0000
0000
,  // measure 19
3000
0000
0000
0000
,  // measure 20
0020
0000
0000
0000
,  // measure 21
0300
0000
0000
0000
,  // measure 22
0002
0000
0000
0000
,  // measure 23
0000
0000
0033
0000
,  // measure 24
2002
0000
0000
3003
,  // measure 25
0000
0000
0000
0000
,  // measure 26
0220
0000
0000
0330
,  // measure 27
0000
0000
0000
0000
,  // measure 28
2200
0000
0000
3300
,  // measure 29
0000
0000
0000
0000
,  // measure 30
0022
0000
0000
0033
,  // measure 31
1001
0001
0001
0001
,  // measure 32
0100
0100
0100
0100
,  // measure 33
0010
0010
0010
0010
,  // measure 34
1000
1000
1000
1000
,  // measure 35
0001
1000
0001
1000
,  // measure 36
0001
0010
0001
0010
,  // measure 37
0100
1000
0100
1000
,  // measure 38
0001
1000
0010
0100
,  // measure 39
0220
0000
0000
0330
,  // measure 40
1001
0001
1000
0001
,  // measure 41
1000
0100
0010
0001
,  // measure 42
1000
0001
1000
0001
,  // measure 43
0100
0010
1000
0001
,  // measure 44
1000
0100
0010
0100
,  // measure 45
1000
0100
0010
0100
,  // measure 46
0010
0001
1000
0001
,  // measure 47
2002
0000
0000
3003
,  // measure 48
1001
1000
0100
0010
,  // measure 49
0000
0100
0010
0001
,  // measure 50
1000
0001
0100
0010
,  // measure 51
0000
0100
0010
0100
,  // measure 52
0001
1000
0100
0010
,  // measure 53
0000
0100
0010
0001
,  // measure 54
1000
0001
1000
0010
,  // measure 55
0100
0000
0010
1000
,  // measure 56
1001
0001
0010
0100
,  // measure 57
0000
0010
0001
1000
,  // measure 58
0001
0100
1000
0100
,  // measure 59
0000
0010
0100
0001
,  // measure 60
1001
1000
0100
1000
,  // measure 61
1100
1000
0001
0010
,  // measure 62
0220
0000
0000
0000
,  // measure 63
0000
0000
0000
0330
,  // measure 64
1000
0000
0000
0001
0000
0000
2002
0000
,  // measure 65
0000
0000
0000
3003
,  // measure 66
0100
0000
0000
0010
0000
0000
0220
0000
,  // measure 67
0000
0000
0000
0330
,  // measure 68
0010
0000
0000
1000
0000
0000
2002
0000
,  // measure 69
0000
0000
0000
3003
,  // measure 70
0001
0000
0000
0010
0000
0000
0110
0000
,  // measure 71
2002
0000
0000
3003
,  // measure 72
1001
0000
0000
0000
;

//---------------dance-single - Oni-91----------------
#NOTES:
     dance-single:
     :
     Medium:
     6:
     0.330792,0.419797,0.233221,0.233221,0.008329,278.000000,250.000000,28.000000,28.000000,0.000000,0.000000,0.330792,0.419797,0.233221,0.233221,0.008329,278.000000,250.000000,28.000000,28.000000,0.000000,0.000000:
// measure 0
1000
0000
0001
0000
0100
0000
0010
0100
,  // measure 1
0000
0010
0100
0000
0001
0000
1000
0000
,  // measure 2
0100
0000
0010
0000
0001
0000
1000
0001
,  // measure 3
0000
1000
0001
0000
0100
0010
0100
0000
,  // measure 4
0010
0000
1000
0000
0001
0000
0010
0001
,  // measure 5
0000
1000
0100
0000
1000
0000
0001
0000
,  // measure 6
0110
0000
0100
0000
0001
0000
1000
0100
,  // measure 7
1000
0001
0011
0101
,  // measure 8
1001
0000
1000
0000
0010
0000
0100
0001
,  // measure 9
0000
0001
0100
0000
0010
0000
1000
0000
,  // measure 10
0001
0000
0010
0000
0001
0000
1000
0100
,  // measure 11
0000
0010
0001
0000
1000
0001
0000
0001
,  // measure 12
0002
0010
0000
0010
,  // measure 13
0000
1000
0000
0103
,  // measure 14
0220
0000
0000
0330
,  // measure 15
0000
0000
0010
0000
0000
1000
0000
0000
0001
0000
0000
1000
0000
0000
0001
0000
,  // measure 16
2002
0000
3000
0000
,  // measure 17
0200
0000
0003
0000
,  // measure 18
0020
0000
0300
0000
,  // measure 19
2000
0000
0030
0000
,  // measure 20
0002
0000
3000
0000
,  // measure 21
0200
0000
0003
0000
,  // measure 22
0020
0000
0300
0000
,  // measure 23
2000
0000
0000
3030
,  // measure 24
2001
0000
0000
0001
0000
0000
0002
0000
,  // measure 25
0000
0000
3000
0000
,  // measure 26
0100
0000
0000
0100
0000
0000
0200
0000
,  // measure 27
0000
0000
0003
0000
,  // measure 28
0010
0000
0000
0010
0000
0000
0020
0000
,  // measure 29
0000
0000
0000
0330
,  // measure 30
1001
0000
0000
0001
0000
0000
1000
0000
,  // measure 31
0110
0000
0000
0000
,  // measure 32
1001
0001
1000
0001
,  // measure 33
1000
0001
0010
0100
,  // measure 34
0010
0100
0010
0100
,  // measure 35
0010
0001
1000
0001
,  // measure 36
0100
1000
0100
0001
,  // measure 37
1000
0100
0001
0100
,  // measure 38
1000
0001
1000
0100
,  // measure 39
0110
0000
0010
0001
0000
1001
0000
1000
,  // measure 40
0010
0000
0100
0000
0001
0100
0001
0000
,  // measure 41
1000
0000
0001
0000
1000
0100
1000
0000
,  // measure 42
0001
0000
0010
0000
0100
0010
0100
0000
,  // measure 43
0010
0000
0001
0000
1000
0001
1000
0000
,  // measure 44
0001
0100
0001
0000
1000
0010
1000
0000
,  // measure 45
0001
0010
0100
0000
0010
0001
1000
0001
,  // measure 46
0100
0000
0010
0000
0100
0010
1000
0000
,  // measure 47
2002
0000
0000
3003
,  // measure 48
1001
0000
0011
0000
0010
0001
0100
0000
,  // measure 49
0001
0000
1000
0000
0001
1000
0010
0000
,  // measure 50
0100
0000
0010
0000
1000
0100
1000
0000
,  // measure 51
0001
0010
0100
0000
0010
0001
1000
0000
,  // measure 52
0001
0000
0010
0000
0001
0100
0001
0100
,  // measure 53
0000
0010
1000
0000
0001
1000
0100
0000
,  // measure 54
0010
0000
0100
1000
0000
1000
0100
0010
,  // measure 55
0001
0000
0010
0001
0000
0001
1000
0000
,  // measure 56
0110
0000
0100
0000
0001
1000
0100
0000
,  // measure 57
0010
0000
0100
1000
0000
1000
0001
0100
,  // measure 58
0010
0000
0100
0000
0001
0010
0001
0000
,  // measure 59
1000
0000
0001
0010
0000
0100
0010
0001
,  // measure 60
1000
0000
0001
0000
0100
0001
0100
0000
,  // measure 61
1010
0000
1000
0000
0001
0010
0100
0000
,  // measure 62
2002
0000
0000
0000
,  // measure 63
0000
0000
0000
3003
,  // measure 64
2010
0000
0000
0001
0000
0000
0200
0000
,  // measure 65
0000
0000
0000
3300
,  // measure 66
0012
0000
0000
1000
0000
0000
0200
0000
,  // measure 67
0000
0000
0000
0303
,  // measure 68
0110
0000
0000
1001
0000
0000
0220
0000
,  // measure 69
0000
0000
0000
0330
,  // measure 70
1001
0000
0000
0110
0000
0000
1001
0000
,  // measure 71
0022
0000
0000
0033
,  // measure 72
1100
0000
0000
0000
;
