#TITLE:Rise Up;
#SUBTITLE:;
#ARTIST:Freaky Fortune feat. RiskyKidd;
#TITLETRANSLIT:;
#SUBTITLETRANSLIT:;
#ARTISTTRANSLIT:;
#GENRE:;
#CREDIT:;
#BANNER:Rise Up.png;
#BACKGROUND:Rise Up-bg.png;
#LYRICSPATH:Rise Up.lrc;
#CDTITLE:;
#MUSIC:Rise Up.mp3;
#OFFSET:-0.500000;
#SAMPLESTART:47.340000;
#SAMPLELENGTH:15.000000;
#SELECTABLE:YES;
#BPMS:0.000000=128.000015
;
#STOPS:
;
#BGCHANGES:;
#KEYSOUNDS:;
#ATTACKS:;

//---------------dance-single - Oni-91----------------
#NOTES:
     dance-single:
     :
     Hard:
     8:
     0.498233,0.546699,0.231407,0.082645,0.264465,422.000000,394.000000,28.000000,10.000000,0.000000,0.000000,0.498233,0.546699,0.231407,0.082645,0.264465,422.000000,394.000000,28.000000,10.000000,0.000000,0.000000:
// measure 0
0000
0000
0000
0000
,  // measure 1
0000
0000
0000
0000
,  // measure 2
0000
0000
0000
0000
,  // measure 3
0000
0000
0000
0000
,  // measure 4
2000
0000
0000
0001
,  // measure 5
3020
0000
0000
0000
,  // measure 6
2030
0000
0001
0010
,  // measure 7
0001
0000
0000
0001
0000
0000
0001
0000
0000
0001
0000
0000
0002
0000
0000
0000
,  // measure 8
3003
0000
0000
0110
,  // measure 9
0001
0000
0000
0101
0000
0000
0000
0000
1000
0000
0000
1100
0000
0000
0000
0000
,  // measure 10
0001
0000
0000
1000
0000
0000
0100
0000
0000
0000
0010
0000
0001
0000
0100
0000
,  // measure 11
0010
0000
0000
1010
0000
0000
0000
0000
0100
0000
0000
0101
0000
0000
0000
0000
,  // measure 12
0001
0000
0000
1000
0000
0000
0100
0000
0010
0000
0001
0000
0100
0000
0010
0000
,  // measure 13
1000
0000
0001
0010
0100
0000
1000
0001
,  // measure 14
0100
0000
0010
0100
0001
1000
0100
0010
,  // measure 15
0001
0000
0100
0010
1000
0000
0100
0010
,  // measure 16
0200
0001
0020
0330
,  // measure 17
1001
0000
0000
0001
0000
0000
0100
0000
0001
0000
0000
1000
0000
0000
0100
0000
,  // measure 18
1000
0100
0010
0001
0100
0000
0010
1000
,  // measure 19
0001
0000
0000
0010
0000
0000
0100
0000
1000
0000
0000
0010
0000
0000
0100
0000
,  // measure 20
0001
1000
0100
0010
0100
1000
0001
0100
,  // measure 21
0101
0000
0000
0001
0100
0000
0010
0000
1000
0000
0000
1000
0100
0000
0010
0000
,  // measure 22
0001
0000
0000
0100
0001
0000
0100
0000
0001
0000
0000
1000
0100
0000
1000
0000
,  // measure 23
0100
0010
1001
0110
,  // measure 24
0001
0000
1000
0000
0001
0000
1000
0000
0010
0100
0010
0100
0010
0100
0010
0000
,  // measure 25
1000
0000
0100
0000
1000
0000
0001
0000
0100
0000
0010
0100
0000
0100
0010
0000
,  // measure 26
1000
0000
0100
0000
1000
0000
0001
0000
0010
0000
0000
0011
0000
0000
0001
0000
,  // measure 27
0100
0000
0010
0000
1000
0000
0100
0000
0010
0000
0001
1000
0000
0001
1000
0000
,  // measure 28
0001
0000
0000
0100
0000
0000
0010
0000
0000
1000
0000
0000
0100
0000
0010
0000
0100
0000
0010
0000
0000
0001
0000
0000
,  // measure 29
1000
0000
0010
0000
0100
0000
0001
0000
1000
0000
0001
1000
0000
1000
0100
0000
,  // measure 30
0010
0000
0001
0000
0100
0000
0010
0000
1000
0000
0001
0100
0000
0000
0010
0000
,  // measure 31
0100
0000
0001
0000
1000
0000
0100
0000
0010
0000
0001
0100
0000
0010
1000
0000
,  // measure 32
0001
0000
0100
0000
0010
0000
1000
0000
1001
0000
0000
0220
0330
0000
0000
0000
,  // measure 33
1001
0000
0001
0101
0100
0000
0010
0000
,  // measure 34
1100
0000
0000
0000
0010
0000
0011
0000
0001
0000
1000
0000
0001
1000
0000
0000
,  // measure 35
0110
0000
0010
1001
0100
0000
0010
0000
,  // measure 36
0011
0001
0100
1001
0100
0010
0101
0000
,  // measure 37
0001
0000
0100
0000
0010
0000
1000
0000
0100
0000
0000
0010
0000
0000
0100
0000
,  // measure 38
1000
0000
0001
0000
0100
0000
0010
0000
1000
0000
0000
0001
0000
0000
1000
0000
,  // measure 39
0001
0000
0010
0000
0100
0000
0001
0000
0100
0000
0000
0010
0000
0000
0001
0000
,  // measure 40
1000
0000
0010
0000
0100
0000
0010
0000
1000
0000
0000
0001
0000
0000
1000
0000
,  // measure 41
0001
0000
1000
0001
0010
0100
0010
0010
,  // measure 42
0001
0000
0001
0100
0010
1000
0100
0100
,  // measure 43
0010
0001
0100
0010
1000
0100
1000
0100
,  // measure 44
0001
0100
0010
0100
0010
0001
0100
0010
,  // measure 45
1001
0000
0000
0001
0000
0000
0100
0000
0001
0000
0000
1000
0000
0000
0100
0000
,  // measure 46
1000
0000
0000
0001
0000
0000
0010
0000
0100
0000
1000
0000
0010
0000
0100
0000
,  // measure 47
0001
0000
0000
0001
0100
0000
0010
0000
1000
0000
0000
1000
0100
0000
1000
0000
,  // measure 48
0001
0000
0000
1000
0000
0000
0001
0000
0100
0000
0010
0000
1000
0000
0100
0000
,  // measure 49
0110
0000
0000
0010
0001
0000
1000
0000
0001
0000
0000
0001
0100
0000
0010
0000
,  // measure 50
1000
0000
0000
0010
1000
0000
0001
0000
1000
0000
0000
0100
0010
0000
0001
0000
,  // measure 51
1001
0110
0101
0011
,  // measure 52
1000
0000
0100
0000
0010
0000
0001
0000
1000
0001
1000
0001
1000
0001
1000
0001
,  // measure 53
2000
0000
0000
0000
,  // measure 54
0000
0000
3001
0000
,  // measure 55
0001
0000
0100
0000
1000
0000
0100
0000
0001
0000
1000
0100
0000
1000
0100
0000
,  // measure 56
0010
0000
0001
0000
0100
0000
0010
0000
1000
0000
0001
2000
0000
0000
3100
0000
,  // measure 57
0010
0000
0001
0000
0100
0000
0010
0000
1000
0000
0001
0010
0000
0001
0100
0000
,  // measure 58
0010
0000
0000
1000
0000
0000
0100
0000
0000
1000
0000
0000
0001
0000
0100
0000
0010
0000
1000
0000
0000
0001
0000
0000
,  // measure 59
1000
0000
0100
0000
1000
0000
0001
0000
0100
0000
0010
1000
0000
0001
0100
0000
,  // measure 60
0001
0000
1000
0000
0100
0000
0010
0000
0001
0000
1000
0100
0000
0010
0001
0000
,  // measure 61
1000
0000
0001
0000
0100
0000
0010
0000
1000
0000
0001
0010
0000
0001
0100
0000
,  // measure 62
0010
1000
0100
1000
0100
0010
0001
0100
,  // measure 63
1001
0000
0000
0000
;

//---------------dance-single - Oni-91----------------
#NOTES:
     dance-single:
     :
     Medium:
     5:
     0.322317,0.390499,0.148762,0.140497,0.057852,273.000000,255.000000,18.000000,17.000000,0.000000,0.000000,0.322317,0.390499,0.148762,0.140497,0.057852,273.000000,255.000000,18.000000,17.000000,0.000000,0.000000:
// measure 0
0000
0000
0000
0000
,  // measure 1
0000
0000
0000
0000
,  // measure 2
0000
0000
0000
0000
,  // measure 3
0000
0000
0000
0000
,  // measure 4
0002
0000
0000
1000
,  // measure 5
2003
0000
0000
0000
,  // measure 6
3200
0000
0000
0010
,  // measure 7
0020
0000
0000
0000
,  // measure 8
0330
0000
0000
0110
,  // measure 9
0001
0000
0000
0001
0000
0000
0000
0000
1000
0000
0000
1000
0000
0000
0000
0000
,  // measure 10
0001
0100
0010
1000
,  // measure 11
0100
0000
0000
0100
0000
0000
0000
0000
0010
0000
0000
0010
0000
0000
0000
0000
,  // measure 12
0001
0100
0010
1000
,  // measure 13
0001
0000
0100
0001
1000
0000
0001
0000
,  // measure 14
1000
0000
0001
1000
0100
0000
1000
0000
,  // measure 15
0001
0000
0010
0001
0100
0000
0010
0000
,  // measure 16
1100
0101
2002
3003
,  // measure 17
1000
0000
0000
1000
0000
0000
0000
0000
0001
0000
0000
0001
0000
0000
0000
0000
,  // measure 18
1000
0000
0100
0010
0100
0000
0010
0000
,  // measure 19
0001
0000
0000
0001
0000
0000
0000
0000
1000
0000
0000
1000
0000
0000
0000
0000
,  // measure 20
0001
0000
0100
0010
0100
0000
0001
0000
,  // measure 21
1000
0000
0001
0010
0001
0000
1000
0010
,  // measure 22
1000
0000
0001
0100
0001
0000
1000
0100
,  // measure 23
1000
0001
0100
0010
,  // measure 24
1000
0001
1000
0001
0200
0000
0000
0000
,  // measure 25
0301
0000
0000
0000
1000
0000
0000
0000
0100
0000
0000
0100
0000
0000
0000
0000
,  // measure 26
0010
0000
0001
0000
1000
0000
0000
0000
0001
0000
0000
0001
0000
0000
0000
0000
,  // measure 27
1000
0000
0010
0000
1000
0000
0000
0000
0001
0000
0000
0001
0000
0000
0000
0000
,  // measure 28
0100
0001
0010
0100
0010
0000
1001
0000
,  // measure 29
1000
0000
0000
0000
0001
0000
0000
0000
0100
0000
0000
0100
0000
0000
0000
0000
,  // measure 30
0001
0000
1000
0000
0100
0000
0000
0000
0010
0000
0000
0010
0000
0000
0000
0000
,  // measure 31
0001
0000
1000
0000
0001
0000
0000
0000
0100
0000
0000
0100
0000
0000
0000
0000
,  // measure 32
0001
1000
0100
0000
1100
0000
1001
0000
,  // measure 33
1002
0000
0000
0200
0000
0000
0303
0000
,  // measure 34
2001
0000
0000
0200
0000
0000
3300
0000
,  // measure 35
0120
0000
0000
0002
0000
0000
0033
0000
,  // measure 36
1002
0000
0000
0200
0000
0000
0303
0000
,  // measure 37
0010
1000
0001
0000
0010
0000
0100
0000
,  // measure 38
0010
0001
0100
0000
0001
0000
1000
0000
,  // measure 39
0010
0100
0001
0000
0100
0001
1000
0000
,  // measure 40
0001
1000
0001
1000
0001
0000
1000
0000
,  // measure 41
0110
0000
0100
0000
0001
0001
0001
0000
,  // measure 42
1000
0000
0100
0000
1000
1000
1000
0000
,  // measure 43
0001
0010
0001
0000
1000
0010
1000
0000
,  // measure 44
0001
0000
0100
0000
0010
1000
0001
0000
,  // measure 45
1001
0000
1100
0000
0010
0001
0100
0000
,  // measure 46
0001
0000
1000
0100
0010
0000
0001
0000
,  // measure 47
0100
0000
0001
0000
1000
0010
0100
0000
,  // measure 48
0001
0000
1000
0000
0001
0100
0010
1000
,  // measure 49
0100
0010
0100
0010
,  // measure 50
0001
1000
0001
1000
,  // measure 51
0011
0011
1100
1100
,  // measure 52
0001
1000
0001
1000
0020
0000
0000
0000
,  // measure 53
0200
0000
0000
0000
,  // measure 54
0000
0000
0330
0000
,  // measure 55
0001
0100
0001
0000
1000
0000
0100
0000
,  // measure 56
1000
0010
0100
0000
0001
0100
0010
0000
,  // measure 57
1000
0001
0100
0000
0001
0000
0010
0000
,  // measure 58
0100
0010
0001
0000
1000
0010
0100
0010
,  // measure 59
1000
0000
0001
0000
1000
0100
1000
0000
,  // measure 60
0001
0000
0010
0000
0100
0010
0001
0000
,  // measure 61
0100
0010
1000
0000
0001
0000
1000
0000
,  // measure 62
0001
0010
0100
0000
0010
0001
1000
0001
,  // measure 63
1000
0000
0000
0000
;

//---------------dance-single - Oni-91----------------
#NOTES:
     dance-single:
     :
     Easy:
     4:
     0.243213,0.286366,0.190084,0.140497,0.000000,206.000000,183.000000,23.000000,17.000000,0.000000,0.000000,0.243213,0.286366,0.190084,0.140497,0.000000,206.000000,183.000000,23.000000,17.000000,0.000000,0.000000:
// measure 0
0000
0000
0000
0000
,  // measure 1
0000
0000
0000
0000
,  // measure 2
0000
0000
0000
0000
,  // measure 3
0000
0000
0000
0000
,  // measure 4
1000
0000
0000
0000
,  // measure 5
0001
0000
0000
0000
,  // measure 6
0100
0000
0000
0000
,  // measure 7
0010
0000
0000
0000
,  // measure 8
2002
0000
0000
3003
,  // measure 9
0001
0000
0100
0000
,  // measure 10
0001
1000
0100
0100
,  // measure 11
1000
0000
0001
0000
,  // measure 12
0010
0001
0100
0100
,  // measure 13
0010
0000
1000
0010
,  // measure 14
0100
0001
1000
0001
,  // measure 15
0010
0000
0100
0010
,  // measure 16
1002
1000
2000
3003
,  // measure 17
0001
0100
0010
0100
,  // measure 18
0001
0001
1001
0000
,  // measure 19
1000
0100
0010
0100
,  // measure 20
1000
1000
1001
0000
,  // measure 21
0001
0100
0001
0000
,  // measure 22
1000
0100
1000
0000
,  // measure 23
0001
0010
0100
1000
,  // measure 24
0010
0100
2002
3003
,  // measure 25
0110
0100
0001
1000
,  // measure 26
0001
0010
0100
0000
,  // measure 27
0010
0100
0010
0001
,  // measure 28
1000
0001
0100
0110
,  // measure 29
1001
0001
1000
0100
,  // measure 30
1000
0001
0100
0000
,  // measure 31
0010
1000
0100
0010
,  // measure 32
0100
1000
2002
3003
,  // measure 33
0110
0000
0000
0110
0000
0000
0000
0000
,  // measure 34
1001
0000
0000
1001
0000
0000
0000
0000
,  // measure 35
0110
0000
0000
0110
0000
0000
0000
0000
,  // measure 36
1001
0000
0000
2002
0000
0000
3003
0000
,  // measure 37
0001
0100
0001
0001
,  // measure 38
1000
0100
1000
1000
,  // measure 39
0001
0010
0001
1000
,  // measure 40
0010
0100
0001
0001
,  // measure 41
1002
0000
0100
0100
,  // measure 42
0203
0000
0010
0010
,  // measure 43
0320
0000
1000
1000
,  // measure 44
1030
0010
1000
0110
,  // measure 45
1001
0000
0001
0010
,  // measure 46
0100
0010
0001
1000
,  // measure 47
0001
0000
1000
0010
,  // measure 48
0100
0001
0100
0010
,  // measure 49
1001
0000
0001
1000
,  // measure 50
0100
0000
0010
0001
,  // measure 51
0100
0010
0100
0001
,  // measure 52
1000
0001
2000
0000
,  // measure 53
0002
0000
0000
0000
,  // measure 54
0000
0000
3003
0000
,  // measure 55
1000
0100
1000
0001
,  // measure 56
0100
0010
0100
0100
,  // measure 57
0100
0001
0010
0100
,  // measure 58
0010
0001
2002
3003
,  // measure 59
1000
0010
0100
0001
,  // measure 60
0010
0100
1000
1000
,  // measure 61
0001
0010
0100
0010
,  // measure 62
0001
1000
0001
0100
,  // measure 63
0110
0000
0000
0000
;

//---------------dance-single - Oni-91----------------
#NOTES:
     dance-single:
     :
     Beginner:
     1:
     0.134594,0.182233,0.082645,0.000000,0.000000,114.000000,104.000000,10.000000,0.000000,0.000000,0.000000,0.134594,0.182233,0.082645,0.000000,0.000000,114.000000,104.000000,10.000000,0.000000,0.000000,0.000000:
// measure 0
0000
0000
0000
0000
,  // measure 1
0000
0000
0000
0000
,  // measure 2
0000
0000
0000
0000
,  // measure 3
0000
0000
0000
0000
,  // measure 4
1000
0000
0000
0000
,  // measure 5
1000
0000
0000
0000
,  // measure 6
0001
0000
0000
0000
,  // measure 7
0001
0000
0000
0000
,  // measure 8
1001
0000
0000
0000
,  // measure 9
0010
0000
0000
0000
,  // measure 10
0100
0000
0010
0000
,  // measure 11
0100
0000
0000
0000
,  // measure 12
0001
0000
1000
0000
,  // measure 13
0001
0000
0001
0000
,  // measure 14
1000
0000
1000
0000
,  // measure 15
0100
0000
0010
0000
,  // measure 16
0100
0000
0000
0000
,  // measure 17
0010
0000
0010
0000
,  // measure 18
0001
0000
1000
0000
,  // measure 19
0001
0000
0001
0000
,  // measure 20
0100
0000
0010
0000
,  // measure 21
1000
0000
1000
0000
,  // measure 22
0100
0000
0100
0000
,  // measure 23
0010
0000
0010
0000
,  // measure 24
0001
0001
0001
0000
,  // measure 25
1001
0000
0000
0000
,  // measure 26
1000
0000
0001
0000
,  // measure 27
0100
0000
0010
0000
,  // measure 28
0100
0000
0001
0000
,  // measure 29
1000
0000
0000
0000
,  // measure 30
0001
0000
0010
0000
,  // measure 31
0100
0000
0010
0000
,  // measure 32
0001
0000
1000
0000
,  // measure 33
1001
0000
0000
0000
,  // measure 34
0110
0000
0000
0000
,  // measure 35
1001
0000
0000
0000
,  // measure 36
0110
0000
0000
0000
,  // measure 37
0010
0000
0100
0000
,  // measure 38
0010
0000
1000
0000
,  // measure 39
0001
0000
1000
0000
,  // measure 40
0001
0000
1000
0000
,  // measure 41
1001
0000
0000
0000
,  // measure 42
0110
0000
0000
0000
,  // measure 43
0001
0000
1000
0000
,  // measure 44
0001
0000
0001
0001
,  // measure 45
0001
0000
0100
0000
,  // measure 46
0001
0000
1000
0000
,  // measure 47
0100
0000
1000
0000
,  // measure 48
0001
0000
0000
0000
,  // measure 49
0110
0000
0100
0000
,  // measure 50
0010
0000
1000
0000
,  // measure 51
0100
0000
0100
0000
,  // measure 52
0010
0010
0010
0010
,  // measure 53
0010
0000
0000
0000
,  // measure 54
0000
0000
0000
0000
,  // measure 55
1001
0000
1000
0000
,  // measure 56
0001
0000
0100
0000
,  // measure 57
0001
0000
1000
0000
,  // measure 58
0001
0000
1000
0000
,  // measure 59
0100
0000
0010
0000
,  // measure 60
0001
0000
0100
0000
,  // measure 61
0010
0000
0100
0000
,  // measure 62
0001
0000
1000
1000
,  // measure 63
1000
0000
0000
0000
;
